#TITLE:Highway Star;
#SUBTITLE:-2005 Summer Night Mix-;
#ARTIST:Silvia;
#TITLETRANSLIT:;
#SUBTITLETRANSLIT:;
#ARTISTTRANSLIT:;
#CREDIT:;
#BANNER:highwaystar-bn.png;
#BACKGROUND:highwaystar-bg.png;
#LYRICSPATH:;
#CDTITLE:cdtitle.PNG;
#MUSIC:HIGHWAY STAR -2005 Summer Night Mix-.mp3;
#OFFSET:-0.020;
#SAMPLESTART:25.280;
#SAMPLELENGTH:13.000;
#SELECTABLE:YES;
#BPMS:0.000=150.030;
#STOPS:;
#BGCHANGES:;
// cache tags:
#FIRSTBEAT:0.000;
#LASTBEAT:484.000;
#SONGFILENAME:Songs/Fresh Flock of Fantastic Files F4/(Zaghurim) Highway Star/Highway Star.sm;
#HASMUSIC:1;
#HASBANNER:1;
#MUSICLENGTH:197.728;
// end cache tags

//---------------dance-single - ----------------
#NOTES:
     dance-single:
     :
     Hard:
     11:
     1.000,1.000,0.617,0.010,1.000,1431.000,122.000,2.000,0.000,0.000:
1001
0000
0000
0000
,
0000
1001
0000
0000
0101
0000
1010
0101
,
0000
0000
0000
0000
,
0000
1001
0000
0000
0110
0000
1100
0011
,
0000
0000
0000
0000
,
0000
1010
0000
0000
0101
0000
1100
0011
,
0000
0000
0000
0000
,
1001
0000
0000
0000
1001
0000
1010
0101
,
0010
0100
0000
0100
0000
0100
0010
0000
0110
0000
0000
0110
0000
0000
0000
0000
,
1000
0001
0000
0001
0000
0001
1000
0000
0101
0000
0000
0101
0000
0000
0000
0000
,
1000
0010
0000
0010
0000
0010
1000
0000
1010
0000
0000
1010
0000
0000
0000
0000
,
0001
0010
0000
0010
0000
0010
0001
0000
0011
0000
0000
0110
0000
0000
1100
0000
,
1000
0100
0000
0100
0000
0100
1000
0000
1001
0000
0000
1001
0000
0000
0000
0000
,
0100
0010
0000
0010
0000
0010
0100
0000
0110
0000
0000
0110
0000
0000
0000
0000
,
1000
0010
0000
0010
0000
0010
0100
0000
1001
0000
0000
1001
0000
0000
0000
0000
,
1000
0100
0010
0001
0100
0010
1000
0010
0001
0010
0100
1000
0010
0100
0001
0100
,
1001
0000
0110
0000
0010
0100
0010
0000
0010
0100
1000
0100
0010
0100
0010
0001
,
1000
0100
0010
0001
0000
0000
0100
0001
0100
0001
0100
0001
0110
0000
1100
0000
,
0110
0000
1001
0000
0010
0100
0010
0100
0010
0001
0100
0010
0001
1000
0100
0000
,
0001
0010
1000
0010
0001
1000
0100
0001
0100
1000
0001
0010
0100
1000
0010
0100
,
1010
0000
0011
0000
1000
0010
1000
0100
0001
0010
0001
1000
0100
1000
0010
0100
,
1000
0100
0010
0001
0000
0000
1000
0001
1000
0001
1000
0001
1010
0000
1100
0000
,
1010
0000
1001
0000
0100
0010
1000
0100
0001
0100
0010
1000
0010
0100
0001
0000
,
1000
0100
0010
0001
0010
1000
0010
0001
0010
1000
0010
0001
0010
1000
0010
0100
,
1001
0010
0100
0000
0010
0100
0010
0000
0100
1000
0100
0000
0010
0001
0010
0000
,
0100
0010
0100
0000
0010
0100
0010
0000
0010
0001
0010
0000
0100
1000
0100
0000
,
1000
0100
0010
0000
0010
0100
0010
0000
0010
0100
1000
0000
0001
0010
0100
0000
,
0100
1000
0100
0000
0100
0010
0100
0000
1000
0001
0010
0000
0010
1000
0100
0000
,
0010
0100
0010
0000
0100
0010
0100
0000
0001
1000
0100
0000
1000
0001
0010
0000
,
0001
0010
0100
0000
0100
0010
0100
0000
0100
0010
0001
0000
1000
0100
0010
0000
,
0010
0001
0010
0000
0100
0001
0100
0000
0001
0010
0001
0000
0100
1000
0100
0000
,
0001
0100
0001
0000
0100
0001
0100
0000
1000
0100
0010
0001
0010
0100
0010
0100
,
1001
0000
0100
0010
0001
0000
0100
0001
0100
0010
0100
0010
0001
0000
0010
0100
,
1000
0000
0010
0100
1000
0000
0010
1000
0010
0100
0010
0100
1000
0000
0100
0010
,
0001
0000
0001
1000
0010
0000
0001
0010
0001
1000
0001
1000
0010
0000
1000
0001
,
0100
0000
1000
0001
0100
0000
1000
0100
1000
0001
1000
0001
0100
0000
0001
1000
,
0010
0000
1000
0010
0100
0000
1000
0100
1000
0010
1000
0010
0100
0000
0010
1000
,
0001
0000
0010
1000
0001
0000
0010
0001
0010
1000
0010
1000
0001
0000
1000
0010
,
1000
0000
1000
0001
0010
0000
1000
0010
1000
0001
1000
0001
0010
0000
0001
1000
,
0100
0000
0001
1000
0100
0000
0001
0100
0001
1000
0001
1000
0100
0000
1000
0001
,
0010
0000
1000
0100
0010
0000
0100
0001
0100
0010
1000
0010
0001
0000
0010
0100
,
1000
0000
0100
0010
0001
0000
0100
0001
1000
0010
1000
0010
0001
0000
0010
0100
,
1000
0100
0010
0001
1000
0100
0010
0001
1000
0100
0010
0001
1000
0100
0010
0001
,
0010
0100
0001
0010
0100
0010
0100
1000
0010
0100
1000
0100
0010
0001
0100
0010
,
1001
0100
0010
0001
0010
0100
0001
0100
0001
0010
0100
1000
0010
0100
0001
0100
,
1000
0100
0010
0001
0010
0100
0001
0100
0001
0010
0100
1000
0010
0100
0001
0100
,
1000
0100
0010
0001
1000
0001
0100
1000
0100
0010
0001
0100
0001
0100
0010
0001
,
0010
0100
1000
0001
1000
0001
1000
0010
0001
0010
0100
1000
0010
1000
0100
0010
,
0001
0010
0100
0010
1000
0010
0100
0010
1000
0010
0100
0010
1000
0010
0100
0010
,
1000
0100
0001
0010
1000
0100
0001
0010
1000
0100
0001
0010
1000
0100
0001
0010
,
0100
0010
1000
0010
0100
0010
0100
0001
0100
0010
0100
0010
1000
0010
0100
0001
,
1000
0100
0010
0001
0100
0001
1000
0100
0010
0001
1000
0001
0010
0100
0010
0100
,
1001
0000
0011
0000
0010
0001
0010
0000
0001
1000
0010
1000
0001
1000
0001
0100
,
0010
1000
0001
0100
0000
0000
1000
0100
1000
0100
1000
0100
1001
0000
1010
0000
,
1001
0000
0110
0000
0001
1000
0001
1000
0001
0100
1000
0001
0100
0010
1000
0000
,
0100
0001
0010
0001
0100
0010
1000
0100
1000
0010
0100
0001
1000
0010
0100
1000
,
0011
0000
0101
0000
0010
0100
1000
0010
0100
0001
0100
0010
1000
0010
0001
1000
,
0010
1000
0001
0100
0000
0000
0010
0100
0010
0100
0010
0100
0011
0000
1010
0000
,
0011
0000
0110
0000
1000
0010
0100
0010
0100
1000
0001
0010
0001
1000
0100
0000
,
0010
1000
0001
0100
0001
0010
0001
0100
0001
0010
0001
0100
0001
0010
0001
1000
,
0100
1000
0001
0000
1000
0001
1000
0000
0001
0100
0001
0000
1000
0010
1000
0000
,
0100
1000
0001
0000
0010
0001
1000
0000
0100
0010
1000
0000
0010
0100
0001
0000
,
0100
0001
1000
0000
0010
0001
1000
0000
0010
0001
0100
0000
0010
1000
0001
0000
,
1000
0100
0001
0000
0010
1000
0001
0000
1000
0010
1000
0000
0100
0010
0100
0000
,
0010
0001
1000
0000
0100
1000
0001
0000
0010
0100
0001
0000
0100
0010
1000
0000
,
0001
1000
0001
0000
0100
1000
0001
0000
0001
1000
0010
0000
0100
0001
1000
0000
,
0001
0010
1000
0000
0001
0010
0001
0000
0010
1000
0010
0000
0010
0100
0001
0000
,
0010
0001
0010
0000
0100
0010
0001
0000
0100
0000
0010
0100
0001
0100
0010
0000
,
1001
0000
0110
0000
0000
0010
0011
0000
,
1100
0000
0110
0100
0000
0010
0011
0000
,
0110
0000
0011
0000
0100
0100
0101
0000
,
0110
0000
0000
0000
1010
0000
0100
0000
0000
0000
0100
0000
0001
0010
0000
0010
,
0101
0000
0011
0000
0000
0010
0011
0000
,
1001
0000
0110
0000
0101
0100
1100
0000
,
0110
0000
1010
0000
0011
0010
0110
0000
,
0110
0000
0010
0000
1010
0000
1000
0000
0000
0000
1000
0000
1010
0000
0000
0010
,
1100
0000
0101
0000
1100
0100
0110
0000
,
1010
0000
0000
0000
0101
0000
0000
0000
1001
0000
0001
0010
1001
0000
0000
0000
,
1100
0000
0011
0000
1010
1000
1001
0000
,
0010
0100
0010
0100
0010
0100
0010
0100
0010
0100
0010
0100
0010
0100
0010
0100
,
1001
0010
0100
1000
0100
0010
1000
0010
1000
0100
0010
0001
0100
0010
1000
0010
,
0001
0010
0100
1000
0100
0010
1000
0010
1000
0100
0010
0001
0100
0010
1000
0010
,
0001
0010
0100
1000
0001
1000
0010
0001
0010
0100
1000
0010
1000
0010
0100
1000
,
0100
0010
0001
1000
0001
1000
0001
0100
1000
0100
0010
0001
0100
0001
0010
0100
,
1000
0100
0010
0100
0001
0100
0010
0100
0001
0100
0010
0100
0001
0100
0010
0100
,
0001
0010
1000
0100
0001
0010
1000
0100
0001
0010
1000
0100
0001
0010
1000
0100
,
0010
0100
0001
0100
0010
0100
0010
1000
0010
0100
0010
0100
0001
0100
0010
1000
,
0001
0010
0100
1000
0010
1000
0001
0010
0100
1000
0001
1000
0100
0010
0100
0010
,
0001
0100
0010
0001
0010
0100
0001
0100
0001
0010
0100
1000
0010
0100
0001
0100
,
1000
0100
0010
0001
0010
0100
0001
0100
0001
0010
0100
1000
0010
0100
0001
0100
,
1000
0100
0010
0001
1000
0001
0100
1000
0100
0010
0001
0100
0001
0100
0010
0001
,
0010
0100
1000
0001
1000
0001
1000
0010
0001
0010
0100
1000
0010
1000
0100
0010
,
0001
0010
0100
0010
1000
0010
0100
0010
1000
0010
0100
0010
1000
0010
0100
0010
,
1000
0100
0001
0010
1000
0100
0001
0010
1000
0100
0001
0010
1000
0100
0001
0010
,
0100
0010
1000
0010
0100
0010
0100
0001
0100
0010
0100
0010
1000
0010
0100
0001
,
1000
0100
0010
0001
0100
0001
1000
0100
0010
0001
1000
0001
0010
0100
0010
0100
,
1000
0000
0001
0000
0010
0100
0010
0000
0010
0100
1000
0100
0010
0100
0010
0001
,
1000
0100
0010
0001
0000
0000
0010
0001
0010
0001
0010
0001
0100
0000
1000
0000
,
0100
0000
0010
0000
1000
0100
0010
0100
0010
0001
0100
0001
0100
1000
0010
0000
,
0010
0100
0001
0010
0001
1000
0100
1000
0010
1000
0001
0010
0100
1000
0010
0100
,
1000
0000
1000
0000
1000
0000
1000
0100
1000
0100
0000
0100
0010
0000
0010
0000
,
0001
0000
0001
0000
0001
0000
0001
0010
0001
0010
0000
0010
0100
0000
0100
0000
,
0100
0000
0100
0000
0100
0000
0100
0001
0100
0001
0000
0001
1000
0000
1000
0000
,
0010
0000
0010
0000
0010
0000
1000
0100
0001
0010
0100
1000
0010
0100
0010
0100
,
1010
0000
1001
0000
0010
0001
0100
0000
0001
1000
0010
1000
0001
1000
0001
0100
,
0010
1000
0001
0100
0000
0000
1000
0100
1000
0100
1000
0100
1001
0000
1010
0000
,
1001
0000
0110
0000
0001
1000
0001
1000
0001
0100
1000
0001
0100
0010
1000
0000
,
0100
0001
0010
0001
0100
0010
1000
0100
1000
0010
0100
0001
1000
0010
0100
1000
,
0011
0000
0101
0000
0010
0100
1000
0010
0100
0001
0100
0010
1000
0010
0001
1000
,
0010
1000
0001
0100
0000
0000
0010
0100
0010
0100
0010
0100
0011
0000
1010
0000
,
0011
0000
0110
0000
1000
0001
0100
0010
0100
1000
0001
0010
0001
1000
0100
0000
,
0010
1000
0001
0100
0001
0010
0001
0100
0001
0010
0001
0100
0001
0010
0001
1000
,
0110
0000
1001
0000
0100
0010
0001
0000
1000
0001
0100
0001
1000
0001
1000
0010
,
0100
0001
1000
0010
0000
0000
0001
0010
0001
0010
0001
0010
1001
0000
0101
0000
,
0110
0000
1001
0000
1000
0001
1000
0001
1000
0010
0001
1000
0010
0100
0001
0000
,
0010
1000
0100
1000
0010
0100
0001
0010
0001
0100
0010
1000
0001
0100
0010
0001
,
1100
0000
1010
0000
0100
0001
1000
0100
0010
1000
0010
0100
0001
0100
1000
0001
,
0100
0001
1000
0010
0000
0000
0100
0010
0100
0010
0100
0010
1100
0000
0101
0000
,
1100
0000
0110
0000
0001
1000
0010
0100
0010
0001
1000
0100
1000
0001
0010
0000
,
0100
0001
1000
0010
1000
0100
1000
0010
1000
0100
1000
0010
1000
0100
1000
0001
,
0220
0000
0000
0000
,
0330
0000
0000
0000
;

//---------------dance-single - ----------------
#NOTES:
     dance-single:
     :
     Challenge:
     13:
     1.000,1.000,1.000,0.010,1.000,1444.000,341.000,2.000,0.000,0.000:
1010
0010
0000
0000
0000
0000
0000
0000
,
0000
0101
0100
0000
1010
0010
1001
0110
,
0000
0010
0000
0000
0000
0000
0000
0000
,
0000
1001
0001
0000
0110
0010
1100
0011
,
0000
0001
0000
0000
0000
0000
0000
0000
,
0000
1010
0010
0000
0101
0001
1100
0011
,
0000
0010
0000
0000
0000
0000
0000
0000
,
1001
0000
1000
0000
1001
1000
1010
0101
,
0110
0110
0000
0110
0000
0110
1010
0000
0110
0000
0000
0110
0000
0000
0000
0000
,
1001
1001
0000
1001
0000
1001
0110
0000
1001
0000
0000
1001
0000
0000
0000
0000
,
1010
1010
0000
1010
0000
1010
0101
0000
1010
0000
0000
1010
0000
0000
0000
0000
,
0011
0011
0000
0011
0000
0011
1100
0000
0011
0000
0000
0110
0000
0000
1100
0000
,
1001
1001
0000
1001
0000
1001
1100
0000
1001
0000
0000
1001
0000
0000
0000
0000
,
0110
0110
0000
0110
0000
0110
1001
0000
0110
0000
0000
0110
0000
0000
0000
0000
,
1100
1100
0000
1100
0000
1100
0011
0000
1100
0000
0000
1100
0000
0000
0000
0000
,
1000
0100
0010
0001
0100
0010
1000
0010
0001
0010
0100
1000
0010
0100
0001
0100
,
1001
0000
0110
0000
1010
0010
0011
0000
0010
0100
1000
0100
0010
0100
0010
0001
,
1000
0100
0010
0001
0000
0000
0100
0001
0100
0001
0100
0001
0110
0000
1100
0000
,
1001
0000
0110
0000
1010
0100
0010
0100
0010
0001
0100
0010
0001
1000
0100
0000
,
0001
0010
1000
0010
0001
1000
0100
0001
0100
1000
0001
0010
0100
1000
0011
0100
,
1010
0000
0011
0000
1100
0100
0110
1000
0001
0010
0001
1000
0100
1000
0010
0100
,
1000
0100
0010
0001
0000
0000
1000
0001
1000
0001
1000
0001
1010
0000
1100
0000
,
1010
0000
1001
0000
0110
0010
0011
1000
0001
0100
0010
1000
0010
0100
0001
0000
,
1000
0100
0010
0001
0010
1000
0010
0001
0010
1000
0010
0001
0010
1000
0010
0100
,
1001
0010
0100
0000
1010
0100
0010
0000
0110
1000
0100
0000
0110
0001
0010
0000
,
1100
0010
0100
0000
0011
0100
0010
0000
1010
0001
0010
0000
0101
1000
0100
0000
,
1010
0100
0010
0000
0011
0100
0010
0000
0011
0100
1000
0000
0101
0010
0100
0000
,
0110
1000
0100
0000
0101
0010
0100
0000
0110
0001
0010
0000
0110
1000
0100
0000
,
0011
0100
0010
0000
1100
0010
0100
0000
0101
1000
0100
0000
1010
0001
0010
0000
,
0101
0010
0100
0000
1100
0010
0100
0000
1100
0010
0001
0000
1010
0100
0010
0000
,
0110
0001
0010
0000
0110
0001
0100
0000
0101
0010
0001
0000
0101
1000
0100
0000
,
0011
0100
0001
0000
1100
0001
0100
0000
1000
0100
0010
0001
0010
0100
0010
0100
,
1001
0000
0100
0010
0001
0000
0100
0001
0100
0010
0100
0010
0001
0000
0010
0100
,
1000
0000
0010
0100
1000
0000
0010
1000
0010
0100
0010
0100
1000
0000
0100
0010
,
0001
0000
0001
1000
0010
0000
0001
0010
0001
1000
0001
1000
0010
0000
1000
0001
,
0100
0000
1000
0001
0100
0000
1000
0100
1000
0001
1000
0001
0100
0000
0001
1000
,
0010
0000
1000
0010
0100
0000
1000
0100
1000
0010
1000
0010
0100
0000
0010
1000
,
0001
0000
0010
1000
0001
0000
0010
0001
0010
1000
0010
1000
0001
0000
1000
0010
,
1000
0000
1000
0001
0010
0000
1000
0010
1000
0001
1000
0001
0010
0000
0001
1000
,
0100
0000
0001
1000
0100
0000
0001
0100
0001
1000
0001
1000
0100
0000
1000
0001
,
0010
0000
1000
0100
0010
0000
0100
0001
0100
0010
1000
0010
0001
0000
0010
0100
,
1000
0000
0100
0010
0001
0000
0100
0001
1000
0010
1000
0010
0001
0000
0010
0100
,
1000
0100
0010
0001
1000
0100
0010
0001
1000
0100
0010
0001
1000
0100
0010
0001
,
0010
0100
1000
0000
0001
0000
0010
0000
0100
0000
0010
0000
0100
0000
1000
0000
0010
0000
0100
0000
1000
0000
0100
0000
0010
0000
0001
0000
0100
0000
0010
0000
,
1001
0100
0010
0001
1010
0100
0001
0100
1001
0010
0100
1000
0011
0100
0001
0100
,
1001
0100
0010
0001
1010
0100
0001
0100
1001
0010
0100
1000
0011
0100
0001
0100
,
1010
0100
0010
0001
1010
0001
0100
1000
0101
0010
0001
0100
1001
0100
0010
0001
,
1010
0100
1000
0001
1010
0001
1000
0010
0101
0010
0100
1000
0011
1000
0100
0010
,
1001
0010
0100
0010
1001
0010
0100
0010
1001
0010
0100
0010
1001
0010
0100
0010
,
1001
0100
0001
0010
1001
0100
0001
0010
1001
0100
0001
0010
1001
0100
0001
0010
,
0101
0010
1000
0010
0101
0010
0100
0001
1100
0010
0100
0010
1100
0010
0100
0001
,
1010
0100
0010
0001
1100
0001
1000
0100
1010
0001
1000
0001
0010
0100
0010
0100
,
1001
0000
0011
0000
0011
0001
0101
0000
0001
1000
0010
1000
0001
1000
0001
0100
,
0010
1000
0001
0100
0000
0000
1000
0100
1000
0100
1000
0100
1001
0000
1010
0000
,
0110
0000
1001
0000
0011
1000
0001
1000
0001
0100
1000
0001
0100
0010
1000
0000
,
0100
0001
0010
0001
0100
0010
1000
0100
1000
0010
0100
0001
1000
0010
0101
1000
,
0011
0000
0101
0000
1010
1000
1001
0010
0100
0001
0100
0010
1000
0010
0001
1000
,
0010
1000
0001
0100
0000
0000
0010
0100
0010
0100
0010
0100
0011
0000
1010
0000
,
0011
0000
0110
0000
1001
0001
0101
0010
0100
1000
0001
0010
0001
1000
0100
0000
,
0010
1000
0001
0100
0001
0010
0001
0100
0001
0010
0001
0100
0001
0010
0001
1000
,
0110
1000
0001
0000
1100
0001
1000
0000
1001
0100
0001
0000
1001
0010
1000
0000
,
0101
1000
0001
0000
1010
0001
1000
0000
1100
0010
1000
0000
0011
0100
0001
0000
,
1100
0001
1000
0000
1010
0001
1000
0000
1010
0001
0100
0000
0011
1000
0001
0000
,
1001
0100
0001
0000
0011
1000
0001
0000
1001
0010
1000
0000
0101
0010
0101
0000
,
1010
0001
1000
0000
0101
1000
0001
0000
0011
0100
0001
0000
1100
0010
1000
0000
,
0011
1000
0001
0000
0101
1000
0001
0000
0101
1000
0010
0000
1100
0001
1000
0000
,
1001
0010
1000
0000
1001
0010
0001
0000
0011
1000
0010
0000
0011
0100
0001
0000
,
1010
0001
0010
0000
0101
0010
0001
0000
0100
0000
0010
0100
0001
0100
0010
0000
,
1001
0000
0110
0000
0000
0010
0011
0000
,
1100
0000
0110
0100
0000
0010
0011
0000
,
0110
0000
0011
0000
0100
0100
0101
0000
,
0110
0000
0000
0000
1010
0000
0100
0000
0000
0000
0100
0000
0001
0010
0000
0010
,
0101
0000
0011
0000
0000
0010
0011
0000
,
1001
0000
0110
0000
0101
0100
1100
0000
,
0110
0000
1010
0000
0011
0010
0110
0000
,
0110
0000
0010
0000
1010
0000
1000
0000
0000
0000
1000
0000
1010
0000
0000
0010
,
1100
0000
0101
0000
1100
0100
0110
0000
,
1010
0000
0000
0000
0101
0000
0000
0000
1001
0000
0001
0010
1001
0000
0000
0000
,
1100
0000
0011
0000
1010
1000
1001
0000
,
0010
0100
0010
0100
0010
0100
0010
0100
0010
0100
0010
0100
0010
0100
0010
0100
,
1001
0010
0100
1000
0101
0010
1000
0010
1001
0100
0010
0001
1100
0010
1000
0010
,
0101
0010
0100
1000
0101
0010
1000
0010
1001
0100
0010
0001
1100
0010
1000
0010
,
1001
0010
0100
1000
0011
1000
0010
0001
1010
0100
1000
0010
1100
0010
0100
1000
,
0101
0010
0001
1000
0011
1000
0001
0100
1001
0100
0010
0001
1100
0001
0010
0100
,
1001
0100
0010
0100
0011
0100
0010
0100
0011
0100
0010
0100
0011
0100
0010
0100
,
1001
0010
1000
0100
1001
0010
1000
0100
1001
0010
1000
0100
1001
0010
1000
0100
,
0011
0100
0001
0100
0011
0100
0010
1000
0011
0100
0010
0100
0011
0100
0010
1000
,
0101
0010
0100
1000
0011
1000
0001
0010
0101
1000
0001
1000
0100
0010
0100
0010
,
1001
0100
0010
0001
1010
0100
0001
0100
1001
0010
0100
1000
0011
0100
0001
0100
,
1010
0100
0010
0001
1010
0100
0001
0100
1001
0010
0100
1000
0011
0100
0001
0100
,
1010
0100
0010
0001
1100
0001
0100
1000
0101
0010
0001
0100
0011
0100
0010
0001
,
1010
0100
1000
0001
1100
0001
1000
0010
0101
0010
0100
1000
0011
1000
0100
0010
,
1100
0010
0100
0010
1100
0010
0100
0010
1100
0010
0100
0010
1100
0010
0100
0010
,
1001
0100
0001
0010
1001
0100
0001
0010
1001
0100
0001
0010
1001
0100
0001
0010
,
1100
0010
1000
0010
1100
0010
0100
0001
1100
0010
0100
0010
1100
0010
0100
0001
,
1010
0100
0010
0001
1100
0001
1000
0100
1010
0001
1000
0001
0010
0100
0010
0100
,
1010
0000
0001
0000
0010
0100
0010
0000
0010
0100
1000
0100
0010
0100
0010
0001
,
1000
0100
0010
0001
0000
0000
0010
0001
0010
0001
0010
0001
0100
0000
1000
0000
,
0100
0000
0010
0000
1000
0100
0010
0100
0010
0001
0100
0001
0100
1000
0010
0000
,
0010
0100
0001
0010
0001
1000
0100
1000
0010
1000
0001
0010
0100
1000
0010
0100
,
1000
0000
1000
0000
1000
0000
1000
0100
1000
0100
0000
0100
0010
0000
0010
0000
,
0001
0000
0001
0000
0001
0000
0001
0010
0001
0010
0000
0010
0100
0000
0100
0000
,
0100
0000
0100
0000
0100
0000
0100
0001
0100
0001
0000
0001
1000
0000
1000
0000
,
0010
0000
0010
0000
0010
0000
1000
0100
0001
0010
0100
1000
0010
0100
0010
0100
,
1010
0000
1001
0000
0011
0001
0101
0000
0001
1000
0010
1000
0001
1000
0001
0100
,
0010
1000
0001
0100
0000
0000
1000
0100
1000
0100
1000
0100
1001
0000
1010
0000
,
0110
0000
1001
0000
0011
1000
0001
1000
0001
0100
1000
0001
0100
0010
1000
0000
,
0100
0001
0010
0001
0100
0010
1000
0100
1000
0010
0100
0001
1000
0010
0101
1000
,
0011
0000
0101
0000
1010
1000
1001
0010
0100
0001
0100
0010
1000
0010
0001
1000
,
0010
1000
0001
0100
0000
0000
0010
0100
0010
0100
0010
0100
0011
0000
1010
0000
,
0011
0000
0110
0000
1001
0001
0101
0010
0100
1000
0001
0010
0001
1000
0100
0000
,
0010
1000
0001
0100
0001
0010
0001
0100
0001
0010
0001
0100
0001
0010
0001
1000
,
0110
0000
1001
0000
1100
1000
1010
0000
1000
0001
0100
0001
1000
0001
1000
0010
,
0100
0001
1000
0010
0000
0000
0001
0010
0001
0010
0001
0010
1001
0000
0101
0000
,
0110
0000
1001
0000
1100
0001
1000
0001
1000
0010
0001
1000
0010
0100
0001
0000
,
0010
1000
0100
1000
0010
0100
0001
0010
0001
0100
0010
1000
0001
0100
1010
0001
,
1100
0000
1010
0000
0101
0001
1001
0100
0010
1000
0010
0100
0001
0100
1000
0001
,
0100
0001
1000
0010
0000
0000
0100
0010
0100
0010
0100
0010
1100
0000
0101
0000
,
1100
0000
0110
0000
1001
1000
1010
0100
0010
0001
1000
0100
1000
0001
0010
0000
,
0100
0001
1000
0010
1000
0100
1000
0010
1000
0100
1000
0010
1000
0100
1000
0001
,
0220
0000
0000
0000
,
0330
0000
0000
0000
;
