#TITLE:Emerald Sword;
#SUBTITLE:8-Arrowed;
#ARTIST:Rhapsody;
#TITLETRANSLIT:;
#SUBTITLETRANSLIT:;
#ARTISTTRANSLIT:;
#CREDIT:;
#BANNER:Emeraldsword-bn.png;
#BACKGROUND:emeraldsword-bg.png;
#LYRICSPATH:;
#CDTITLE:!IzzyTitle.png;
#MUSIC:Rhapsody - Emerald Sword.mp3;
#OFFSET:1.800;
#SAMPLESTART:33.293;
#SAMPLELENGTH:12.000;
#SELECTABLE:YES;
#BPMS:0.000=180.000,540.000=120.000,544.000=180.000;
#STOPS:231.000=0.320
;
#BGCHANGES:;
// cache tags:
#FIRSTBEAT:5.500;
#LASTBEAT:769.000;
#SONGFILENAME:Songs/Izzy's 8-Arrowed Pack Volume 1/Emerald Sword/emeraldsword.sm;
#HASMUSIC:1;
#HASBANNER:1;
#MUSICLENGTH:261.099;
// end cache tags

//---------------dance-double - Emerald Sword----------------
#NOTES:
     dance-double:
     Emerald Sword:
     Hard:
     13:
     1.000,1.000,1.000,1.000,1.000,2258.000,557.000,1109.000,0.000,1960.000:
00000000
00000000
00000000
00000000
,
00000000
00000000
00000000
20020000
00000000
00000000
00000000
30030000
,
22220011
00000100
33331000
00000010
00000110
00001001
00000000
00000001
,
00000110
00000000
00000011
00000000
00000000
00000000
00000100
00000000
00001000
00000100
00001000
00000100
00001000
00000000
00000000
00000000
,
22220011
33330000
00000100
00000000
00001100
00000000
00000001
00000000
00000101
00000000
00000110
00000000
00000000
00000000
00000100
00000000
,
00001010
00000000
00001001
00000000
00000000
00000000
00000010
00000000
00001010
00000000
00000101
00000000
22220110
33330000
00000000
00000000
,
22220101
33330000
00000010
00000000
00001100
00000000
00000011
00000000
00001100
00000000
00000110
00000000
00000000
00000000
00000011
00000000
,
00001010
00000000
00001100
00000000
00000000
00000000
00001010
00000000
00001000
00000010
00001000
00000010
00001000
00000000
00000000
00000000
,
22220011
33330000
00001000
00000000
00000110
00000000
00000001
00000000
00001100
00000000
00000011
00000000
00000000
00000000
00001001
00000000
,
00000110
00000000
00001010
00000000
00000000
00000000
00001010
00000000
22220011
33330000
00000110
00000000
22221000
33330100
00001000
00000100
,
22021000
00000010
00000100
00000001
00001000
00000001
00000010
33030100
22021000
00000100
00000010
00000001
00001000
00000010
00001000
33030100
,
22021000
00000001
00000010
00000100
00001000
00000001
00001000
33030001
22020010
00000100
00001000
33030100
22020010
00000001
00001000
33030001
,
20220010
00000100
00001000
00000010
00001000
00000100
00000010
30330001
20220010
00000001
00001000
00000010
00001000
00000010
00000100
30330001
,
20221000
00000001
00001000
00000010
00000100
00000001
00001000
30330010
20220100
00000010
00001000
30330001
20221000
00000010
00000100
30330001
,
22021000
00000100
00000010
00000001
00001000
00000100
00000010
33030001
22020100
00000010
00001000
00000001
00000010
00000100
00001000
33030001
,
22020010
00000100
00001000
00000010
00000100
00000010
00001000
33030001
22021000
00000010
00000100
33030010
22021000
00000001
00000100
33030010
,
20221000
00000100
00000010
00000001
00001000
00000010
00000100
30330001
20220010
00000100
00001000
00000010
00000100
00000001
00000010
30330001
,
20220100
00000010
00001000
00000100
00001000
00000001
00001000
30330010
20220100
00000001
00000010
30330100
20221000
00000001
00000010
30330100
,
00001000
00000010
00001000
00000001
00001000
00000000
00000010
00000000
00000102
00000000
00000000
00000000
00000000
00000000
00000000
00000003
,
00001000
00000100
00001000
00000100
00001000
00000000
00000000
00000010
00001100
00000000
00000010
00000000
00000110
00000000
00000001
00000000
,
00001000
00000100
00001000
00000100
00001000
00000000
00001000
00000000
00002001
00000000
00000000
00000000
00000000
00000000
00003000
00000000
,
00000001
00000010
00000100
00001000
00000010
00000100
00000001
00001000
00000010
00000000
00000000
00000000
00000001
00000000
00000010
00000000
,
00000100
00001000
00000100
00000000
00001000
00000000
00000001
00000000
00000101
00000000
00000000
00000000
00000000
00000000
00002000
00003000
,
00000001
00000100
00000001
00000100
00000001
00000000
00000100
00000000
00000110
00000000
00000000
00000000
00001001
00000000
00000000
00000000
,
00000001
00000010
00000100
00001000
00000001
00001000
00000100
00000010
00000001
00000000
00000100
00000000
00000010
00000000
00001000
00000000
,
00000001
00000010
00000001
00001000
00000001
00000100
00000010
00001000
00000012
00000000
00000000
00000003
00002200
00000000
00000000
00003300
,
20020001
00000010
00000100
00001000
00000001
30030010
20020100
00001000
00000010
00000100
00000010
30031000
20020001
00000100
00000010
30030100
,
20020001
00001000
00000100
00000010
00000001
30031000
20020001
00000010
00000100
00001000
00000010
30030100
20020001
00001000
00000010
30030100
,
20020001
00000010
00000100
00001000
00000100
30031000
20020100
00000010
00000001
00000010
00000100
30031000
20020100
00001000
00000010
30031000
,
11110100
00001000
11110010
00001000
11110001
00000100
11110010
00001000
11110001
00000100
11110010
00001000
11110001
00000010
11110100
00001000
,
22020001
00000100
00000010
00001000
00000001
33030100
22020010
00001000
00000100
00000010
00000001
33031000
22020100
00001000
00000010
33031000
,
22020001
00001000
00000001
00001000
00000100
33031000
22020010
00000100
00000001
00000010
00000001
33030100
22020001
00000100
00000001
33030010
,
22020100
00001000
00000001
00000010
00000100
33030010
22020001
00001000
00000100
00000010
00000100
33031000
22020010
00000100
00000010
33031000
,
22020001
00000100
00000010
00001000
00000100
00000010
00000001
33031000
22020100
00000010
33030001
22020010
00000100
33031000
22020010
33030100
,
22020001
00001000
00000010
00000100
00000010
00000100
00000001
33031000
22020010
00000100
33030001
22021000
00000010
33030100
22020001
33031000
,
22020100
00000010
00000001
00000010
00000001
33030010
22020100
00001000
00000010
00000100
00000001
33030010
22020100
00001000
00000100
33030010
,
22020001
00001000
00000001
00001000
00000001
33031000
22020010
00000100
00000010
00001000
00000001
33030100
22020010
00001000
00000001
33030100
,
11110001
00000010
11110100
00001000
11110010
00000100
11110001
00000010
11110100
00001000
11110100
00000010
11110001
00001000
11110001
00000010
,
22220100
00000010
33330001
22220010
00000100
33331000
22220001
33330010
22220100
00001000
00000100
00000010
00000100
00001000
00000100
33330010
,
22220001
00000010
33330100
22220010
00000001
33331000
22220010
33330100
22220001
00001000
00000010
00000100
00000001
00001000
00000010
33330100
,
00020001
00001000
00000010
00000100
00200001
00000010
00000100
00000010
02000001
00001000
00000100
00000010
20000100
00001000
00000010
33330100
,
22220001
00000010
00000100
00001000
00000010
00000100
00000010
00001000
00000001
00000100
00000010
33330100
10010001
00001000
10010010
00000100
,
20021001
00000000
00000000
00000000
00000000
00000000
00000010
30030000
20020110
00000000
00000000
30030000
20021000
00000000
00000001
30030000
,
20020101
00000000
00000000
00000000
00000000
00000000
00000000
00000000
02200000
00000000
00000000
33330000
20020000
00000000
00000000
30030000
,
20020101
00000000
00000000
00000000
00000000
00000000
00000000
00000000
00000010
00000000
00000000
00000000
00000000
00000000
00000000
00000000
00001000
00000000
00000000
00000000
00000000
30030000
00000000
00000000
20020100
00000000
00000000
00000000
00000000
00000000
00000000
00000000
00000010
30030000
00000000
00000000
20021000
00000000
00000000
00000000
00000001
00000000
00000000
00000000
00000000
30030000
00000000
00000000
,
20021001
00000000
00000000
00000000
00000000
00000000
00000010
00000000
00001001
00000000
00000000
30030000
20020000
00000000
00000000
30030000
,
22020101
00000000
00000000
00000000
00001000
00000000
00000010
33030000
22020101
00000000
00000000
33030000
22020001
00000000
00000100
33030000
,
22021010
00000000
00000000
00000000
00000000
00000000
00000000
00000000
00000000
00000000
00000000
33030000
22020000
00000000
00000000
33030000
,
22220101
00000000
00000000
00000000
00000000
00000000
00000000
00000000
00001000
00000000
00000000
00000000
00000000
00000000
00000000
00000000
00000001
00000000
00000000
00000000
00000000
33330000
00000000
00000000
22221010
00000000
00000000
00000000
00000000
00000000
00000000
00000000
00000010
33330000
00000000
00000000
22220000
00000000
00000000
00000000
00000001
00000000
00000000
00000000
00001000
33330000
00000000
00000000
,
22220110
00000000
00000000
00000000
00000000
00000000
00000000
00000000
00000100
00000000
00000000
00000000
00000000
00000000
00000000
00000000
00000001
00000000
00000000
00000000
00000000
00000000
00000000
00000000
00001000
00000000
00000000
00000000
00000010
00000000
00000000
00000000
00001000
00000000
00000000
00000000
00000001
00000000
00000000
00000000
00001000
00000000
00000000
00000000
00000010
33330000
00000000
00000000
,
22221001
00000000
00000000
00000000
33330000
00000010
00000001
00000100
,
22220110
00000000
00000000
00000000
33330000
00000100
00001000
00000100
,
22220100
00000010
00000010
00000001
33330001
00001000
00001000
00000010
,
22220010
00000000
00000000
00000000
00000000
00000000
00000000
00000000
33331000
00000100
00001000
00000100
00001000
00000000
00000000
00000000
,
22221001
00000000
00000000
00000000
00000000
00000000
00000000
00000000
00000100
00000000
00000001
00000000
33331000
00000000
00000000
00000100
00000000
00000000
00000101
00000000
00000000
00001000
00000000
00000000
,
22221100
00000010
00000100
00001000
33330100
00001000
00000100
00000010
,
22221010
00000001
00000010
00000100
33331001
00000010
00000100
00001000
,
22221001
00000000
00000000
00000000
00000001
00000000
00001000
00000000
33331000
00000010
00001000
00000010
00001000
00000000
00000000
00000000
,
20020001
00000010
00000100
00001000
00000001
30030010
20020100
00001000
00000010
00000100
00000010
30031000
20020001
00000100
00000010
30030100
,
20020001
00001000
00000100
00000010
00000001
30031000
20020001
00000010
00000100
00001000
00000010
30030100
20020001
00001000
00000010
30030100
,
20020001
00000010
00000100
00001000
00000100
30031000
20020100
00000010
00000001
00000010
00000100
30031000
20020100
00001000
00000010
30031000
,
11110100
00001000
11110010
00001000
11110001
00000100
11110010
00001000
11110001
00000100
11110010
00001000
11110001
00000010
11110100
00001000
,
22020001
00000100
00000010
00001000
00000001
33030100
22020010
00001000
00000100
00000010
00000001
33031000
22020100
00001000
00000010
33031000
,
22020001
00001000
00000001
00001000
00000100
33031000
22020010
00000100
00000001
00000010
00000001
00000100
00000001
00000100
00000001
33030010
,
22020100
00001000
00000001
00000010
00000100
33030010
22020001
00001000
00000100
00000010
00000100
33031000
22020010
00000100
00000010
33031000
,
22020001
00000100
00000010
00001000
00000100
00000010
00000001
33031000
22020100
00000010
33030001
22020010
00000100
33031000
22020010
33030100
,
22020001
00001000
00000010
00000100
00000010
00000100
00000001
33031000
22020010
00000100
00000001
00001000
00000010
33030100
22020001
33031000
,
22020100
00000010
00000001
00000010
00000001
33030010
22020100
00001000
00000010
00000100
00000001
33030010
22020100
00001000
00000100
33030010
,
22020001
00001000
00000001
00001000
00000001
33031000
22020010
00000100
00000010
00001000
00000001
33030100
22020010
00001000
00000001
33030100
,
11110001
00000010
11110100
00001000
11110010
00000100
11110001
00000010
11110100
00001000
11110100
00000010
11110001
00001000
11110001
00000010
,
22220100
00000010
33330001
22220010
00000100
33331000
22220001
33330010
22220100
00001000
00000100
00000010
00000100
00001000
00000100
33330010
,
22220001
00000010
33330100
22220010
00000001
33331000
22220010
33330100
22220001
00001000
00000010
00000100
00000001
33331000
00020010
00030100
,
00020001
00001000
00000010
00000100
00200001
00000010
00000100
00000010
02000001
00001000
00000100
00000010
20000100
00001000
00000010
33330100
,
22220001
00000010
00000100
00001000
00000010
00000100
00000010
00001000
00000001
00000100
00000010
33330100
10010001
00001000
10010010
00000100
,
20021001
00000000
00000000
00000000
00000000
00000000
00000001
30030000
20021001
00000000
00000000
30030000
20020010
00000000
00000100
30030000
,
20021001
00000000
00000000
00000000
00000000
00000000
00000000
00000000
02200000
00000000
00000000
33330000
20020000
00000000
00000000
30030000
,
20021100
00000000
00000000
00000000
00000000
00000000
00000000
00000000
00000010
00000000
00000000
00000000
00000000
00000000
00000000
00000000
00001000
00000000
00000000
00000000
00000000
30030000
00000000
00000000
20020101
00000000
00000000
00000000
00000000
00000000
00000000
00000000
00000010
30030000
00000000
00000000
20020100
00000000
00000000
00000000
00000001
00000000
00000000
00000000
00001000
30030000
00000000
00000000
,
20020110
00000000
00000000
00000000
00000000
00000000
00000010
00000000
00001100
00000000
00000000
30030000
20020000
00000000
00000000
30030000
,
22020011
00000000
00000000
00000000
00001000
00000000
00000100
33030000
22021001
00000000
00000000
33030000
22020001
00000000
00000100
33030000
,
22021001
00000000
00000000
00000000
00000000
00000000
00000000
00000000
00000000
00000000
00000000
33030000
22020000
00000000
00000000
33030000
,
22220011
00000000
00000000
00000000
00000000
00000000
00000000
00000000
00000101
00000000
00000000
00000000
00000000
00000000
00000000
00000000
00001010
00000000
00000000
00000000
00000000
33330000
00000000
00000000
22221001
00000000
00000000
00000000
00000000
00000000
00000000
00000000
00001010
33330000
00000000
00000000
22220000
00000000
00000000
00000000
00000110
00000000
00000000
00000000
00000000
33330000
00000000
00000000
,
22221001
00000000
00000000
00000100
00001001
00000000
00000000
00000000
,
00001001
00000000
00000000
00000000
33330000
00000000
00000000
00000000
20022002
00000000
00000000
30033003
20022002
00000000
00000000
30033003
,
20020001
00000100
00000010
00001000
00000001
00000010
00000001
30031000
20020100
00001000
00000010
30030100
20020010
00001000
00000001
30030010
,
20020100
00001000
00000100
00000010
00000001
00001000
00000010
30030100
20020001
00001000
00000001
30030010
20020100
00001000
00000010
30031000
,
20020001
00000010
00000100
00001000
00000001
00000010
00000001
00001000
00000100
00001000
00000100
00000010
00000001
00000010
00000001
30031000
,
20020010
00001000
00000010
00000100
00000001
00000100
00000001
30030010
20020100
00000010
00000100
30030010
20020001
00001000
00000001
30030010
,
22020100
00001000
00000001
00000010
00000100
00001000
00000001
33030010
22020100
00001000
00000010
33030100
22020001
00001000
00000001
33031000
,
22020001
00001000
00000010
00000100
00000010
00000100
00000001
33031000
22020010
00000100
00000001
33030010
22020100
00001000
00000001
33030010
,
22020100
00001000
00000010
00001000
00000100
00001000
00000010
00001000
00000001
00000100
00000001
00000010
00000001
00001000
00000100
00000010
,
33030001
00001000
00000001
00000010
00000100
00001000
00000100
00000010
22020001
00001000
00000001
33030100
22020001
00000100
00000010
33031000
,
22220001
00001000
00000010
00000100
00000001
00000010
00000100
33331000
22220010
00000100
00000001
33330010
22220100
00001000
00000001
33330010
,
22220100
00000010
00000001
00001000
00000100
00000010
00000100
33331000
22220001
00000010
00000001
33330100
22220010
00001000
00000100
33331000
,
22220010
00000100
00000010
00001000
00000100
00000010
00000001
33331000
22220010
00000100
00000001
33330010
22220100
00001000
00000001
33331000
,
22220100
00000010
00000001
00000100
00000001
00000010
00000100
33331000
22220010
00000100
00000010
33331000
22220001
00000100
00000010
33330100
,
22220001
00001000
00000010
00000100
00000001
00000010
00000100
33331000
22220100
00000010
00000001
33331000
00020010
00000100
00000001
00001000
,
00200010
00000100
00000001
00000010
00000100
00000010
00000001
00001000
02000100
00000010
00000100
00001000
00000100
00000010
00000001
00000010
,
20000100
00001000
00000001
00000100
00000001
00001000
00000100
00000010
00000001
00000100
00000010
00001000
00000001
00000010
00000100
00001000
,
00000010
00000100
00000001
00001000
33330010
00000100
00000001
00000010
22220100
00001000
00000001
00000010
00000100
00001000
00000001
33330010
,
22221100
00000000
00000001
00001000
00000100
00000000
00001000
00000000
00000100
00000000
00000010
00000000
00000001
00000000
00000000
33330000
,
22221010
00000000
00000001
00000100
00000001
00000000
00000010
00000000
00000001
00000000
00001000
00000000
00000100
00000000
00000000
33330000
,
22221010
00000000
00000001
00001000
00000010
00000000
00000100
00000000
00000001
00000000
00000000
00000000
00000010
00000000
00000000
00000000
,
00000100
00000000
00000000
00000000
00001000
00000000
00000000
00000000
00000010
00000000
00000100
00000000
00000001
00000000
00000000
33330000
,
22221100
00000000
00000001
00001000
00000100
00000000
00000010
00000000
00000001
00000000
00001000
00000000
00000100
00000000
00000000
33330000
,
22220110
00000000
00001000
00000001
00001000
00000000
00000010
00000000
00000100
00000000
00000001
00000000
00001000
00000000
00000000
33330000
,
22220101
00000000
00000010
00001000
00000100
00000000
00000010
00000000
00000001
00000000
00000000
00000000
00000010
00000000
00000000
00000000
,
00001000
00000000
00000000
00000000
00000001
00000000
00000000
00000000
00000100
00000000
00000010
00000000
00001000
00000000
00000000
33330000
,
22220001
00000100
00000010
00001000
00000001
00000010
00000100
00001000
00000100
00000010
00000001
00001000
00000010
00001000
00000100
33331000
,
22220001
00000010
00000001
00001000
00000100
00001000
00000010
00000100
00000001
00001000
00000010
00000100
00000001
00001000
00000010
33330100
,
22220001
00000010
00000100
00001000
00000001
00000010
00000100
00001000
00000100
00000010
00000001
00001000
00000100
00001000
00000001
00000010
,
00000001
00000100
00000001
00001000
00000100
00000010
00000001
00001000
00000100
00000010
00000001
00001000
00000010
00001000
00000001
33330100
,
22220001
00001000
00000010
00001000
00000010
00000100
00000001
00000100
00000001
00001000
00000100
00001000
00000001
00000010
00000001
33331000
,
22220010
00000100
00000001
00001000
00000001
00000010
00000100
00001000
00000100
00000010
00000001
00001000
00000010
00001000
00000100
33331000
,
22220001
00000100
00000010
00001000
00000001
00000100
00000010
00000100
00000010
00000100
00000001
00001000
00000010
00000100
00000001
00001000
,
00000001
00000010
00000100
00001000
00000010
00000100
00000010
00001000
00000100
00000010
00000001
00001000
00000010
00001000
00000001
33330100
,
10010010
00000010
10010001
00000100
10011001
10011001
10010010
00000000
,
10011100
00000001
10010010
00000001
10011100
10011100
10010001
00000000
,
10011010
00000100
10010001
00001000
10010101
10010101
10010010
00000000
,
10011010
00000001
10010100
00000001
10011010
10011010
10010001
00000100
,
11011010
00000100
11010001
00000100
11010011
11010011
11011000
00000000
,
11010110
00000001
11010010
00000001
11010110
11010110
11011000
00000100
,
11011001
00000000
00000000
00000000
11010010
00000000
00000100
00000000
11010010
00000000
11011000
00000010
11011000
00000000
00000001
00000000
,
11011000
00000010
00001000
00000001
11010100
00000001
00001000
00000010
11011000
00000001
11010100
00000001
11011000
00000010
00001000
00000001
,
10011100
00000000
10011000
00000000
10011010
00000000
10011001
00000000
20021000
00000000
00001000
30030000
20021010
00000000
00001000
30030000
,
10011010
00000000
10011100
00000000
10011001
00000000
10011010
00000000
20021001
00000000
00000100
00000000
00000010
00000000
00000001
30030000
,
10010011
00000000
10011001
00000000
10010101
00000000
10010011
00000000
20020001
00000000
00000001
30030000
20021001
00000000
00000001
30030000
,
10010101
10010011
10011001
10010101
10011001
10010011
10011010
10010101
,
10010110
00000000
10011001
00000000
10011100
00000000
10010011
00000000
20021000
00000000
00000010
30030000
20020101
00000000
00000010
30030000
,
10011100
00000000
10011001
00000000
10010101
00000000
10011010
00000000
20020011
00000000
00000100
30030000
10010011
00000000
10011010
00000000
,
10010110
00000000
00000001
00000000
10010110
00000000
10011000
00000000
10010101
00000000
10011000
10010010
10010100
00000000
10011000
00000000
,
20020010
00000100
00000001
00001000
00000010
00000100
00000001
00001000
00000010
00000100
00000001
00001000
00000010
00000100
00000001
30031000
,
11110100
00000000
00000001
00001000
11110110
00000000
00001000
00000010
,
11110101
00000010
00000100
00001000
11110101
00000000
00000010
00000000
,
11110011
00000000
00000100
00000010
11111010
00000000
00000100
00000010
,
11111001
00000100
00000010
00001000
11110011
00000000
00000000
00000000
,
22220220
00000000
00000000
00000000
00000000
00000000
00000000
00000000
00000000
00000000
00000000
00000000
00000000
00000000
00000000
33330330
,
20020001
00000100
00000010
00001000
00000001
00000010
30030001
20021000
00000100
00001000
00000010
30030100
20020010
00001000
00000001
30030010
,
20020100
00001000
00000100
00000010
00000001
00001000
00000010
30030100
20020001
00001000
00000001
00000010
00000100
00001000
00000010
30031000
,
20020001
00000010
00000100
00001000
00000001
30030010
20020001
00001000
00000100
00001000
00000100
30030010
20020001
00000010
00000001
30031000
,
11110010
00001000
11110010
00000100
11110001
00000100
11110001
00000010
11110100
00000010
11110100
00000010
11110001
00001000
11110001
00000010
,
22020100
00001000
00000001
00000010
00000100
33031000
22020001
00000010
00000100
00001000
00000010
33030100
22020001
00001000
00000001
33031000
,
22020001
00001000
00000010
00000100
00000010
33030100
22020001
00001000
00000010
33030100
22020001
33030010
22020100
00001000
00000001
33030010
,
22020100
00001000
00000010
00001000
00000100
33031000
22020010
00001000
00000001
00000100
00000001
33030010
22020001
00001000
00000100
33030010
,
22020001
00001000
00000001
00000010
00000100
00001000
00000100
33030010
22020001
00001000
33030001
22020100
00000001
33030100
22020010
33031000
,
22220001
00001000
00000010
00000100
00000001
00000010
00000100
33331000
22220010
00000100
33330001
22220010
00000100
33331000
22220001
33330010
,
22220100
00000010
00000001
00001000
00000100
33330010
22220100
00001000
00000001
00000010
00000001
33330100
22220010
00001000
00000100
33331000
,
22220010
00000100
00000010
00001000
00000100
33330010
22220001
00001000
00000010
00000100
00000001
33330010
22220100
00001000
00000001
33331000
,
11110100
00000010
11110001
00000100
11110001
00000010
11110100
00001000
11110010
00000100
11110010
00001000
11110001
00000100
11110010
00000100
,
22220001
00001000
33330010
22220100
00000001
33330010
22220100
33331000
22220100
00000010
00000001
00001000
00000010
00000100
00000001
33331000
,
22220010
00000100
33330001
22220010
00000100
33330010
22220001
33331000
22220100
00000010
00000100
00001000
00000100
00000010
00000001
33330010
,
22220100
00001000
00000001
33330100
00020001
00001000
00000100
00000010
00200001
00000100
00000010
00001000
02000001
00000010
00000100
00001000
,
20000010
00000100
00000001
00001000
00000010
00000100
00000001
00000010
00000100
00001000
00000001
33330010
22220100
33331000
22220001
33330010
,
20021100
00000000
00000000
00000000
00000000
00000000
00000100
30030000
20021001
00000000
00000000
30030000
20020001
00000000
00001000
30030000
,
20020011
00000000
00000000
00000000
00000000
00000000
00000000
00000000
00200000
00000000
00000000
00000000
02000000
00000000
00000000
33330000
,
20021100
00000000
00000000
00000000
00000000
00000000
00000000
30030000
20020000
00000000
00000000
30030000
20020000
00000000
00000000
30030000
,
20020011
00000000
00000000
00000000
00000000
00000000
00001000
00000000
00001001
00000000
00000000
30030000
20020000
00000000
00000000
30030000
,
22020101
00000000
00000000
00000000
00000010
00000000
00001000
33030000
22021100
00000000
00000000
33030000
22020010
00000000
00000001
33030000
,
22021001
00000000
00000000
00000000
00000000
00000000
00000000
00000000
00000000
00000000
00000000
33030000
22020000
00000000
00000000
33030000
,
22220101
00000000
00000000
00000000
00000000
00000000
00000000
33330000
22220000
00000000
00000000
33330000
22220000
00000000
00000000
33330000
,
22221010
00000000
00000000
00000010
00000110
00000000
00000000
00000000
,
00001001
00000000
00000000
00000000
33330000
00000000
00000000
00000000
02200000
00000000
00000000
00000000
20020000
00000000
00000000
33330000
,
20020001
00000100
00000010
00001000
00000001
00000010
00000001
30031000
20020100
00001000
00000010
30030100
20020010
00001000
00000001
30030010
,
20020100
00001000
00000100
00000010
00000001
00001000
00000010
30030100
20020001
00001000
00000001
30030010
20020100
00001000
00000010
30031000
,
20020001
00000010
00000100
00001000
00000001
00000010
00000001
00001000
00000100
00001000
00000100
00000010
00000001
00000010
00000001
30031000
,
20020010
00001000
00000010
00000100
00000001
00000100
00000001
30030010
20020100
00000010
00000100
30030010
20020001
00001000
00000001
30030010
,
22020100
00001000
00000001
00000010
00000100
00001000
00000001
33030010
22020100
00001000
00000010
33030100
22020001
00001000
00000001
33031000
,
22020001
00001000
00000010
00000100
00000010
00000100
00000001
33031000
22020010
00000100
00000001
33030010
22020100
00001000
00000001
33030010
,
22020100
00001000
00000010
00001000
00000100
00001000
00000010
00001000
00000001
00000100
00000001
00000010
00000001
00001000
00000100
00000010
,
33030001
00001000
00000001
00000010
00000100
00001000
00000100
00000010
22020001
00001000
00000001
33030100
22020001
00000100
00000010
33031000
,
22220001
00001000
00000010
00000100
00000001
00000010
00000100
33331000
22220010
00000100
00000001
33330010
22220100
00001000
00000001
33330010
,
22220100
00000010
00000001
00001000
00000100
00000010
00000100
33331000
22220001
00000010
00000001
33330100
22220010
00001000
00000100
33331000
,
22220010
00000100
00000010
00001000
00000100
00000010
00000001
33331000
22220010
00000100
00000001
33330010
22220100
00001000
00000001
33331000
,
22220100
00000010
00000001
00000100
00000001
00000010
00000100
33331000
22220010
00000100
00000010
33331000
22220001
00000100
00000010
33330100
,
22220001
00001000
00000010
00000100
00000001
00000010
00000100
33331000
22220100
00000010
00000001
33331000
00020010
00000100
00000001
00001000
,
00200010
00000100
00000001
00000010
00000100
00000010
00000001
00001000
02000100
00000010
00000100
00001000
00000100
00000010
00000001
00000010
,
20000100
00001000
00000001
00000100
00000001
00001000
00000100
00000010
00000001
00000100
00000010
00001000
00000001
00000010
00000100
00001000
,
00000010
00000100
00000001
00001000
00000010
00000100
00000001
33330010
22220100
00001000
00000001
33330010
22220100
00001000
00000001
33330010
,
20020001
00000100
00000010
00001000
00000001
00000010
00000001
30031000
20020100
00001000
00000010
30030100
20020010
00001000
00000001
30030010
,
20020100
00001000
00000100
00000010
00000001
00001000
00000010
30030100
20020001
00001000
00000001
30030010
20020100
00001000
00000010
30031000
,
20020001
00000010
00000100
00001000
00000001
00000010
00000001
00001000
00000100
00001000
00000100
00000010
00000001
00000010
00000001
30031000
,
20020010
00001000
00000010
00000100
00000001
00000100
00000001
30030010
20020100
00000010
00000100
30030010
20020001
00001000
00000001
30030010
,
22020100
00001000
00000001
00000010
00000100
00001000
00000001
33030010
22020100
00001000
00000010
33030100
22020001
00001000
00000001
33031000
,
22020001
00001000
00000010
00000100
00000010
00000100
00000001
33031000
22020010
00000100
00000001
33030010
22020100
00001000
00000001
33030010
,
22020100
00001000
00000010
00001000
00000100
00001000
00000010
00001000
00000001
00000100
00000001
00000010
00000001
00001000
00000100
00000010
,
33030001
00001000
00000001
00000010
00000100
00001000
00000100
00000010
22020001
00001000
00000001
33030100
22020001
00000100
00000010
33031000
,
22220001
00001000
00000010
00000100
00000001
00000010
00000100
33331000
22220010
00000100
00000001
33330010
22220100
00001000
00000001
33330010
,
22220100
00000010
00000001
00001000
00000100
00000010
00000100
33331000
22220001
00000010
00000001
33330100
22220010
00001000
00000100
33331000
,
22220010
00000100
00000010
00001000
00000100
00000010
00000001
33331000
22220010
00000100
00000001
33330010
22220100
00001000
00000001
33331000
,
22220100
00000010
00000001
00000100
00000001
00000010
00000100
33331000
22220010
00000100
00000010
33331000
22220001
00000100
00000010
33330100
,
22222002
00000000
00000000
00000000
00000000
00000000
00000000
33330000
22220000
00000000
00000000
33330000
22220000
00000000
00000000
33333003
,
00022002
00000000
00000000
00000000
00000000
00000000
00000000
00000000
00200000
00000000
00000000
00000000
00000000
00000000
00000000
00003003
,
02002002
00000000
00000000
00000000
00000000
00000000
00000000
00000000
00000000
00000000
00000000
00000000
00000000
00000000
00000000
00003003
,
20002002
33333003
00000000
00000000
;

//---------------dance-double - Emerald Sword----------------
#NOTES:
     dance-double:
     Emerald Sword:
     Medium:
     12:
     1.000,1.000,1.000,1.000,0.103,1364.000,547.000,686.000,0.000,946.000:
00000000
00000000
00000000
00000000
,
00000000
00000000
00000000
00020000
00000000
00000000
00000000
00030000
,
20020011
00000100
30031000
00000010
00000110
00001001
00000000
00000001
,
00000110
00000000
00000011
00000000
00000000
00000000
00000100
00000000
00001000
00000001
00001000
00000001
00001000
00000000
00000000
00000000
,
20020011
30030000
00000100
00000000
00001100
00000000
00000001
00000000
00000101
00000000
00000110
00000000
00000000
00000000
00000100
00000000
,
00001010
00000000
00001001
00000000
00000000
00000000
00000010
00000000
00001010
00000000
00000101
00000000
20020110
30030000
00000000
00000000
,
20020101
30030000
00000010
00000000
00001100
00000000
00000011
00000000
00001100
00000000
00000110
00000000
00000000
00000000
00000011
00000000
,
00001010
00000000
00001100
00000000
00000000
00000000
00001010
00000000
00001000
00000001
00001000
00000001
00001000
00000000
00000000
00000000
,
20020011
30030000
00001000
00000000
00000110
00000000
00000001
00000000
00001100
00000000
00000011
00000000
00000000
00000000
00001001
00000000
,
00000110
00000000
00001010
00000000
00000000
00000000
00001010
00000000
20020011
30030000
00000110
00000000
20021000
30030000
00001000
00000000
,
00021000
00000000
00000100
00000000
00001000
00000000
00000010
00030000
00021000
00000000
00000010
00000000
00001000
00000000
00001000
00030000
,
00021000
00000000
00000010
00000000
00001000
00000000
00001000
00030000
00020010
00000000
00001000
00030000
00020010
00000000
00001000
00030000
,
20000010
00000000
00001000
00000000
00001000
00000000
00000010
30000000
20000010
00000000
00001000
00000000
00001000
00000000
00000100
30000000
,
20001000
00000000
00001000
00000000
00000100
00000000
00001000
30000000
20000100
00000000
00001000
30000000
20001000
00000000
00000100
30000000
,
00021000
00000000
00000010
00000000
00001000
00000000
00000010
00030000
00020100
00000000
00001000
00000000
00000010
00000000
00001000
00030000
,
00020010
00000000
00001000
00000000
00000100
00000000
00001000
00030000
00021000
00000000
00000100
00030000
00021000
00000000
00000100
00030000
,
20001000
00000000
00000010
00000000
00001000
00000000
00000100
30000000
20000010
00000000
00001000
00000000
00000100
00000000
00000010
30000000
,
20000100
00000000
00001000
00000000
00001000
00000000
00001000
30000000
20000100
00000000
00000010
30000000
20001000
00000000
00000010
30000000
,
00001000
00000000
00001000
00000000
00001000
00000000
00000010
00000000
00000002
00000000
00000000
00000000
00000000
00000000
00000000
00000003
,
00001000
00001000
00001000
00000000
00001100
00000010
00000110
00000001
,
00001000
00001000
00001000
00001000
00002000
00000000
00000000
00003000
,
00000001
00000100
00000010
00000001
00000010
00000000
00000001
00000010
,
00000100
00000000
00000100
00000000
00001000
00000000
00000001
00000000
00000101
00000000
00000000
00000000
00000000
00000000
00002000
00003000
,
00000001
00000001
00000001
00000100
00000110
00000000
00001001
00000000
,
00000001
00000100
00000001
00000100
00000001
00000100
00000010
00001000
,
00000001
00000000
00000001
00000000
00000001
00000000
00000010
00000000
00000002
00000000
00000000
00000003
00002000
00000000
00000000
00003000
,
00020001
00000000
00000100
00000000
00000001
00030000
00020100
00000000
00000010
00000000
00000010
00030000
00020001
00000000
00000010
00030000
,
00020001
00000000
00000100
00000000
00000001
00030000
00020001
00000000
00000100
00000000
00000010
00030000
00021000
00000000
00000010
00030000
,
00020001
00000000
00000100
00000000
00000100
00030000
00020100
00000000
00001000
00000000
00000100
00030000
00020100
00000000
00000010
00030000
,
10010100
10010010
10011000
10010010
10010001
10010010
10010001
10010100
,
20021000
00000000
00000010
00000000
00000001
30030000
20020010
00000000
00000100
00000000
00000001
30030000
20020100
00000000
00000010
30030000
,
20021000
00000000
00000001
00000000
00000100
30030000
20020010
00000000
00000001
00000000
00000001
30030000
20021000
00000000
00000001
30030000
,
20020100
00000000
00000001
00000000
00000100
30030000
20020001
00000000
00001000
00000000
00000100
30030000
20021000
00000000
00000010
30030000
,
20020001
00000000
00000010
00000000
00001000
00000000
00000001
30030000
20020100
00000000
30030001
20020000
00000100
30030000
20020010
30030000
,
20021000
00000000
00000010
00000000
00000010
00000000
00000001
30030000
20021000
00000000
30030001
20020000
00000010
30030000
20020001
30030000
,
20021000
00000000
00000001
00000000
00000001
30030000
20020100
00000000
00000010
00000000
00000001
30030000
20021000
00000000
00000100
30030000
,
20021000
00000000
00000001
00000000
00000001
30030000
20020010
00000000
00000010
00000000
00000001
30030000
20021000
00000000
00000001
30030000
,
10011000
10010100
10010010
10010001
10010100
10010100
10011000
10010001
,
20020100
00000000
30030001
20020000
00001000
30030000
20020001
30030000
20020100
00000000
00000100
00000000
00001000
00000000
00000100
30030000
,
20020001
00000000
30030100
20020000
00000001
30030000
20020010
30030000
20020001
00000000
00000010
00000000
00000001
00000000
00000010
30030000
,
00020001
00000000
00000010
00030000
00201000
00000000
00000100
00300000
02000001
00000000
00000100
03000000
20001000
00000000
00000010
30000000
,
20020001
00000000
00000100
00000000
00001000
00000000
00000010
00000000
00000001
00000000
00000010
30030000
00011000
00000000
00010010
00000000
,
00021001
00000000
00000000
00000000
00000000
00000000
00000010
00030000
00020110
00000000
00000000
00030000
00021000
00000000
00000001
00030000
,
00020101
00000000
00000000
00000000
00000000
00000000
00000000
00000000
20000000
00000000
00000000
30030000
00020000
00000000
00000000
00030000
,
00020101
00000000
00000000
00000000
00000000
00000000
00000000
00000000
00000010
00000000
00000000
00000000
00000000
00000000
00000000
00000000
00001000
00000000
00000000
00000000
00000000
00030000
00000000
00000000
00020100
00000000
00000000
00000000
00000000
00000000
00000000
00000000
00000010
00030000
00000000
00000000
00021000
00000000
00000000
00000000
00000001
00000000
00000000
00000000
00000000
00030000
00000000
00000000
,
00021001
00000000
00000000
00000000
00000000
00000000
00000010
00000000
00001001
00000000
00000000
00030000
00020000
00000000
00000000
00030000
,
20020101
00000000
00000000
00000000
00001000
00000000
00000010
30030000
20020101
00000000
00000000
30030000
20020001
00000000
00000100
30030000
,
20021010
00000000
00000000
00000000
00000000
00000000
00000000
00000000
00000000
00000000
00000000
30030000
20020000
00000000
00000000
30030000
,
20020101
00000000
00000000
00000000
00000000
00000000
00000000
00000000
00001000
00000000
00000000
00000000
00000000
00000000
00000000
00000000
00000001
00000000
00000000
00000000
00000000
30030000
00000000
00000000
20021010
00000000
00000000
00000000
00000000
00000000
00000000
00000000
00000010
30030000
00000000
00000000
20020000
00000000
00000000
00000000
00000001
00000000
00000000
00000000
00001000
30030000
00000000
00000000
,
20020110
00000000
00000000
00000000
00000000
00000000
00000000
00000000
00000100
00000000
00000000
00000000
00000000
00000000
00000000
00000000
00000001
00000000
00000000
00000000
00000000
00000000
00000000
00000000
00001000
00000000
00000000
00000000
00000010
00000000
00000000
00000000
00001000
00000000
00000000
00000000
00000001
00000000
00000000
00000000
00001000
00000000
00000000
00000000
00000010
30030000
00000000
00000000
,
20021001
00000000
00000000
00000000
30030000
00000010
00000001
00000100
,
20020110
00000000
00000000
00000000
30030000
00000100
00001000
00000100
,
20020100
00000010
00000010
00000001
30030001
00001000
00001000
00000010
,
20020010
00000000
00000000
00000000
00000000
00000000
00000000
00000000
30031000
00000100
00001000
00000100
00001000
00000000
00000000
00000000
,
20021001
00000000
00000000
00000000
00000000
00000000
00000000
00000000
00000100
00000000
00000001
00000000
30031000
00000000
00000000
00000100
00000000
00000000
00000101
00000000
00000000
00001000
00000000
00000000
,
20021100
00000010
00000100
00001000
30030100
00001000
00000100
00000010
,
20021010
00000001
00000010
00000100
30031001
00000010
00000100
00001000
,
20021001
00000000
00000000
00000000
00000001
00000000
00001000
00000000
30031000
00000010
00001000
00000010
00001000
00000000
00000000
00000000
,
00020001
00000000
00000100
00000000
00000001
00030000
00020100
00000000
00000010
00000000
00000010
00030000
00021000
00000000
00000010
00030000
,
00020001
00000000
00000100
00000000
00000001
00030000
00020001
00000000
00000100
00000000
00000010
00030000
00021000
00000000
00000010
00030000
,
00020001
00000000
00000100
00000000
00000100
00030000
00020100
00000000
00000001
00000000
00000100
00030000
00021000
00000000
00000010
00030000
,
10010100
10010010
10010001
10010010
10011000
10010010
10010001
10010100
,
20020001
00000000
00000010
00000000
00001000
30030000
20020010
00000000
00000100
00000000
00000001
30030000
20020100
00000000
00000010
30030000
,
20020001
00000000
00000001
00000000
00001000
30030000
20020010
00000000
00000001
00000000
00000001
00000000
00000100
00000000
00000001
30030000
,
20021000
00000000
00000001
00000000
00000100
30030000
20020001
00000000
00001000
00000000
00000100
30030000
20020010
00000000
00000010
30030000
,
20020001
00000000
00000010
00000000
00000100
00000000
00000001
30030000
20021000
00000000
30030001
20020000
00000100
30030000
20020010
30030000
,
20021000
00000000
00000010
00000000
00000010
00000000
00000001
30030000
20020010
00000000
00000001
00000000
00000010
30030000
20020001
30030000
,
20020100
00000000
00000001
00000000
00001000
30030000
20020100
00000000
00000010
00000000
00000001
30030000
20020100
00000000
00000100
30030000
,
20021000
00000000
00000001
00000000
00000001
30030000
20020010
00000000
00001000
00000000
00000001
30030000
20020010
00000000
00000001
30030000
,
10011000
10010100
10010010
10010001
10011000
10010100
10010001
10010001
,
20020100
00000000
30030001
20020000
00000100
30030000
20020001
30030000
20020100
00000000
00000100
00000000
00001000
00000000
00000100
30030000
,
20020001
00000000
30030100
20020000
00000001
30030000
20020010
30030000
20020001
00000000
00000010
00000000
00000001
30030000
00020010
00030000
,
00020001
00000000
00000010
00030000
00200001
00000000
00000100
00300000
02000001
00000000
00000100
03000000
20001000
00000000
00000010
30000000
,
20020001
00000000
00000100
00000000
00000010
00000000
00000010
00000000
00000001
00000000
00000010
30030000
10011000
00000000
10010010
00000000
,
20021001
00000000
00000000
00000000
00000000
00000000
00000001
30030000
20021001
00000000
00000000
30030000
20020010
00000000
00000100
30030000
,
00021001
00000000
00000000
00000000
00000000
00000000
00000000
00000000
20000000
00000000
00000000
30030000
20020000
00000000
00000000
30030000
,
20021100
00000000
00000000
00000000
00000000
00000000
00000000
00000000
00000010
00000000
00000000
00000000
00000000
00000000
00000000
00000000
00001000
00000000
00000000
00000000
00000000
30030000
00000000
00000000
20020101
00000000
00000000
00000000
00000000
00000000
00000000
00000000
00000010
30030000
00000000
00000000
20020100
00000000
00000000
00000000
00000001
00000000
00000000
00000000
00001000
30030000
00000000
00000000
,
20020110
00000000
00000000
00000000
00000000
00000000
00000010
00000000
00001100
00000000
00000000
30030000
20020000
00000000
00000000
30030000
,
20020011
00000000
00000000
00000000
00001000
00000000
00000100
30030000
20021001
00000000
00000000
30030000
20020001
00000000
00000100
30030000
,
20021001
00000000
00000000
00000000
00000000
00000000
00000000
00000000
00000000
00000000
00000000
30030000
20020000
00000000
00000000
30030000
,
20020011
00000000
00000000
00000000
00000000
00000000
00000000
00000000
00000101
00000000
00000000
00000000
00000000
00000000
00000000
00000000
00001010
00000000
00000000
00000000
00000000
30030000
00000000
00000000
20021001
00000000
00000000
00000000
00000000
00000000
00000000
00000000
00001010
30030000
00000000
00000000
20020000
00000000
00000000
00000000
00000110
00000000
00000000
00000000
00000000
30030000
00000000
00000000
,
20021001
00000000
00000000
00000100
00001001
00000000
00000000
00000000
,
00001001
00000000
00000000
00000000
30030000
00000000
00000000
00000000
20022002
00000000
00000000
30033003
20022002
00000000
00000000
30033003
,
20020001
00000000
00000010
00000000
00000001
00000000
00000001
30030000
20020100
00000000
00000010
30030000
20020010
00000000
00000001
30030000
,
20021000
00000000
00000100
00000000
00000001
00000000
00000010
30030000
20020001
00000000
00000001
30030000
20021000
00000000
00000010
30030000
,
20020001
00000000
00000100
00000000
00000001
00000000
00000001
00000000
00001000
00000000
00000100
00000000
00000001
00000000
00000001
30030000
,
20020010
00000000
00000010
00000000
00001000
00000000
00000001
30030000
20020100
00000000
00000100
30030000
20020001
00000000
00000001
30030000
,
20020100
00000000
00000001
00000000
00001000
00000000
00000001
30030000
20020100
00000000
00000010
30030000
20020001
00000000
00000001
30030000
,
20021000
00000000
00000010
00000000
00000010
00000000
00000001
30030000
20020010
00000000
00000001
30030000
20021000
00000000
00000001
30030000
,
20020100
00000010
00000100
00000010
00001000
00000001
00001000
00000100
,
30030001
00000000
00000001
00000000
00001000
00000000
00000100
00000000
20020001
00000000
00000001
30030000
20021000
00000000
00000010
30030000
,
20020001
00000000
00000010
00000000
00001000
00000000
00000100
30030000
20020010
00000000
00000001
30030000
20020100
00000000
00000001
30030000
,
20021000
00000000
00000001
00000000
00000100
00000000
00000100
30030000
20020001
00000000
00000001
30030000
20021000
00000000
00000100
30030000
,
20020010
00000000
00000010
00000000
00001000
00000000
00000001
30030000
20020010
00000000
00000001
30030000
20021000
00000000
00000001
30030000
,
20020100
00000000
00000001
00000000
00000001
00000000
00000100
30030000
20020010
00000000
00000010
30030000
20020001
00000000
00000010
30030000
,
20021000
00000000
00000010
00000000
00000001
00000000
00000100
30030000
20021000
00000000
00000001
30030000
00020010
00000000
00000001
00030000
,
00201000
00000000
00000001
00000000
00000100
00000000
00000001
00300000
02001000
00000000
00000100
00000000
00000100
00000000
00000001
03000000
,
20001000
00000001
00000001
00000100
00000001
00000010
00000001
00000100
,
00001000
00000000
00000001
00000000
30000010
00000000
00000001
00000000
00221000
00000000
00000001
00000000
00000100
00000000
00000001
00330000
,
22001100
00000000
00000001
00001000
00000100
00000000
00001000
00000000
00000100
00000000
00000010
00000000
00000001
00000000
00000000
33000000
,
20021010
00000000
00000001
00000100
00000001
00000000
00000010
00000000
00000001
00000000
00001000
00000000
00000100
00000000
00000000
30030000
,
20021010
00000000
00000001
00001000
00000010
00000000
00000100
00000000
00000001
00000000
00000000
00000000
00000010
00000000
00000000
00000000
,
00000100
00000000
00000000
00000000
00001000
00000000
00000000
00000000
00000010
00000000
00000100
00000000
00000001
00000000
00000000
30030000
,
00221100
00000000
00000001
00001000
00000100
00000000
00000010
00000000
00000001
00000000
00001000
00000000
00000100
00000000
00000000
00330000
,
22000110
00000000
00001000
00000001
00001000
00000000
00000010
00000000
00000100
00000000
00000001
00000000
00001000
00000000
00000000
33000000
,
20020101
00000000
00000010
00001000
00000100
00000000
00000010
00000000
00000001
00000000
00000000
00000000
00000010
00000000
00000000
00000000
,
00001000
00000000
00000000
00000000
00000001
00000000
00000000
00000000
00000100
00000000
00000010
00000000
00001000
00000000
00000000
30030000
,
20020001
00000000
00000010
00000000
00000001
00000000
00000100
00000000
00000100
00000000
00000001
00000000
00000010
00000000
00000100
30030000
,
20020001
00000000
00000001
00000000
00001000
00000000
00000010
00000000
00000001
00000000
00000010
00000000
00001000
00000000
00000010
30030000
,
20020001
00000100
00001000
00000100
00000100
00000001
00001000
00000001
,
00000001
00000000
00000001
00000000
00001000
00000000
00000001
00000000
00000100
00000000
00000001
00000000
00000010
00000000
00000001
30030000
,
20021000
00000000
00000010
00000000
00000010
00000000
00000001
00000000
00001000
00000000
00000100
00000000
00000001
00000000
00000001
30030000
,
20021000
00000000
00000001
00000000
00000001
00000000
00000100
00000000
00000100
00000000
00000001
00000000
00000010
00000000
00000100
30030000
,
20021000
00000010
00000001
00000010
00000010
00000001
00001000
00000001
,
00001000
00000000
00000100
00000000
00000010
00000000
00000010
00000000
00001000
00000000
00000001
00000000
00001000
00000000
00000001
30030000
,
00010010
00000010
00010001
00000100
00011000
00010001
00010010
00000000
,
00011000
00000001
00010010
00000001
00011000
00011000
00010001
00000000
,
00011000
00000100
00010001
00001000
00010001
00010001
00010010
00000000
,
00011000
00000001
00010100
00000001
00010010
00010010
00010001
00000100
,
10011000
00000100
10010001
00000100
10010010
10010010
10011000
00000000
,
10010100
00000001
10010010
00000001
10010010
10010010
10011000
00000100
,
10011000
00000000
00000000
00000000
10010010
00000000
00000100
00000000
10010010
00000000
10011000
00000010
10011000
00000000
00000001
00000000
,
10011000
00001000
10010100
00001000
10011000
10010100
10011000
00001000
,
10010100
00000000
10011000
00000000
10010010
00000000
10010001
00000000
20021000
00000000
00001000
30030000
20020010
00000000
00001000
30030000
,
10010010
00000000
10010100
00000000
10011000
00000000
10011000
00000000
20020001
00000000
00000100
00000000
00000010
00000000
00000001
30030000
,
10010010
00000000
10011000
00000000
10010100
00000000
10010010
00000000
20020001
00000000
00000001
30030000
20021000
00000000
00000001
30030000
,
10010100
10010001
10010001
10010100
10011000
10010001
10010010
10010100
,
10010010
00000000
10011000
00000000
10011000
00000000
10010001
00000000
20021000
00000000
00000010
30030000
20020001
00000000
00000010
30030000
,
10010100
00000000
10011000
00000000
10010001
00000000
10011000
00000000
20020010
00000000
00000100
30030000
10010001
00000000
10010010
00000000
,
10010100
00000000
00000001
00000000
10010100
00000000
10011000
00000000
10010001
00000000
10011000
00000010
10010100
00000000
10011000
00000000
,
20020010
00000000
00000001
00000000
00000010
00000000
00000001
00000000
00000010
00000000
00000001
00000000
00000010
00000000
00000001
30030000
,
10010100
00000000
00000001
00001000
10010110
00000000
00001000
00000010
,
10010101
00000010
00000100
00001000
10010101
00000000
00000010
00000000
,
10010011
00000000
00000100
00000010
10011010
00000000
00000100
00000010
,
10011001
00000100
00000010
00001000
10010011
00000000
00000000
00000000
,
20020220
00000000
00000000
00000000
00000000
00000000
00000000
00000000
00000000
00000000
00000000
00000000
00000000
00000000
00000000
30030330
,
20020001
00000000
00000010
00000000
00000001
00000000
30030001
20020000
00000100
00000000
00000010
30030000
20021000
00000000
00000001
30030000
,
20020100
00000000
00000100
00000000
00001000
00000000
00000010
30030000
20020001
00000000
00000001
00000000
00000100
00000000
00000010
30030000
,
20021000
00000000
00000100
00000000
00000001
30030000
20020001
00000000
00000100
00000000
00000100
30030000
20021000
00000000
00000001
30030000
,
10011000
10010010
10010001
10010001
10011000
10010100
10010001
10010001
,
20020100
00000000
00000001
00000000
00001000
30030000
20020001
00000000
00000100
00000000
00000010
30030000
20020001
00000000
00000001
30030000
,
20021000
00000000
00000010
00000000
00000010
30030000
20020001
00000000
00000010
30030000
20020001
30030000
20021000
00000000
00000001
30030000
,
20020100
00000000
00000010
00000000
00001000
30030000
20020010
00000000
00000001
00000000
00000001
30030000
20021000
00000000
00000100
30030000
,
20021000
00000000
00000001
00000000
00000100
00000000
00000100
30030000
20020001
00000000
30030001
20020000
00001000
30030000
20020010
30030000
,
20020001
00000000
00000010
00000000
00000100
00000000
00000100
30030000
20020010
00000000
30030001
20020000
00001000
30030000
20020001
30030000
,
20020100
00000000
00000001
00000000
00000100
30030000
20020100
00000000
00000001
00000000
00000001
30030000
20020010
00000000
00000100
30030000
,
20020010
00000000
00000010
00000000
00000100
30030000
20020001
00000000
00000010
00000000
00000001
30030000
20021000
00000000
00000001
30030000
,
10010100
10010001
10010001
10010100
10010010
10010010
10010001
10010010
,
20020001
00000000
30030010
20020000
00000001
30030000
20020100
30030000
20020100
00000000
00000001
00000000
00000010
00000000
00000001
30030000
,
20021000
00000000
30030001
20020000
00000100
30030000
20020001
30030000
20021000
00000000
00000100
00000000
00000100
00000000
00000001
30030000
,
20020100
00000000
00000001
30030000
00020001
00000000
00000100
00030000
00201000
00000000
00000010
00300000
02000001
00000000
00000100
03000000
,
20001000
00000000
00000001
00000000
00000010
00000000
00000001
00000000
00001000
00000000
00000001
30000000
20020100
30030000
20020001
30030000
,
20021100
00000000
00000000
00000000
00000000
00000000
00000100
30030000
20021001
00000000
00000000
30030000
20020001
00000000
00001000
30030000
,
00020011
00000000
00000000
00000000
00000000
00000000
00000000
00000000
20000000
00000000
00000000
30000000
20000000
00000000
00000000
30030000
,
20021100
00000000
00000000
00000000
00000000
00000000
00000000
30030000
20020000
00000000
00000000
30030000
20020000
00000000
00000000
30030000
,
20020011
00000000
00000000
00000000
00000000
00000000
00001000
00000000
00001001
00000000
00000000
30030000
20020000
00000000
00000000
30030000
,
20020101
00000000
00000000
00000000
00000010
00000000
00001000
30030000
20021100
00000000
00000000
30030000
20020010
00000000
00000001
30030000
,
20021001
00000000
00000000
00000000
00000000
00000000
00000000
00000000
00000000
00000000
00000000
30030000
20020000
00000000
00000000
30030000
,
20020101
00000000
00000000
00000000
00000000
00000000
00000000
30030000
20020000
00000000
00000000
30030000
20020000
00000000
00000000
30030000
,
20021010
00000000
00000000
00000010
00000110
00000000
00000000
00000000
,
00001001
00000000
00000000
00000000
30030000
00000000
00000000
00000000
02200000
00000000
00000000
03300000
20020000
00000000
00000000
30030000
,
20020001
00000000
00000010
00000000
00000001
00000000
00000001
30030000
20021000
00000000
00000010
30030000
20020010
00000000
00000001
30030000
,
20020100
00000000
00000100
00000000
00001000
00000000
00000010
30030000
20020001
00000000
00000001
30030000
20020100
00000000
00000010
30030000
,
20021000
00000000
00000100
00000000
00000001
00000000
00000001
00000000
00001000
00000000
00000100
00000000
00000001
00000000
00000001
30030000
,
20021000
00000000
00000010
00000000
00000001
00000000
00000001
30030000
20020100
00000000
00000100
30030000
20020001
00000000
00000001
30030000
,
20020100
00000000
00000001
00000000
00000100
00000000
00000001
30030000
20021000
00000000
00000010
30030000
20020001
00000000
00000001
30030000
,
20020001
00000000
00000010
00000000
00000010
00000000
00000001
30030000
20021000
00000000
00000001
30030000
20020100
00000000
00000001
30030000
,
20020100
00000010
00000100
00000010
00000001
00000001
00000001
00000100
,
30030001
00000000
00000001
00000000
00001000
00000000
00000100
00000000
20020001
00000000
00000001
30030000
20020001
00000000
00000010
30030000
,
20021000
00000000
00000010
00000000
00000001
00000000
00000100
30030000
20020010
00000000
00000001
30030000
20021000
00000000
00000001
30030000
,
20020100
00000000
00000001
00000000
00001000
00000000
00000100
30030000
20020001
00000000
00000001
30030000
20020010
00000000
00000100
30030000
,
20021000
00000000
00000010
00000000
00000100
00000000
00000001
30030000
20020010
00000000
00000001
30030000
20021000
00000000
00000001
30030000
,
20020100
00000000
00000001
00000000
00000001
00000000
00000100
30030000
20021000
00000000
00000010
30030000
20020001
00000000
00000010
30030000
,
20020001
00000000
00000010
00000000
00001000
00000000
00000100
30030000
20020100
00000000
00000001
30030000
00020010
00000000
00000001
00030000
,
00200010
00000000
00000001
00000000
00000100
00000000
00000001
00300000
02001000
00000000
00000100
00000000
00000100
00000000
00000001
03000000
,
20000100
00000001
00000001
00000100
00000001
00000010
00000001
00000100
,
00001000
00000000
00000001
00000000
00000000
00000000
00000000
30000000
20020100
00000000
00000001
30030000
20021000
00000000
00000001
30030000
,
20020001
00000000
00000010
00000000
00000001
00000000
00000001
30030000
20021000
00000000
00000010
30030000
20020010
00000000
00000001
30030000
,
20020100
00000000
00000100
00000000
00000001
00000000
00000010
30030000
20020001
00000000
00000001
30030000
20020100
00000000
00000010
30030000
,
20021000
00000000
00000100
00000000
00000001
00000000
00000001
00000000
00000100
00000000
00000100
00000000
00000001
00000000
00000001
30030000
,
20021000
00000000
00000010
00000000
00000001
00000000
00000001
30030000
20020100
00000000
00000100
30030000
20021000
00000000
00000001
30030000
,
20020100
00000000
00000001
00000000
00000100
00000000
00000001
30030000
20021000
00000000
00000010
30030000
20020001
00000000
00000001
30030000
,
20020001
00000000
00000010
00000000
00001000
00000000
00000001
30030000
20020010
00000000
00000001
30030000
20021000
00000000
00000001
30030000
,
20020100
00000010
00001000
00000010
00000001
00000001
00000001
00000100
,
30030001
00000000
00000001
00000000
00000100
00000000
00000100
00000000
20021000
00000000
00000001
30030000
20020001
00000000
00000010
30030000
,
20020001
00000000
00000010
00000000
00000001
00000000
00000100
30030000
20021000
00000000
00000001
30030000
20021000
00000000
00000001
30030000
,
20020100
00000000
00000001
00000000
00001000
00000000
00000100
30030000
20020001
00000000
00000001
30030000
20021000
00000000
00000100
30030000
,
20020010
00000000
00000010
00000000
00000100
00000000
00000001
30030000
20020010
00000000
00000001
30030000
20020100
00000000
00000001
30030000
,
20020100
00000000
00000001
00000000
00001000
00000000
00000100
30030000
20020010
00000000
00000010
30030000
20020001
00000000
00000010
30030000
,
20022002
00000000
00000000
00000000
00000000
00000000
00000000
30030000
20020000
00000000
00000000
30030000
20020000
00000000
00000000
30033003
,
00022002
00000000
00000000
00000000
00000000
00000000
00000000
00030000
00200000
00000000
00000000
00000000
00000000
00000000
00000000
00303003
,
02002002
00000000
00000000
00000000
00000000
00000000
00000000
00000000
00000000
00000000
00000000
00000000
00000000
00000000
00000000
03003003
,
20022002
30033003
00000000
00000000
;

//---------------dance-double - Emerald Sword Oni----------------
#NOTES:
     dance-double:
     Emerald Sword Oni:
     Challenge:
     14:
     1.000,1.000,1.000,1.000,1.000,2259.000,1846.000,335.000,0.000,459.000:
00000000
00000000
00000000
00000000
,
00000000
00000000
00000000
20020000
00000000
00000000
00000000
30030000
,
22220011
00000100
33331000
00000010
00000110
00001001
00000000
00000001
,
00000110
00000000
00000011
00000000
00000000
00000000
00000100
00000000
00001000
00000100
00001000
00000100
00001000
00000000
00000000
00000000
,
22220011
33330000
00000100
00000000
00001100
00000000
00000001
00000000
00000101
00000000
00000110
00000000
00000000
00000000
00000100
00000000
,
00001010
00000000
00001001
00000000
00000000
00000000
00000010
00000000
00001010
00000000
00000101
00000000
22220110
33330000
00000000
00000000
,
22220101
33330000
00000010
00000000
00001100
00000000
00000011
00000000
00001100
00000000
00000110
00000000
00000000
00000000
00000011
00000000
,
00001010
00000000
00001100
00000000
00000000
00000000
00001010
00000000
00001000
00000010
00001000
00000010
00001000
00000000
00000000
00000000
,
22220011
33330000
00001000
00000000
00000110
00000000
00000001
00000000
00001100
00000000
00000011
00000000
00000000
00000000
00001001
00000000
,
00000110
00000000
00001010
00000000
00000000
00000000
00001010
00000000
22220011
33330000
22220110
33330000
00011000
00100100
00011000
00100100
,
00011000
01000010
00100100
10000001
00011000
10000001
01000010
00100100
00011000
00100100
01000010
10000001
00011000
01000010
00011000
00100100
,
00011000
10000001
01000010
00100100
00011000
10000001
00011000
10000001
01000010
00100100
00011000
00100100
01000010
10000001
00011000
10000001
,
01000010
00100100
00011000
01000010
00011000
00100100
01000010
10000001
01000010
10000001
00011000
01000010
00011000
01000010
00100100
10000001
,
00011000
10000001
00011000
01000010
00100100
10000001
00011000
01000010
00100100
01000010
00011000
10000001
00011000
01000010
00100100
10000001
,
00011000
00100100
01000010
10000001
00011000
00100100
01000010
10000001
00100100
01000010
00011000
10000001
01000010
00100100
00011000
10000001
,
01000010
00100100
00011000
01000010
00100100
01000010
00011000
10000001
00011000
01000010
00100100
01000010
00011000
10000001
00100100
01000010
,
00011000
00100100
01000010
10000001
00011000
01000010
00100100
10000001
01000010
00100100
00011000
01000010
00100100
10000001
01000010
10000001
,
00100100
01000010
00011000
00100100
00011000
10000001
00011000
01000010
00100100
10000001
01000010
00100100
00011000
10000001
01000010
00100100
,
00011000
00000010
00001000
00000001
00001000
00000000
00000010
00000000
00000102
00000000
00000000
00000000
00000000
00000000
00000000
00000003
,
00001000
00000100
00001000
00000100
00001000
00000000
00000000
00000010
00001100
00000000
00000010
00000000
00000110
00000000
00000001
00000000
,
00001000
00000100
00001000
00000100
00001000
00000000
00001000
00000000
00002001
00000000
00000000
00000000
00000000
00000000
00003000
00000000
,
00000001
00000010
00000100
00001000
00000010
00000100
00000001
00001000
00000010
00000000
00000000
00000000
00000001
00000000
00000010
00000000
,
00000100
00001000
00000100
00000000
00001000
00000000
00000001
00000000
00000101
00000000
00000000
00000000
00000000
00000000
00002000
00003000
,
00000001
00000100
00000001
00000100
00000001
00000000
00000100
00000000
00000110
00000000
00000000
00000000
00001001
00000000
00000000
00000000
,
00000001
00000010
00000100
00001000
00000001
00001000
00000100
00000010
00000001
00000000
00000100
00000000
00000010
00000000
00001000
00000000
,
00000001
00000010
00000001
00001000
00000001
00000100
00000010
00001000
00000012
00000000
00000000
00000003
00002200
00000000
00000000
00003300
,
10000001
01000010
00100100
00011000
10000001
01000010
00100100
00011000
01000010
00100100
01000010
00011000
10000001
00100100
01000010
00100100
,
10000001
00011000
00100100
01000010
10000001
00011000
10000001
01000010
00100100
00011000
01000010
00100100
10000001
00011000
01000010
00100100
,
10000001
01000010
00100100
00011000
00100100
00011000
00100100
01000010
10000001
01000010
00100100
00011000
00100100
00011000
01000010
00011000
,
00100100
00011000
01000010
00011000
10000001
00100100
01000010
00011000
10000001
00100100
01000010
00011000
10000001
01000010
00100100
00011000
,
10000001
00100100
01000010
00011000
10000001
00100100
01000010
00011000
00100100
01000010
10000001
00011000
00100100
00011000
01000010
00011000
,
10000001
00011000
10000001
00011000
00100100
00011000
01000010
00100100
10000001
01000010
10000001
00100100
10000001
00100100
10000001
01000010
,
00100100
00011000
10000001
01000010
00100100
01000010
10000001
00011000
00100100
01000010
00100100
00011000
01000010
00100100
01000010
00011000
,
10000001
00100100
01000010
00011000
00100100
01000010
10000001
00011000
00100100
01000010
10000001
01000010
00100100
00011000
01000010
00100100
,
10000001
00011000
01000010
00100100
01000010
00100100
10000001
00011000
01000010
00100100
10000001
00011000
01000010
00100100
10000001
00011000
,
00100100
01000010
10000001
01000010
10000001
01000010
00100100
00011000
01000010
00100100
10000001
01000010
00100100
00011000
00100100
01000010
,
10000001
00011000
10000001
00011000
10000001
00011000
01000010
00100100
01000010
00011000
10000001
00100100
01000010
00011000
10000001
00100100
,
10000001
01000010
00100100
00011000
01000010
00100100
10000001
01000010
00100100
00011000
00100100
01000010
10000001
00011000
10000001
01000010
,
00100100
01000010
10000001
01000010
00100100
00011000
10000001
01000010
00100100
00011000
00100100
01000010
00100100
00011000
00100100
01000010
,
10000001
01000010
00100100
01000010
10000001
00011000
01000010
00100100
10000001
00011000
01000010
00100100
10000001
00011000
01000010
00100100
,
10000001
00011000
01000010
00100100
10000001
01000010
00100100
01000010
10000001
00011000
00100100
01000010
00100100
00011000
01000010
00100100
,
10000001
01000010
00100100
00011000
01000010
00100100
01000010
00011000
10000001
00100100
01000010
00100100
10000001
00011000
01000010
00100100
,
20021001
00000000
00000000
00000000
00000000
00000000
00000010
30030000
20020110
00000000
00000000
30030000
20021000
00000000
00000001
30030000
,
20020101
00000000
00000000
00000000
00000000
00000000
00000000
00000000
02200000
00000000
00000000
33330000
20020000
00000000
00000000
30030000
,
20020101
00000000
00000000
00000000
00000000
00000000
00000000
00000000
00000010
00000000
00000000
00000000
00000000
00000000
00000000
00000000
00001000
00000000
00000000
00000000
00000000
30030000
00000000
00000000
20020100
00000000
00000000
00000000
00000000
00000000
00000000
00000000
00000010
30030000
00000000
00000000
20021000
00000000
00000000
00000000
00000001
00000000
00000000
00000000
00000000
30030000
00000000
00000000
,
20021001
00000000
00000000
00000000
00000000
00000000
00000010
00000000
00001001
00000000
00000000
30030000
20020000
00000000
00000000
30030000
,
22020101
00000000
00000000
00000000
00001000
00000000
00000010
33030000
22020101
00000000
00000000
33030000
22020001
00000000
00000100
33030000
,
22021010
00000000
00000000
00000000
00000000
00000000
00000000
00000000
00000000
00000000
00000000
33030000
22020000
00000000
00000000
33030000
,
22220101
00000000
00000000
00000000
00000000
00000000
00000000
00000000
00001000
00000000
00000000
00000000
00000000
00000000
00000000
00000000
00000001
00000000
00000000
00000000
00000000
33330000
00000000
00000000
22221010
00000000
00000000
00000000
00000000
00000000
00000000
00000000
00000010
33330000
00000000
00000000
22220000
00000000
00000000
00000000
00000001
00000000
00000000
00000000
00001000
33330000
00000000
00000000
,
22220110
00000000
00000000
00000000
00000000
00000000
00000000
00000000
00000100
00000000
00000000
00000000
00000000
00000000
00000000
00000000
00000001
00000000
00000000
00000000
00000000
00000000
00000000
00000000
00001000
00000000
00000000
00000000
00000010
00000000
00000000
00000000
00001000
00000000
00000000
00000000
00000001
00000000
00000000
00000000
00001000
00000000
00000000
00000000
00000010
33330000
00000000
00000000
,
22221001
00000000
00000000
00000000
33330000
00000010
00000001
00000100
,
22220110
00000000
00000000
00000000
33330000
00000100
00001000
00000100
,
22220100
00000010
00000010
00000001
33330001
00001000
00001000
00000010
,
22220010
00000000
00000000
00000000
00000000
00000000
00000000
00000000
33331000
00000100
00001000
00000100
00001000
00000000
00000000
00000000
,
22221001
00000000
00000000
00000000
00000000
00000000
00000000
00000000
00000100
00000000
00000001
00000000
33331000
00000000
00000000
00000100
00000000
00000000
00000101
00000000
00000000
00001000
00000000
00000000
,
22221100
00000010
00000100
00001000
33330100
00001000
00000100
00000010
,
22221010
00000001
00000010
00000100
33331001
00000010
00000100
00001000
,
22221001
00000000
00000000
00000000
00000001
00000000
00001000
00000000
33331000
00000010
00001000
00000010
00001000
00000000
00000000
00000000
,
10000001
01000010
00100100
00011000
10000001
01000010
00100100
00011000
01000010
00100100
01000010
00011000
10000001
00100100
01000010
00100100
,
10000001
00011000
00100100
01000010
10000001
00011000
10000001
01000010
00100100
00011000
01000010
00100100
10000001
00011000
01000010
00100100
,
10000001
01000010
00100100
00011000
00100100
00011000
00100100
01000010
10000001
01000010
00100100
00011000
00100100
00011000
01000010
00011000
,
00100100
00011000
01000010
00011000
10000001
00100100
01000010
00011000
10000001
00100100
01000010
00011000
10000001
01000010
00100100
00011000
,
10000001
00100100
01000010
00011000
10000001
00100100
01000010
00011000
00100100
01000010
10000001
00011000
00100100
00011000
01000010
00011000
,
10000001
00011000
10000001
00011000
00100100
00011000
01000010
00100100
10000001
01000010
10000001
00100100
10000001
00100100
10000001
01000010
,
00100100
00011000
10000001
01000010
00100100
01000010
10000001
00011000
00100100
01000010
00100100
00011000
01000010
00100100
01000010
00011000
,
10000001
00100100
01000010
00011000
00100100
01000010
10000001
00011000
00100100
01000010
10000001
01000010
00100100
00011000
01000010
00100100
,
10000001
00011000
01000010
00100100
01000010
00100100
10000001
00011000
01000010
00100100
10000001
00011000
01000010
00100100
10000001
00011000
,
00100100
01000010
10000001
01000010
10000001
01000010
00100100
00011000
01000010
00100100
10000001
01000010
00100100
00011000
00100100
01000010
,
10000001
00011000
10000001
00011000
10000001
00011000
01000010
00100100
01000010
00011000
10000001
00100100
01000010
00011000
10000001
00100100
,
10000001
01000010
00100100
00011000
01000010
00100100
10000001
01000010
00100100
00011000
00100100
01000010
10000001
00011000
10000001
01000010
,
00100100
01000010
10000001
01000010
00100100
00011000
10000001
01000010
00100100
00011000
00100100
01000010
00100100
00011000
00100100
01000010
,
10000001
01000010
00100100
01000010
10000001
00011000
01000010
00100100
10000001
00011000
01000010
00100100
10000001
00011000
01000010
00100100
,
10000001
00011000
01000010
00100100
10000001
01000010
00100100
01000010
10000001
00011000
00100100
01000010
00100100
00011000
01000010
00100100
,
10000001
01000010
00100100
00011000
01000010
00100100
01000010
00011000
10000001
00100100
01000010
00100100
10000001
00011000
01000010
00100100
,
20021001
00000000
00000000
00000000
00000000
00000000
00000001
30030000
20021001
00000000
00000000
30030000
20020010
00000000
00000100
30030000
,
20021001
00000000
00000000
00000000
00000000
00000000
00000000
00000000
02200000
00000000
00000000
33330000
20020000
00000000
00000000
30030000
,
20021100
00000000
00000000
00000000
00000000
00000000
00000000
00000000
00000010
00000000
00000000
00000000
00000000
00000000
00000000
00000000
00001000
00000000
00000000
00000000
00000000
30030000
00000000
00000000
20020101
00000000
00000000
00000000
00000000
00000000
00000000
00000000
00000010
30030000
00000000
00000000
20020100
00000000
00000000
00000000
00000001
00000000
00000000
00000000
00001000
30030000
00000000
00000000
,
20020110
00000000
00000000
00000000
00000000
00000000
00000010
00000000
00001100
00000000
00000000
30030000
20020000
00000000
00000000
30030000
,
22020011
00000000
00000000
00000000
00001000
00000000
00000100
33030000
22021001
00000000
00000000
33030000
22020001
00000000
00000100
33030000
,
22021001
00000000
00000000
00000000
00000000
00000000
00000000
00000000
00000000
00000000
00000000
33030000
22020000
00000000
00000000
33030000
,
22220011
00000000
00000000
00000000
00000000
00000000
00000000
00000000
00000101
00000000
00000000
00000000
00000000
00000000
00000000
00000000
00001010
00000000
00000000
00000000
00000000
33330000
00000000
00000000
22221001
00000000
00000000
00000000
00000000
00000000
00000000
00000000
00001010
33330000
00000000
00000000
22220000
00000000
00000000
00000000
00000110
00000000
00000000
00000000
00000000
33330000
00000000
00000000
,
22221001
00000000
00000000
00000100
00001001
00000000
00000000
00000000
,
00001001
00000000
00000000
00000000
33330000
00000000
00000000
00000000
20022002
00000000
00000000
30033003
20022002
00000000
00000000
30033003
,
10000001
00100100
01000010
00011000
10000001
01000010
10000001
00011000
00100100
00011000
01000010
00100100
01000010
00011000
10000001
01000010
,
00100100
00011000
00100100
01000010
10000001
00011000
01000010
00100100
10000001
00011000
10000001
01000010
00100100
00011000
01000010
00011000
,
10000001
01000010
00100100
00011000
10000001
01000010
10000001
00011000
00100100
00011000
00100100
01000010
10000001
01000010
10000001
00011000
,
01000010
00011000
01000010
00100100
10000001
00100100
10000001
01000010
00100100
01000010
00100100
01000010
10000001
00011000
10000001
01000010
,
00100100
00011000
10000001
01000010
00100100
00011000
10000001
01000010
00100100
00011000
01000010
00100100
10000001
00011000
10000001
00011000
,
10000001
00011000
01000010
00100100
01000010
00100100
10000001
00011000
01000010
00100100
10000001
01000010
00100100
00011000
10000001
01000010
,
00100100
00011000
01000010
00011000
00100100
00011000
01000010
00011000
10000001
00100100
10000001
01000010
10000001
00011000
00100100
01000010
,
10000001
00011000
10000001
01000010
00100100
00011000
00100100
01000010
10000001
00011000
10000001
00100100
10000001
00100100
01000010
00011000
,
10000001
00011000
01000010
00100100
10000001
01000010
00100100
00011000
01000010
00100100
10000001
01000010
00100100
00011000
10000001
01000010
,
00100100
01000010
10000001
00011000
00100100
01000010
00100100
00011000
10000001
01000010
10000001
00100100
01000010
00011000
00100100
00011000
,
01000010
00100100
01000010
00011000
00100100
01000010
10000001
00011000
01000010
00100100
10000001
01000010
00100100
00011000
10000001
00011000
,
00100100
01000010
10000001
00100100
10000001
01000010
00100100
00011000
01000010
00100100
01000010
00011000
10000001
00100100
01000010
00100100
,
10000001
00011000
01000010
00100100
10000001
01000010
00100100
00011000
00100100
01000010
10000001
00011000
01000010
00100100
10000001
00011000
,
01000010
00100100
10000001
01000010
00100100
01000010
10000001
00011000
00100100
01000010
00100100
00011000
00100100
01000010
10000001
01000010
,
00100100
00011000
10000001
00100100
10000001
00011000
00100100
01000010
10000001
00100100
01000010
00011000
10000001
01000010
00100100
00011000
,
01000010
00100100
10000001
00011000
01000010
00100100
10000001
01000010
00100100
00011000
10000001
01000010
00100100
00011000
10000001
01000010
,
22221100
00000000
00000001
00001000
00000100
00000000
00001000
00000000
00000100
00000000
00000010
00000000
00000001
00000000
00000000
33330000
,
22221010
00000000
00000001
00000100
00000001
00000000
00000010
00000000
00000001
00000000
00001000
00000000
00000100
00000000
00000000
33330000
,
22221010
00000000
00000001
00001000
00000010
00000000
00000100
00000000
00000001
00000000
00000000
00000000
00000010
00000000
00000000
00000000
,
00000100
00000000
00000000
00000000
00001000
00000000
00000000
00000000
00000010
00000000
00000100
00000000
00000001
00000000
00000000
33330000
,
22221100
00000000
00000001
00001000
00000100
00000000
00000010
00000000
00000001
00000000
00001000
00000000
00000100
00000000
00000000
33330000
,
22220110
00000000
00001000
00000001
00001000
00000000
00000010
00000000
00000100
00000000
00000001
00000000
00001000
00000000
00000000
33330000
,
22220101
00000000
00000010
00001000
00000100
00000000
00000010
00000000
00000001
00000000
00000000
00000000
00000010
00000000
00000000
00000000
,
00001000
00000000
00000000
00000000
00000001
00000000
00000000
00000000
00000100
00000000
00000010
00000000
00001000
00000000
00000000
33330000
,
22220001
00000100
00000010
00001000
00000001
00000010
00000100
00001000
00000100
00000010
00000001
00001000
00000010
00001000
00000100
33331000
,
22220001
00000010
00000001
00001000
00000100
00001000
00000010
00000100
00000001
00001000
00000010
00000100
00000001
00001000
00000010
33330100
,
22220001
00000010
00000100
00001000
00000001
00000010
00000100
00001000
00000100
00000010
00000001
00001000
00000100
00001000
00000001
00000010
,
00000001
00000100
00000001
00001000
00000100
00000010
00000001
00001000
00000100
00000010
00000001
00001000
00000010
00001000
00000001
33330100
,
22220001
00001000
00000010
00001000
00000010
00000100
00000001
00000100
00000001
00001000
00000100
00001000
00000001
00000010
00000001
33331000
,
22220010
00000100
00000001
00001000
00000001
00000010
00000100
00001000
00000100
00000010
00000001
00001000
00000010
00001000
00000100
33331000
,
22220001
00000100
00000010
00001000
00000001
00000100
00000010
00000100
00000010
00000100
00000001
00001000
00000010
00000100
00000001
00001000
,
00000001
00000010
00000100
00001000
00000010
00000100
00000010
00001000
00000100
00000010
00000001
00001000
00000010
00001000
00000001
33330100
,
10010010
00000010
10010001
00000100
10011001
10011001
10010010
00000000
,
10011100
00000001
10010010
00000001
10011100
10011100
10010001
00000000
,
10011010
00000100
10010001
00001000
10010101
10010101
10010010
00000000
,
10011010
00000001
10010100
00000001
10011010
10011010
10010001
00000100
,
11011010
00000100
11010001
00000100
11010011
11010011
11011000
00000000
,
11010110
00000001
11010010
00000001
11010110
11010110
11011000
00000100
,
11011001
00000000
00000000
00000000
11010010
00000000
00000100
00000000
11010010
00000000
11011000
00000010
11011000
00000000
00000001
00000000
,
11011000
00000010
00001000
00000001
11010100
00000001
00001000
00000010
11011000
00000001
11010100
00000001
11011000
00000010
00001000
00000001
,
10011100
00000000
10011000
00000000
10011010
00000000
10011001
00000000
20021000
00000000
00001000
30030000
20021010
00000000
00001000
30030000
,
10011010
00000000
10011100
00000000
10011001
00000000
10011010
00000000
20021001
00000000
00000100
00000000
00000010
00000000
00000001
30030000
,
10010011
00000000
10011001
00000000
10010101
00000000
10010011
00000000
20020001
00000000
00000001
30030000
20021001
00000000
00000001
30030000
,
10010101
10010011
10011001
10010101
10011001
10010011
10011010
10010101
,
10010110
00000000
10011001
00000000
10011100
00000000
10010011
00000000
20021000
00000000
00000010
30030000
20020101
00000000
00000010
30030000
,
10011100
00000000
10011001
00000000
10010101
00000000
10011010
00000000
20020011
00000000
00000100
30030000
10010011
00000000
10011010
00000000
,
10010110
00000000
00000001
00000000
10010110
00000000
10011000
00000000
10010101
00000000
10011000
10010010
10010100
00000000
10011000
00000000
,
20020010
00000100
00000001
00001000
00000010
00000100
00000001
00001000
00000010
00000100
00000001
00001000
00000010
00000100
00000001
30031000
,
11110100
00000000
00000001
00001000
11110110
00000000
00001000
00000010
,
11110101
00000010
00000100
00001000
11110101
00000000
00000010
00000000
,
11110011
00000000
00000100
00000010
11111010
00000000
00000100
00000010
,
11111001
00000100
00000010
00001000
11110011
00000000
00000000
00000000
,
22220220
00000000
00000000
00000000
00000000
00000000
00002002
00000000
00000000
00000000
00000000
00000000
00000000
00000000
00000000
33333333
,
10011001
00100100
01000010
00011000
10000001
01000010
10000001
00011000
00100100
00011000
01000010
00100100
01000010
00011000
10000001
01000010
,
00100100
00011000
00100100
01000010
10000001
00011000
01000010
00100100
10000001
00011000
10000001
01000010
00100100
00011000
01000010
00011000
,
10000001
01000010
00100100
00011000
10000001
01000010
10000001
00011000
00100100
00011000
00100100
01000010
10000001
01000010
10000001
00011000
,
01000010
00011000
01000010
00100100
10000001
00100100
10000001
01000010
00100100
01000010
00100100
01000010
10000001
00011000
10000001
01000010
,
00100100
00011000
10000001
01000010
00100100
00011000
10000001
01000010
00100100
00011000
01000010
00100100
10000001
00011000
10000001
00011000
,
10000001
00011000
01000010
00100100
01000010
00100100
10000001
00011000
01000010
00100100
10000001
01000010
00100100
00011000
10000001
01000010
,
00100100
00011000
01000010
00011000
00100100
00011000
01000010
00011000
10000001
00100100
10000001
01000010
10000001
00011000
00100100
01000010
,
10000001
00011000
10000001
01000010
00100100
00011000
00100100
01000010
10000001
00011000
10000001
00100100
10000001
00100100
01000010
00011000
,
10000001
00011000
01000010
00100100
10000001
01000010
00100100
00011000
01000010
00100100
10000001
01000010
00100100
00011000
10000001
01000010
,
00100100
01000010
10000001
00011000
00100100
01000010
00100100
00011000
10000001
01000010
10000001
00100100
01000010
00011000
00100100
00011000
,
01000010
00100100
01000010
00011000
00100100
01000010
10000001
00011000
01000010
00100100
10000001
01000010
00100100
00011000
10000001
00011000
,
00100100
01000010
10000001
00100100
10000001
01000010
00100100
00011000
01000010
00100100
01000010
00011000
10000001
00100100
01000010
00100100
,
10000001
00011000
01000010
00100100
10000001
01000010
00100100
00011000
00100100
01000010
10000001
00011000
01000010
00100100
10000001
00011000
,
01000010
00100100
10000001
01000010
00100100
01000010
10000001
00011000
00100100
01000010
00100100
00011000
00100100
01000010
10000001
01000010
,
00100100
00011000
10000001
00100100
10000001
00011000
00100100
01000010
10000001
00100100
01000010
00011000
10000001
01000010
00100100
00011000
,
01000010
00100100
10000001
00011000
01000010
00100100
10000001
01000010
00100100
00011000
10000001
01000010
00100100
00011000
10000001
01000010
,
20021100
00000000
00000000
00000000
00000000
00000000
00000100
30030000
20021001
00000000
00000000
30030000
20020001
00000000
00001000
30030000
,
20020011
00000000
00000000
00000000
00000000
00000000
00000000
00000000
00200000
00000000
00000000
00000000
02000000
00000000
00000000
33330000
,
20021100
00000000
00000000
00000000
00000000
00000000
00000000
30030000
20020000
00000000
00000000
30030000
20020000
00000000
00000000
30030000
,
20020011
00000000
00000000
00000000
00000000
00000000
00001000
00000000
00001001
00000000
00000000
30030000
20020000
00000000
00000000
30030000
,
22020101
00000000
00000000
00000000
00000010
00000000
00001000
33030000
22021100
00000000
00000000
33030000
22020010
00000000
00000001
33030000
,
22021001
00000000
00000000
00000000
00000000
00000000
00000000
00000000
00000000
00000000
00000000
33030000
22020000
00000000
00000000
33030000
,
22220101
00000000
00000000
00000000
00000000
00000000
00000000
33330000
22220000
00000000
00000000
33330000
22220000
00000000
00000000
33330000
,
22221010
00000000
00000000
00000010
00000110
00000000
00000000
00000000
,
00001001
00000000
00000000
00000000
33330000
00000000
00000000
00000000
02200000
00000000
00000000
00000000
20020000
00000000
00000000
33330000
,
10000001
00100100
01000010
00011000
10000001
01000010
10000001
00011000
00100100
00011000
01000010
00100100
01000010
00011000
10000001
01000010
,
00100100
00011000
00100100
01000010
10000001
00011000
01000010
00100100
10000001
00011000
10000001
01000010
00100100
00011000
01000010
00011000
,
10000001
01000010
00100100
00011000
10000001
01000010
10000001
00011000
00100100
00011000
00100100
01000010
10000001
01000010
10000001
00011000
,
01000010
00011000
01000010
00100100
10000001
00100100
10000001
01000010
00100100
01000010
00100100
01000010
10000001
00011000
10000001
01000010
,
00100100
00011000
10000001
01000010
00100100
00011000
10000001
01000010
00100100
00011000
01000010
00100100
10000001
00011000
10000001
00011000
,
10000001
00011000
01000010
00100100
01000010
00100100
10000001
00011000
01000010
00100100
10000001
01000010
00100100
00011000
10000001
01000010
,
00100100
00011000
01000010
00011000
00100100
00011000
01000010
00011000
10000001
00100100
10000001
01000010
10000001
00011000
00100100
01000010
,
10000001
00011000
10000001
01000010
00100100
00011000
00100100
01000010
10000001
00011000
10000001
00100100
10000001
00100100
01000010
00011000
,
10000001
00011000
01000010
00100100
10000001
01000010
00100100
00011000
01000010
00100100
10000001
01000010
00100100
00011000
10000001
01000010
,
00100100
01000010
10000001
00011000
00100100
01000010
00100100
00011000
10000001
01000010
10000001
00100100
01000010
00011000
00100100
00011000
,
01000010
00100100
01000010
00011000
00100100
01000010
10000001
00011000
01000010
00100100
10000001
01000010
00100100
00011000
10000001
00011000
,
00100100
01000010
10000001
00100100
10000001
01000010
00100100
00011000
01000010
00100100
01000010
00011000
10000001
00100100
01000010
00100100
,
10000001
00011000
01000010
00100100
10000001
01000010
00100100
00011000
00100100
01000010
10000001
00011000
01000010
00100100
10000001
00011000
,
01000010
00100100
10000001
01000010
00100100
01000010
10000001
00011000
00100100
01000010
00100100
00011000
00100100
01000010
10000001
01000010
,
00100100
00011000
10000001
00100100
10000001
00011000
00100100
01000010
10000001
00100100
01000010
00011000
10000001
01000010
00100100
00011000
,
01000010
00100100
10000001
00011000
01000010
00100100
10000001
01000010
00100100
00011000
10000001
01000010
00100100
00011000
10000001
01000010
,
10000001
00100100
01000010
00011000
10000001
01000010
10000001
00011000
00100100
00011000
01000010
00100100
01000010
00011000
10000001
01000010
,
00100100
00011000
00100100
01000010
10000001
00011000
01000010
00100100
10000001
00011000
10000001
01000010
00100100
00011000
01000010
00011000
,
10000001
01000010
00100100
00011000
10000001
01000010
10000001
00011000
00100100
00011000
00100100
01000010
10000001
01000010
10000001
00011000
,
01000010
00011000
01000010
00100100
10000001
00100100
10000001
01000010
00100100
01000010
00100100
01000010
10000001
00011000
10000001
01000010
,
00100100
00011000
10000001
01000010
00100100
00011000
10000001
01000010
00100100
00011000
01000010
00100100
10000001
00011000
10000001
00011000
,
10000001
00011000
01000010
00100100
01000010
00100100
10000001
00011000
01000010
00100100
10000001
01000010
00100100
00011000
10000001
01000010
,
00100100
00011000
01000010
00011000
00100100
00011000
01000010
00011000
10000001
00100100
10000001
01000010
10000001
00011000
00100100
01000010
,
10000001
00011000
10000001
01000010
00100100
00011000
00100100
01000010
10000001
00011000
10000001
00100100
10000001
00100100
01000010
00011000
,
10000001
00011000
01000010
00100100
10000001
01000010
00100100
00011000
01000010
00100100
10000001
01000010
00100100
00011000
10000001
01000010
,
00100100
01000010
10000001
00011000
00100100
01000010
00100100
00011000
10000001
01000010
10000001
00100100
01000010
00011000
00100100
00011000
,
01000010
00100100
01000010
00011000
00100100
01000010
10000001
00011000
01000010
00100100
10000001
01000010
00100100
00011000
10000001
00011000
,
00100100
01000010
10000001
00100100
10000001
01000010
00100100
00011000
01000010
00100100
01000010
00011000
10000001
00100100
01000010
00100100
,
22222002
00000000
00000000
00000000
00000000
00000000
00000000
33330000
22220000
00000000
00000000
33330000
22220000
00000000
00000000
33333003
,
00022002
00000000
00000000
00000000
00000000
00000000
00000000
00000000
00200000
00000000
00000000
00000000
00000000
00000000
00000000
00003003
,
02002002
00000000
00000000
00000000
00000000
00000000
00000000
00000000
00000000
00000000
00000000
00000000
00000000
00000000
00000000
00003003
,
20002002
33333003
00000000
00000000
;

//---------------dance-double - Extreme EDIT----------------
#NOTES:
     dance-double:
     Extreme EDIT:
     Edit:
     13:
     1.000,1.000,1.000,1.000,1.000,2258.000,1899.000,916.000,0.000,1259.000:
00000000
00000000
00000000
00000000
,
00000000
00000000
00000000
20020000
00000000
00000000
00000000
30030000
,
22220011
00000100
33331000
00000010
00000110
00001001
00000000
00000001
,
00000110
00000000
00000011
00000000
00000000
00000000
00000100
00000000
00001000
00000100
00001000
00000100
00001000
00000000
00000000
00000000
,
22220011
33330000
00000100
00000000
00001100
00000000
00000001
00000000
00000101
00000000
00000110
00000000
00000000
00000000
00000100
00000000
,
00001010
00000000
00001001
00000000
00000000
00000000
00000010
00000000
00001010
00000000
00000101
00000000
22220110
33330000
00000000
00000000
,
22220101
33330000
00000010
00000000
00001100
00000000
00000011
00000000
00001100
00000000
00000110
00000000
00000000
00000000
00000011
00000000
,
00001010
00000000
00001100
00000000
00000000
00000000
00001010
00000000
00001000
00000010
00001000
00000010
00001000
00000000
00000000
00000000
,
22220011
33330000
00001000
00000000
00000110
00000000
00000001
00000000
00001100
00000000
00000011
00000000
00000000
00000000
00001001
00000000
,
00000110
00000000
00001010
00000000
00000000
00000000
00001010
00000000
22220011
33330000
00000110
00000000
20011002
00100100
30011003
00100100
,
10011001
01000010
00100100
10000001
00011000
10000001
01000010
00100100
10011001
00100100
01000010
10000001
00011000
01000010
00011000
00100100
,
01011010
10000001
01000010
00100100
00011000
10000001
00011000
10000001
01011010
00100100
00011000
00100100
01011010
10000001
00011000
10000001
,
01011010
00100100
00011000
01000010
00011000
00100100
01000010
10000001
01011010
10000001
00011000
01000010
00011000
01000010
00100100
10000001
,
01011010
10000001
00011000
01000010
00100100
10000001
00011000
01000010
00111100
01000010
00011000
10000001
00111100
01000010
00100100
10000001
,
01011010
00100100
01000010
10000001
00011000
00100100
01000010
10000001
00111100
01000010
00011000
10000001
01000010
00100100
00011000
10000001
,
01011010
00100100
00011000
01000010
00100100
01000010
00011000
10000001
00111100
01000010
00100100
01000010
00111100
10000001
00100100
01000010
,
10011001
00100100
01000010
10000001
00011000
01000010
00100100
10000001
01011010
00100100
00011000
01000010
00100100
10000001
01000010
10000001
,
00111100
01000010
00011000
00100100
00011000
10000001
00011000
01000010
00111100
10000001
01000010
00100100
01011010
10000001
01000010
00100100
,
10011000
00000010
10011000
00000001
10011000
00000000
10010010
00000000
20020102
00000000
00000000
00000000
00000000
00000000
00000000
30030003
,
10011000
00000100
10011000
00000100
10011000
00000000
10010000
00000010
11111100
00000000
00000010
00000000
11110110
00000000
00000001
00000000
,
10011000
00000100
10011000
00000100
10011000
00000000
10011000
00000000
20022001
00000000
00000000
00000000
00000000
00000000
00000000
30033000
,
11010001
00000010
11010100
00001000
11010010
00000100
11010001
00001000
11110010
00000000
00000000
00000000
11110001
00000000
00000010
00000000
,
11110100
00001000
00000100
00000000
11111000
00000000
11110001
00000000
11110101
00000000
00000000
00000000
00000000
00000000
20022000
30033000
,
10010001
00000100
10010001
00000100
10010001
00000000
10010100
00000000
22000022
00000000
00000000
00000000
00222200
00000000
00000000
33333333
,
10000001
01000010
00100100
00011000
10000001
00011000
00100100
01000010
10000001
00000000
00100100
00000000
01000010
00000000
00011000
00000000
,
10000001
01000010
10000001
00011000
10000001
00100100
01000010
00011000
22000022
00000000
00000000
00000000
00222200
00000000
00000000
33333333
,
10022001
01033010
00100100
00011000
10000001
01000010
20100102
30011003
01000010
00100100
01000010
00011000
12000021
03100130
01000010
00100100
,
12000021
03011030
00100100
01000010
10000001
00011000
10200201
01300310
00100100
00011000
01000010
00100100
12000021
03011030
01000010
00100100
,
10022001
01033010
00100100
00011000
00100100
00011000
20100102
31000013
10000001
01000010
00100100
00011000
20100102
30011003
01000010
00011000
,
10100101
00011000
01100110
00011000
11000011
00100100
11000011
00011000
11000011
00100100
11000011
00011000
10100101
01000010
10100101
00011000
,
12000021
03100130
01000010
00011000
10000001
00100100
21000012
30011003
00100100
01000010
10000001
00011000
20100102
30011003
01000010
00011000
,
12000021
03011030
10000001
00011000
00100100
00011000
21000012
30100103
10000001
01000010
10000001
00100100
10022001
00133100
10000001
01000010
,
20100102
30011003
10000001
01000010
00100100
01000010
10200201
00311300
00100100
01000010
00100100
00011000
21000012
30100103
01000010
00011000
,
12000021
03100130
01000010
00011000
00100100
01000010
10000001
00011000
20100102
31000013
10000001
01022010
00133100
00011000
21000012
30100103
,
12000021
03011030
01000010
00100100
01000010
00100100
10000001
00011000
21000012
30100103
10000001
00211200
01300310
00100100
12000021
03011030
,
20100102
31000013
10000001
01000010
10000001
01000010
20100102
30011003
01000010
00100100
10000001
01000010
20100102
30011003
00100100
01000010
,
10200201
00311300
10000001
00011000
10000001
00011000
21000012
30100103
01000010
00011000
10000001
00100100
21000012
30011003
10000001
00100100
,
10011001
01000010
10100101
00011000
11000011
00100100
10011001
01000010
10100101
00011000
10100101
01000010
10100101
00011000
10100101
01000010
,
00122100
01033010
10000001
01022010
00133100
00011000
10200201
01300310
20100102
30011003
00100100
01000010
00100100
00011000
00100100
01000010
,
10022001
01033010
00100100
01022010
10033001
00011000
21000012
30100103
12000021
03011030
01000010
00100100
10000001
00011000
01000010
00100100
,
20000002
00011000
01000010
30100103
20000002
01000010
00100100
31000013
20000002
00011000
00100100
31000013
20100102
00011000
01000010
30100103
,
20000002
01000010
00100100
00011000
01000010
00100100
01000010
00011000
01000010
00100100
01000010
30100103
10010001
00001000
10010010
00000100
,
20021001
00000000
00000000
00000000
00000000
00000000
00000010
30030000
20020110
00000000
00000000
30030000
20021000
00000000
00000001
30030000
,
20020101
00000000
00000000
00000000
00000000
00000000
00000000
00000000
02200000
00000000
00000000
33330000
20020000
00000000
00000000
30030000
,
20020101
00000000
00000000
00000000
00000000
00000000
00000000
00000000
00000010
00000000
00000000
00000000
00000000
00000000
00000000
00000000
00001000
00000000
00000000
00000000
00000000
30030000
00000000
00000000
20020100
00000000
00000000
00000000
00000000
00000000
00000000
00000000
00000010
30030000
00000000
00000000
20021000
00000000
00000000
00000000
00000001
00000000
00000000
00000000
00000000
30030000
00000000
00000000
,
20021001
00000000
00000000
00000000
00000000
00000000
00000010
00000000
00001001
00000000
00000000
30030000
20020000
00000000
00000000
30030000
,
22020101
00000000
00000000
00000000
00001000
00000000
00000010
33030000
22020101
00000000
00000000
33030000
22020001
00000000
00000100
33030000
,
22021010
00000000
00000000
00000000
00000000
00000000
00000000
00000000
00000000
00000000
00000000
33030000
22020000
00000000
00000000
33030000
,
22220101
00000000
00000000
00000000
00000000
00000000
00000000
00000000
00001000
00000000
00000000
00000000
00000000
00000000
00000000
00000000
00000001
00000000
00000000
00000000
00000000
33330000
00000000
00000000
22221010
00000000
00000000
00000000
00000000
00000000
00000000
00000000
00000010
33330000
00000000
00000000
22220000
00000000
00000000
00000000
00000001
00000000
00000000
00000000
00001000
33330000
00000000
00000000
,
22220110
00000000
00000000
00000000
00000000
00000000
00000000
00000000
00000100
00000000
00000000
00000000
00000000
00000000
00000000
00000000
00000001
00000000
00000000
00000000
00000000
00000000
00000000
00000000
00001000
00000000
00000000
00000000
00000010
00000000
00000000
00000000
00001000
00000000
00000000
00000000
00000001
00000000
00000000
00000000
00001000
00000000
00000000
00000000
00000010
33330000
00000000
00000000
,
22222222
00000000
00000000
00000000
33333333
00000010
00000001
00000100
,
22222222
00000000
00000000
00000000
33333333
00000100
00001000
00000100
,
22220100
00000010
00000010
00000001
33330001
00001000
00001000
00000010
,
22222222
00000000
00000000
00000000
00000000
00000000
00000000
33333333
00001000
00000100
00001000
00000100
00001000
00000000
00000000
00000000
,
22221001
00000000
00000000
00000000
00000000
00000000
00000000
00000000
00000100
00000000
00000001
00000000
33331000
00000000
00000000
00000100
00000000
00000000
00000101
00000000
00000000
00001000
00000000
00000000
,
22221100
00000010
00000100
00001000
33330100
00001000
00000100
00000010
,
22221010
00000001
00000010
00000100
33331001
00000010
00000100
00001000
,
22221001
00000000
00000000
00000000
00000001
00000000
00001000
00000000
33331000
00000010
00001000
00000010
00001000
00000000
00000000
00000000
,
10022001
01033010
00100100
00011000
10000001
01000010
20100102
30011003
01000010
00100100
01000010
00011000
12000021
03100130
01000010
00100100
,
12000021
03011030
00100100
01000010
10000001
00011000
10200201
01300310
00100100
00011000
01000010
00100100
12000021
03011030
01000010
00100100
,
10022001
01033010
00100100
00011000
00100100
00011000
20100102
31000013
10000001
01000010
00100100
00011000
20100102
30011003
01000010
00011000
,
10100101
00011000
01100110
00011000
11000011
00100100
11000011
00011000
11000011
00100100
11000011
00011000
10100101
01000010
10100101
00011000
,
12000021
03100130
01000010
00011000
01000010
00100100
21000012
30011003
10000001
01000010
10000001
00011000
20100102
30011003
01000010
00011000
,
10200201
00311300
10000001
00011000
00100100
00011000
21000012
30100103
10000001
01000010
10000001
00100100
10000001
00100100
10000001
01000010
,
20100102
30011003
10000001
01000010
00100100
01000010
10200201
00311300
00100100
01000010
00100100
00011000
21000012
30100103
01000010
00011000
,
12000021
03100130
01000010
00011000
00100100
01000010
10000001
00011000
20100102
31000013
10000001
01022010
00133100
00011000
21000012
30100103
,
12000021
03011030
01000010
00100100
01000010
00100100
10000001
00011000
21000012
30100103
10000001
00011000
01000010
00100100
12000021
03011030
,
20100102
31000013
10000001
01000010
10000001
01000010
20100102
30011003
01000010
00100100
10000001
01000010
20100102
30011003
00100100
01000010
,
10200201
00311300
10000001
00011000
10000001
00011000
21000012
30100103
01000010
00011000
10000001
00100100
21000012
30011003
10000001
00100100
,
10011001
01000010
10100101
00011000
11000011
00100100
10011001
01000010
10100101
00011000
10100101
01000010
10100101
00011000
10100101
01000010
,
00122100
01033010
10000001
01022010
00133100
00011000
10200201
01300310
20100102
30011003
00100100
01000010
00100100
00011000
00100100
01000010
,
10022001
01033010
00100100
01022010
10033001
00011000
21000012
30100103
12000021
03011030
01000010
00100100
10000001
00011000
21000012
30100103
,
20000002
00011000
01000010
30100103
20000002
01000010
00100100
31000013
20000002
00011000
00100100
31000013
20100102
00011000
01000010
30100103
,
20000002
01000010
00100100
00011000
01000010
00100100
01000010
00011000
01000010
00100100
01000010
30100103
10000001
00011000
01000010
00100100
,
20021001
00000000
00000000
00000000
00000000
00000000
00000001
30030000
20021001
00000000
00000000
30030000
20020010
00000000
00000100
30030000
,
20021001
00000000
00000000
00000000
00000000
00000000
00000000
00000000
02200000
00000000
00000000
33330000
20020000
00000000
00000000
30030000
,
20021100
00000000
00000000
00000000
00000000
00000000
00000000
00000000
00000010
00000000
00000000
00000000
00000000
00000000
00000000
00000000
00001000
00000000
00000000
00000000
00000000
30030000
00000000
00000000
20020101
00000000
00000000
00000000
00000000
00000000
00000000
00000000
00000010
30030000
00000000
00000000
20020100
00000000
00000000
00000000
00000001
00000000
00000000
00000000
00001000
30030000
00000000
00000000
,
20020110
00000000
00000000
00000000
00000000
00000000
00000010
00000000
00001100
00000000
00000000
30030000
20020000
00000000
00000000
30030000
,
22020011
00000000
00000000
00000000
00001000
00000000
00000100
33030000
22021001
00000000
00000000
33030000
22020001
00000000
00000100
33030000
,
22022222
00000000
00000000
00000000
00000000
00000000
00000000
00000000
00000000
00000000
00000000
33033333
22022222
00000000
00000000
33033333
,
22220011
00000000
00000000
00000000
00000000
00000000
00000000
00000000
00000101
00000000
00000000
00000000
00000000
00000000
00000000
00000000
00001010
00000000
00000000
00000000
00000000
33330000
00000000
00000000
22221001
00000000
00000000
00000000
00000000
00000000
00000000
00000000
00001010
33330000
00000000
00000000
22220000
00000000
00000000
00000000
00000110
00000000
00000000
00000000
00000000
33330000
00000000
00000000
,
22221001
00000000
00000000
00000100
00001001
00000000
00000000
00000000
,
00001001
00000000
00000000
00000000
33330000
00000000
00000000
00000000
20022002
00000000
00000000
30033003
20022002
00000000
00000000
30033003
,
10022001
00133100
01000010
00011000
10000001
01000010
10000001
00011000
20100102
30011003
01000010
00100100
21000012
30011003
10000001
01000010
,
20100102
30011003
00100100
01000010
10000001
00011000
01000010
00100100
12000021
03011030
10000001
01000010
20100102
30011003
01000010
00011000
,
10200201
01300310
00100100
00011000
10200201
01300310
10000001
00011000
00100100
00011000
00100100
01000010
10000001
01000010
10000001
00011000
,
21000012
30011003
01000010
00100100
10000001
00100100
10000001
01000010
00122100
01033010
00100100
01000010
10200201
00311300
10000001
01000010
,
20100102
30011003
10000001
01000010
00100100
00011000
10000001
01000010
20100102
30011003
01000010
00100100
12000021
03011030
10000001
00011000
,
12000021
03011030
01000010
00100100
01000010
00100100
10000001
00011000
21000012
30100103
10000001
01000010
20100102
30011003
10000001
01000010
,
20100102
30011003
01000010
00011000
00100100
00011000
01000010
00011000
10000001
00100100
10000001
01000010
10000001
00011000
00100100
01000010
,
10000001
00011000
10000001
01000010
00100100
00011000
00100100
01000010
10200201
00311300
10000001
00100100
10022001
00133100
01000010
00011000
,
10200201
00311300
01000010
00100100
10000001
01000010
00100100
00011000
21000012
30100103
10000001
01000010
20100102
30011003
10000001
01000010
,
00122100
01033010
10000001
00011000
00100100
01000010
00100100
00011000
10200201
01300310
10000001
00100100
21000012
30011003
00100100
00011000
,
21000012
30100103
01000010
00011000
00100100
01000010
10000001
00011000
21000012
30100103
10000001
01000010
20100102
30011003
10000001
00011000
,
20100102
31000013
10000001
00100100
10000001
01000010
00100100
00011000
21000012
30100103
01000010
00011000
12000021
03100130
01000010
00100100
,
12000021
03011030
01000010
00100100
10000001
01000010
00100100
00011000
20100102
31000013
10000001
00011000
21000012
00100100
01000010
30011003
,
21000012
00100100
00011000
01000010
00100100
01000010
00100100
30011003
20100102
01000010
00100100
00011000
00100100
01000010
00011000
31000013
,
20100102
00011000
01000010
00100100
01000010
00011000
00100100
01000010
00011000
00100100
01000010
00011000
00100100
01000010
00100100
00011000
,
01000010
00100100
01000010
00011000
31000013
00100100
10000001
01000010
20100102
30011003
10000001
01000010
00100100
00011000
10000001
01000010
,
22221100
00000000
00000001
00001000
00000100
00000000
00001000
00000000
00000100
00000000
00000010
00000000
00000001
00000000
00000000
33330000
,
22221010
00000000
00000001
00000100
00000001
00000000
00000010
00000000
00000001
00000000
00001000
00000000
00000100
00000000
00000000
33330000
,
22221010
00000000
00000001
00001000
00000010
00000000
00000100
00000000
00000002
00000000
00000000
00000003
00000020
00000000
00000000
00000030
,
00000200
00000000
00000000
00000300
00002000
00000000
00000000
00003000
00000010
00000000
00000100
00000000
00000002
00000000
00000000
33330003
,
22221100
00000000
00000001
00001000
00000100
00000000
00000010
00000000
00000001
00000000
00001000
00000000
00000100
00000000
00000000
33330000
,
22220110
00000000
00001000
00000001
00001000
00000000
00000010
00000000
00000100
00000000
00000001
00000000
00001000
00000000
00000000
33330000
,
22220101
00000000
00000010
00001000
00000100
00000000
00000010
00000000
00000002
00000000
00000000
00000003
00000020
00000000
00000000
00000030
,
00002000
00000000
00000000
00003000
00000002
00000000
00000000
00000003
00000100
00000000
00000010
00000000
00001000
00000000
00000000
33330000
,
22222001
00000100
00003010
00001000
00000001
00000010
00000100
00001000
00000100
00000010
00000001
00001000
00000010
00001000
00000100
33331000
,
22220201
00000010
00000301
00001000
00000100
00001000
00000010
00000100
00000001
00001000
00000010
00000100
00000001
00001000
00000010
33330100
,
22222001
00000010
00003100
00001000
00000001
00000010
00000100
00001000
00000100
00000010
00000001
00001000
00000100
00001000
00000001
00000010
,
00000001
00000100
00000001
00001000
00000100
00000010
00000001
00001000
00000100
00000010
00000001
00001000
00000010
00001000
00000001
33330100
,
22220021
00001000
00000001
00001030
00000010
00000100
00000001
00000100
00000001
00001000
00000100
00001000
00000001
00000010
00000001
33331000
,
22220012
00000100
00000010
00001003
00000001
00000010
00000100
00001000
00000100
00000010
00000001
00001000
00000010
00001000
00000100
33331000
,
22220012
00000100
00000010
00001003
00000001
00000100
00000010
00000100
00000010
00000100
00000001
00001000
00000010
00000100
00000001
00001000
,
00000001
00000010
00000100
00001000
00000010
00000100
00000010
00001000
00000100
00000010
00000001
00001000
00000010
00001000
00000001
33330100
,
10010010
00000000
10010010
00000000
10010001
00000000
10010100
00000000
20021001
00000000
00001001
30030000
20020010
00000000
00000000
30030000
,
10011100
00000000
10010001
00000000
10010010
00000000
10010001
00000000
20021100
00000000
00001100
00000000
00000001
00000000
00000000
30030000
,
10011010
00000000
10010100
00000000
10010001
00000000
10011000
00000000
20020101
00000000
00000101
30030000
20020010
00000000
00000000
30030000
,
10011010
10010001
10010100
10010001
10011010
10011010
10010001
10010100
,
11011010
00000000
11010100
00000000
11010001
00000000
11010100
00000000
22020011
00000000
00000011
33030000
22021000
00000000
00000000
33030000
,
11010110
00000000
11010001
00000000
11010010
00000000
11010001
00000000
22020110
00000000
00000110
33030000
11011000
00000000
11010100
00000000
,
22221001
00000000
00000000
33330000
11110010
00000000
11110100
00000000
11110010
00000000
11111000
11110010
11111000
00000000
11110001
00000000
,
22221000
00000010
00001000
00000001
00000100
00000001
00001000
00000010
00001000
00000001
00000100
00000001
00001000
00000010
00001000
33330001
,
10011100
00000000
10011000
00000000
10011010
00000000
10011001
00000000
20021000
00000000
00001000
30030000
20021010
00000000
00001000
30030000
,
10011010
00000000
10011100
00000000
10011001
00000000
10011010
00000000
20021001
00000000
00000100
00000000
00000010
00000000
00000001
30030000
,
10010011
00000000
10011001
00000000
10010101
00000000
10010011
00000000
20020001
00000000
00000001
30030000
20021001
00000000
00000001
30030000
,
10010101
10010011
10011001
10010101
10011001
10010011
10011010
10010101
,
10010110
00000000
10011001
00000000
10011100
00000000
10010011
00000000
20021000
00000000
00000010
30030000
20020101
00000000
00000010
30030000
,
10011100
00000000
10011001
00000000
10010101
00000000
10011010
00000000
20020011
00000000
00000100
30030000
10010011
00000000
10011010
00000000
,
20020110
00000000
00000001
30030000
10010110
00000000
10011000
00000000
10010101
00000000
10011000
10010010
10010100
00000000
10011000
00000000
,
20020010
00000100
00000001
00001000
00000010
00000100
00000001
00001000
00000010
00000100
00000001
00001000
00000010
00000100
00000001
30031000
,
11111111
00000000
00000001
00001000
11111111
00000000
00001000
00000010
,
11111111
00000010
00000100
00001000
11111111
00000000
00000010
00000000
,
11111111
00000000
00000100
00000010
11111111
00000000
00000100
00000010
,
11111111
00000100
00000010
00001000
11111111
00000000
00000000
00000000
,
22222222
00000000
00000000
00000000
00000000
00000000
00000000
00000000
00000000
00000000
00000000
00000000
00000000
00000000
00000000
33333333
,
10022001
00133100
01000010
00011000
10000001
01000010
10000001
02011020
03100130
00011000
01000010
00100100
21000012
30011003
10000001
01000010
,
20100102
30011003
00100100
01000010
10000001
00011000
01000010
00100100
12000021
03011030
10000001
01000010
00100100
00011000
01000010
00011000
,
10200201
01300310
00100100
00011000
10000001
01000010
10200201
00311300
00100100
00011000
00100100
01000010
10022001
01033010
10000001
00011000
,
11000011
00011000
11000011
00100100
10011001
00100100
10011001
01000010
00111100
01000010
10100101
01000010
10100101
00011000
10100101
01000010
,
20100102
30011003
10000001
01000010
00100100
00011000
10200201
01300310
00100100
00011000
01000010
00100100
12000021
03011030
10000001
00011000
,
10200201
00311300
01000010
00100100
01000010
00100100
12000021
03011030
01000010
00100100
10022001
01033010
20100102
30011003
10000001
01000010
,
20100102
30011003
01000010
00011000
00100100
00011000
01200210
00311300
10000001
00100100
10000001
01000010
10200201
00311300
00100100
01000010
,
10200201
00311300
10000001
01000010
00100100
00011000
00100100
01000010
10200201
00311300
10000001
00122100
10033001
00100100
21000012
30011003
,
10200201
00311300
01000010
00100100
10000001
01000010
00100100
00011000
21000012
30100103
10000001
01022010
00133100
00011000
10200201
01300310
,
00122100
01033010
10000001
00011000
00100100
01000010
20100102
30011003
10000001
01000010
10000001
00100100
21000012
30011003
00100100
00011000
,
21000012
30100103
01000010
00011000
00100100
01000010
10200201
00311300
01000010
00100100
10000001
01000010
20100102
30011003
10000001
00011000
,
10100101
01000010
10011001
00100100
10011001
01000010
10100101
00011000
11000011
00100100
11000011
00011000
11000011
00100100
01011010
00100100
,
12000021
03011030
01000010
00122100
10033001
01000010
20100102
30011003
10200201
01300310
10000001
00011000
01000010
00100100
10000001
00011000
,
21000012
30100103
10000001
01022010
00133100
01000010
10200201
00311300
20100102
31000013
00100100
00011000
00100100
01000010
10000001
01000010
,
20100102
30011003
10000001
00100100
20000002
00011000
00100100
31000013
20000002
00100100
01000010
30011003
20000002
01000010
00100100
30011003
,
21000012
00100100
01000010
00011000
01000010
00100100
00011000
01000010
00100100
00011000
00100100
31000013
20100102
30011003
20100102
31000013
,
20021100
00000000
00000000
00000000
00000000
00000000
00000100
30030000
20021001
00000000
00000000
30030000
20020001
00000000
00001000
30030000
,
20020011
00000000
00000000
00000000
00000000
00000000
00000000
00000000
00200000
00000000
00000000
00000000
02000000
00000000
00000000
33330000
,
20021100
00000000
00000000
00000000
00000000
00000000
00000000
30030000
20020000
00000000
00000000
30030000
20020000
00000000
00000000
30030000
,
20020011
00000000
00000000
00000000
00000000
00000000
00001000
00000000
00001001
00000000
00000000
30030000
20020000
00000000
00000000
30030000
,
22020101
00000000
00000000
00000000
00000010
00000000
00001000
33030000
22021100
00000000
00000000
33030000
22020010
00000000
00000001
33030000
,
22022002
00000000
00000000
00000000
00000000
00000000
00000000
00000000
00000000
00000000
00000000
33033003
22022002
00000000
00000000
33033003
,
22220101
00000000
00000000
00000000
00000000
00000000
00000000
33330000
22220000
00000000
00000000
33330000
22220000
00000000
00000000
33330000
,
22221010
00000000
00000000
00000010
00000110
00000000
00000000
00000000
,
00001001
00000000
00000000
00000000
33330000
00000000
00000000
00000000
02200220
00000000
00000000
00000000
20022002
00000000
00000000
33333333
,
10022001
00100100
01033010
00011000
10000001
01000010
10000001
00011000
20100102
00011000
31000013
00100100
12000021
00011000
13000031
01000010
,
20100102
00011000
30100103
01000010
10000001
00011000
01000010
00100100
12000021
00011000
13000031
01000010
20100102
00011000
31000013
00011000
,
20100102
01000010
30100103
00011000
10000001
01000010
10000001
00011000
00100100
00011000
00100100
01000010
10000001
01000010
10000001
00011000
,
21000012
00011000
31000013
00100100
10000001
00100100
10000001
01000010
00122100
01000010
00133100
01000010
10200201
00011000
10300301
01000010
,
20100102
00011000
30100103
01000010
00100100
00011000
10000001
01000010
20100102
00011000
31000013
00100100
12000021
00011000
13000031
00011000
,
21000012
00011000
31000013
00100100
01000010
00100100
10000001
00011000
21000012
00100100
30011003
01000010
10200201
00011000
10300301
01000010
,
20100102
00011000
31000013
00011000
00100100
00011000
01000010
00011000
10000001
00100100
10000001
01000010
10000001
00011000
00100100
01000010
,
10000001
00011000
10000001
01000010
00100100
00011000
00100100
01000010
10200201
00011000
10300301
00100100
10022001
00100100
01033010
00011000
,
10200201
00011000
01300310
00100100
10000001
01000010
00100100
00011000
21000012
00100100
30011003
01000010
10200201
00011000
10300301
01000010
,
00122100
01000010
10033001
00011000
00100100
01000010
00100100
00011000
10200201
01000010
10300301
00100100
21000012
00011000
30100103
00011000
,
21000012
00100100
31000013
00011000
00100100
01000010
10000001
00011000
21000012
00100100
30011003
01000010
20100102
00011000
31000013
00011000
,
20100102
01000010
30011003
00100100
10000001
01000010
00100100
00011000
21000012
00100100
31000013
00011000
21000012
00100100
31000013
00100100
,
21000012
00011000
30000003
00100100
10000001
01000010
00100100
00011000
20100102
01000010
30100103
00011000
21000012
00100100
01000010
30011003
,
21000012
00100100
00011000
01000010
00100100
01000010
00100100
30011003
20100102
01000010
00100100
00011000
00100100
01000010
00011000
31000013
,
20100102
00011000
01000010
00100100
01000010
00011000
00100100
01000010
00011000
00100100
01000010
00011000
00100100
01000010
00100100
00011000
,
01000010
00100100
01000010
00011000
01000010
00100100
00011000
31000013
20100102
00011000
00100100
31000013
20100102
00011000
00100100
31000013
,
20011002
00100100
31000013
00011000
00100100
01000010
00100100
00011000
20100102
00011000
31000013
00100100
21000012
00011000
30100103
01000010
,
20100102
00011000
30100103
01000010
10000001
00011000
01000010
00100100
12000021
00011000
13000031
01000010
20100102
00011000
31000013
00011000
,
20100102
01000010
30100103
00011000
10000001
01000010
10000001
00011000
00100100
00011000
00100100
01000010
10000001
01000010
10000001
00011000
,
21000012
00011000
31000013
00100100
10000001
00100100
10000001
01000010
00122100
01000010
00133100
01000010
10200201
00011000
10300301
01000010
,
10200201
00011000
10300301
01000010
00100100
00011000
10000001
01000010
20100102
00011000
31000013
00100100
12000021
00011000
13000031
00011000
,
21000012
00011000
31000013
00100100
01000010
00100100
10000001
00011000
21000012
00100100
30011003
01000010
20100102
00011000
30100103
01000010
,
20100102
00011000
31000013
00011000
00100100
00011000
01000010
00011000
10000001
00100100
10000001
01000010
10000001
00011000
00100100
01000010
,
10000001
00011000
10000001
01000010
00100100
00011000
00100100
01000010
10200201
00011000
10300301
00100100
10022001
00100100
01033010
00011000
,
10200201
00011000
01300310
00100100
10000001
01000010
00100100
00011000
21000012
00100100
30011003
01000010
20100102
00011000
30100103
01000010
,
00122100
01000010
10033001
00011000
00100100
01000010
00100100
00011000
10200201
01000010
10300301
00100100
21000012
00011000
30100103
00011000
,
21000012
00100100
31000013
00011000
00100100
01000010
10000001
00011000
21000012
00100100
30011003
01000010
20100102
00011000
31000013
00011000
,
20100102
01000010
30011003
00100100
10000001
01000010
00100100
00011000
21000012
00100100
31000013
00011000
21000012
00100100
31000013
00100100
,
22222002
00000000
00000000
00000000
00000000
00000000
00000000
33330000
22220000
00000000
00000000
33330000
22220000
00000000
00000000
33333003
,
00022002
00000000
00000000
00000000
00000000
00000000
00000000
00000000
00200000
00000000
00000000
00000000
00000000
00000000
00000000
00003003
,
02002002
00000000
00000000
00000000
00000000
00000000
00000000
00000000
00000000
00000000
00000000
00000000
00000000
00000000
00000000
00003003
,
20002222
33333333
00000000
00000000
;

//---------------dance-double - Light----------------
#NOTES:
     dance-double:
     Light:
     Easy:
     8:
     0.956,1.000,1.000,1.000,0.023,814.000,384.000,438.000,0.000,136.000:
00000000
00000000
00000000
00000000
,
00000000
00000000
00000000
00020000
00000000
00000000
00000000
00030000
,
00020001
00030010
00000010
00000001
,
00000100
00000010
00001000
00001000
,
00020001
00030000
00000000
00000000
00000100
00000000
00000000
00000000
00000001
00000000
00000000
00000000
00000100
00000000
00000000
00000000
,
00000010
00000000
00000000
00000000
00000010
00000000
00000000
00000000
00001000
00000000
00000000
00000000
00020100
00030000
00000000
00000000
,
00020001
00030000
00000000
00000000
00001000
00000000
00000000
00000000
00001000
00000000
00000000
00000000
00000001
00000000
00000000
00000000
,
00001000
00001000
00001000
00001000
,
00020001
00030000
00000000
00000000
00000100
00000000
00000000
00000000
00001000
00000000
00000000
00000000
00000010
00000000
00000000
00000000
,
00000100
00000000
00000000
00000000
00001000
00000000
00000000
00000000
00020001
00030000
00000000
00000000
00021000
00030000
00000000
00000000
,
00021000
00000000
00000000
00000000
00001000
00000000
00000000
00030000
00021000
00000000
00000000
00000000
00001000
00000000
00000000
00030000
,
00021000
00000000
00000000
00000000
00001000
00000000
00000000
00030000
00020010
00000000
00000000
00030000
00020010
00000000
00000000
00030000
,
20000010
00000000
00000000
00000000
00000100
00000000
00000000
30000000
20000100
00000000
00000000
00000000
00000100
00000000
00000000
30000000
,
20000100
00000000
00000000
00000000
00000100
00000000
00000000
30000000
20000100
00000000
00000000
30000000
20001000
00000000
00000000
30000000
,
00021000
00000000
00000000
00000000
00001000
00000000
00000000
00030000
00020100
00000000
00000000
00000000
00000010
00000000
00000000
00030000
,
00020010
00000000
00000000
00000000
00000100
00000000
00000000
00030000
00021000
00000000
00000000
00030000
00021000
00000000
00000000
00030000
,
20000001
00000000
00000000
00000000
00001000
00000000
00000000
30000000
20000010
00000000
00000000
00000000
00000100
00000000
00000000
30000000
,
20000100
00000000
00000000
00000000
00001000
00000000
00000000
30000000
20000100
00000000
00000000
30000000
20001000
00000000
00000000
30000000
,
00000001
00000000
00000000
00000000
00001000
00000000
00000000
00000000
00000002
00000000
00000000
00000000
00000000
00000000
00000000
00000003
,
00001000
00001000
00001000
00000010
,
00001000
00000000
00001000
00000000
00002000
00000000
00000000
00003000
,
00000001
00000010
00000010
00000001
,
00000100
00001000
00000001
00001000
,
00000001
00000001
00000100
00000001
,
00000001
00000001
00000001
00000010
,
00000001
00000001
00000001
00001000
,
00020001
00000000
00000000
00000000
00000001
00030000
00020000
00000000
00000010
00000000
00000000
00030000
00020001
00000000
00000000
00030000
,
00020001
00000000
00000000
00000000
00000001
00030000
00020000
00000000
00000100
00000000
00000000
00030000
00021000
00000000
00000000
00030000
,
00020001
00000000
00000000
00000000
00000100
00030000
00020000
00000000
00000001
00000000
00000000
00030000
00020100
00000000
00000000
00030000
,
00010100
00010000
00010001
00010000
00010001
00010000
00010001
00010000
,
00020010
00000000
00000000
00000000
00000001
00030000
00020000
00000000
00001000
00000000
00000000
00030000
00020100
00000000
00000000
00030000
,
00020001
00000000
00000000
00000000
00000100
00030000
00020000
00000000
00001000
00000000
00000000
00030000
00020001
00000000
00000000
00030000
,
00020100
00000000
00000000
00000000
00001000
00030000
00020000
00000000
00000100
00000000
00000000
00030000
00020010
00000000
00000000
00030000
,
00020001
00000000
00000000
00000000
00001000
00000000
00000000
00030000
00021000
00000000
00030000
00020000
00001000
00030000
00020000
00030000
,
00020001
00000000
00000000
00000000
00000010
00000000
00000000
00030000
00021000
00000000
00030000
00020000
00000010
00030000
00020000
00030000
,
00020100
00000000
00000000
00000000
00000001
00030000
00020000
00000000
00000010
00000000
00000000
00030000
00020100
00000000
00000000
00030000
,
00021000
00000000
00000000
00000000
00000001
00030000
00020000
00000000
00000010
00000000
00000000
00030000
00020010
00000000
00000000
00030000
,
00011000
00010000
00010010
00010000
00010100
00010000
00010001
00010000
,
00020100
00000000
00030000
00020000
00001000
00030000
00020000
00030000
00020100
00000000
00000000
00000000
00001000
00000000
00000000
00030000
,
00020001
00000000
00030000
00020000
00001000
00030000
00020000
00030000
00020001
00000000
00000000
00000000
00000001
00000000
00000000
00030000
,
00021000
00000000
00000000
00030000
00200001
00000000
00000000
00300000
02001000
00000000
00000000
03000000
20000100
00000000
00000000
30000000
,
20020001
00000000
00000000
00000000
00000010
00000000
00000000
00000000
00001000
00000000
00000000
30030000
00010001
00000000
00010000
00000000
,
00021000
00000000
00000000
00000000
00000000
00000000
00000000
00030000
00020100
00000000
00000000
00030000
00021000
00000000
00000000
00030000
,
00020001
00000000
00000000
00000000
00000000
00000000
00000000
00030000
00020000
00000000
00000000
00030000
00020000
00000000
00000000
00030000
,
00021001
00000000
00000000
00000000
00000000
00000000
00000000
00030000
00020000
00000000
00000000
00030000
00020000
00000000
00000000
00030000
,
00021001
00000000
00000000
00000000
00000000
00000000
00000000
00000000
00000000
00000000
00000000
00030000
00020000
00000000
00000000
00030000
,
00200101
00000000
00000000
00000000
00001000
00000000
00000000
00300000
00200100
00000000
00000000
00300000
00200001
00000000
00000000
00300000
,
00201001
00000000
00000000
00000000
00000000
00000000
00000000
00000000
00000000
00000000
00000000
00300000
00200000
00000000
00000000
00300000
,
00200101
00000000
00000000
00000000
00000000
00000000
00000000
00300000
00201010
00000000
00000000
00300000
00200000
00000000
00000000
00300000
,
00200110
00000000
00000000
00000000
00000000
00000000
00000000
00000000
00001000
00000000
00000000
00000000
00000001
00000000
00000000
00300000
,
00201001
00000000
00300000
00000001
,
02000110
00000000
03000000
00001000
,
02000100
00000010
03000001
00001000
,
02000010
00000000
03001000
00001000
,
02001001
00000000
03001000
00000001
,
02001100
00000100
03001000
00000100
,
20001010
00000010
30000010
00000100
,
20001001
00000001
30001000
00001000
,
00020001
00000000
00000000
00000000
00000001
00030000
00020000
00000000
00000010
00000000
00000000
00030000
00021000
00000000
00000000
00030000
,
00020001
00000000
00000000
00000000
00000001
00030000
00020000
00000000
00000100
00000000
00000000
00030000
00021000
00000000
00000000
00030000
,
00021000
00000000
00000000
00000000
00000100
00030000
00020000
00000000
00000001
00000000
00000000
00030000
00020100
00000000
00000000
00030000
,
00010100
00010000
00010001
00010000
00011000
00010000
00011000
00010000
,
00020001
00000000
00000000
00000000
00001000
00030000
00020000
00000000
00000100
00000000
00000000
00030000
00020100
00000000
00000000
00030000
,
00020001
00000000
00000000
00000000
00000100
00030000
00020000
00000000
00000001
00000000
00000000
00000000
00001000
00000000
00000000
00030000
,
00020100
00000000
00000000
00000000
00000100
00030000
00020000
00000000
00000100
00000000
00000000
00030000
00021000
00000000
00000000
00030000
,
00020001
00000000
00000000
00000000
00000100
00000000
00000000
00030000
00020100
00000000
00030000
00020000
00000100
00030000
00020000
00030000
,
00020001
00000000
00000000
00000000
00000010
00000000
00000000
00030000
00020010
00000000
00000000
00000000
00001000
00030000
00020000
00030000
,
00020100
00000000
00000000
00000000
00001000
00030000
00020000
00000000
00001000
00000000
00000000
00030000
00020100
00000000
00000000
00030000
,
00020001
00000000
00000000
00000000
00000001
00030000
00020000
00000000
00000010
00000000
00000000
00030000
00020010
00000000
00000000
00030000
,
00010001
00010000
00010010
00010000
00010100
00010000
00011000
00010000
,
00020100
00000000
00030000
00020000
00000100
00030000
00020000
00030000
00020100
00000000
00000000
00000000
00000100
00000000
00000000
00030000
,
00021000
00000000
00030000
00020000
00001000
00030000
00020000
00030000
00020001
00000000
00000000
00000000
00001000
00030000
00020000
00030000
,
00020001
00000000
00000000
00030000
00200001
00000000
00000000
00300000
02000001
00000000
00000000
03000000
20000100
00000000
00000000
30000000
,
20000001
00000000
00000000
00000000
00000010
00000000
00000000
00000000
00001000
00000000
00000000
30000000
10000001
00000000
10000000
00000000
,
20001001
00000000
00000000
00000000
00000000
00000000
00000000
30000000
20001001
00000000
00000000
30000000
20000000
00000000
00000000
30000000
,
20001001
00000000
00000000
00000000
00000000
00000000
00000000
30000000
20000000
00000000
00000000
30000000
20000000
00000000
00000000
30000000
,
20001100
00000000
00000000
00000000
00000000
00000000
00000000
30000000
20000101
00000000
00000000
30000000
20000000
00000000
00000000
30000000
,
20000110
00000000
00000000
00000000
00000000
00000000
00000000
00000000
00001100
00000000
00000000
30000000
20000000
00000000
00000000
30000000
,
20000011
00000000
00000000
00000000
00000000
00000000
00000000
30000000
20001001
00000000
00000000
30000000
20000000
00000000
00000000
30000000
,
20001001
00000000
00000000
00000000
00000000
00000000
00000000
00000000
00000000
00000000
00000000
30000000
20000000
00000000
00000000
30000000
,
20000011
00000000
00000000
00000000
00000000
00000000
00000000
30000000
20001001
00000000
00000000
30000000
20000000
00000000
00000000
30000000
,
20001001
00000000
00001001
00000000
,
00001001
00000000
00000000
00000000
30000000
00000000
00000000
00000000
20002002
00000000
00000000
30003003
20002002
00000000
00000000
30003003
,
20000001
00000000
00000000
00000000
00000001
00000000
00000000
30000000
20000100
00000000
00000000
30000000
20000010
00000000
00000000
30000000
,
20000100
00000000
00000000
00000000
00000001
00000000
00000000
30000000
20000001
00000000
00000000
30000000
20001000
00000000
00000000
30000000
,
20000001
00000000
00000000
00000000
00001000
00000000
00000000
00000000
00000100
00000000
00000000
00000000
00000001
00000000
00000000
30000000
,
20000010
00000000
00000000
00000000
00000001
00000000
00000000
30000000
20000100
00000000
00000000
30000000
20000001
00000000
00000000
30000000
,
20000100
00000000
00000000
00000000
00000100
00000000
00000000
30000000
20000100
00000000
00000000
30000000
20000001
00000000
00000000
30000000
,
20001000
00000000
00000000
00000000
00000010
00000000
00000000
30000000
20001000
00000000
00000000
30000000
20000100
00000000
00000000
30000000
,
20000100
00000100
00001000
00000001
,
30001000
00000000
00000000
00000000
00000100
00000000
00000000
00000000
00020001
00000000
00000000
00030000
00020001
00000000
00000000
00030000
,
00021000
00000000
00000000
00000000
00001000
00000000
00000000
00030000
00020010
00000000
00000000
00030000
00020100
00000000
00000000
00030000
,
00020100
00000000
00000000
00000000
00001000
00000000
00000000
00030000
00020001
00000000
00000000
00030000
00020010
00000000
00000000
00030000
,
00021000
00000000
00000000
00000000
00000100
00000000
00000000
00030000
00020010
00000000
00000000
00030000
00020100
00000000
00000000
00030000
,
00020100
00000000
00000000
00000000
00000001
00000000
00000000
00030000
00020010
00000000
00000000
00030000
00020001
00000000
00000000
00030000
,
00020001
00000000
00000000
00000000
00000001
00000000
00000000
00030000
00020100
00000000
00000000
00030000
00020010
00000000
00000000
00030000
,
00200010
00000000
00000000
00000000
00001000
00000000
00000000
00300000
02001000
00000000
00000000
00000000
00000100
00000000
00000000
03000000
,
20000100
00000001
00000001
00001000
,
00000100
00000000
00000000
00000000
30000010
00000000
00000000
00000000
00020001
00000000
00000000
00000000
00001000
00000000
00000000
00030000
,
20001100
00000000
00000000
00000000
00000100
00000000
00000000
00000000
00000100
00000000
00000000
00000000
00000001
00000000
00000000
30000000
,
20001010
00000000
00000000
00000000
00000001
00000000
00000000
00000000
00000001
00000000
00000000
00000000
00000100
00000000
00000000
30000000
,
20001010
00000010
00000001
00000010
,
00000100
00000000
00000000
00000000
00001000
00000000
00000000
00000000
00000010
00000000
00000000
00000000
00000001
00000000
00000000
30000000
,
00201100
00000000
00000000
00000000
00000100
00000000
00000000
00000000
00000001
00000000
00000000
00000000
00000100
00000000
00000000
00300000
,
02000110
00000000
00000000
00000000
00001000
00000000
00000000
00000000
00000100
00000000
00000000
00000000
00001000
00000000
00000000
03000000
,
00020101
00000100
00000001
00000010
,
00001000
00000000
00000000
00000000
00000001
00000000
00000000
00000000
00000100
00000000
00000000
00000000
00001000
00000000
00000000
00030000
,
00020001
00000000
00000000
00000000
00000001
00000000
00000000
00000000
00000100
00000000
00000000
00000000
00001000
00000000
00000000
00030000
,
00020001
00000000
00000000
00000000
00001000
00000000
00000000
00000000
00000001
00000000
00000000
00000000
00001000
00000000
00000000
00030000
,
00020001
00000001
00001000
00000100
,
00000001
00000000
00000000
00000000
00000100
00000000
00000000
00000000
00001000
00000000
00000000
00000000
00000010
00000000
00000000
00030000
,
00020001
00000000
00000000
00000000
00000010
00000000
00000000
00000000
00000001
00000000
00000000
00000000
00001000
00000000
00000000
00030000
,
00020001
00000000
00000000
00000000
00001000
00000000
00000000
00000000
00000100
00000000
00000000
00000000
00000010
00000000
00000000
00030000
,
00020001
00000001
00001000
00000010
,
00000001
00000000
00000000
00000000
00000010
00000000
00000000
00000000
00001000
00000000
00000000
00000000
00000010
00000000
00000000
00030000
,
00010010
00000000
00010001
00000000
00010001
00010000
00010010
00000000
,
00011000
00000000
00010010
00000000
00011000
00010000
00010001
00000000
,
00011000
00000000
00010001
00000000
00010001
00010000
00010010
00000000
,
00011000
00000000
00010100
00000000
00010010
00010000
00010001
00000000
,
10001000
00000000
10000001
00000000
10000010
10000000
10001000
00000000
,
10000100
00000000
10000010
00000000
10000010
10000000
10001000
00000000
,
10001000
00000000
10000010
00000000
10000010
10000000
10001000
00000000
,
10001000
00000000
10000100
00000000
10001000
10000000
10001000
00000000
,
10000100
00000000
10000000
00000000
10000010
00000000
10000000
00000000
00021000
00000000
00000000
00030000
00020010
00000000
00000000
00030000
,
00010010
00000000
00010000
00000000
00011000
00000000
00010000
00000000
00020001
00000000
00000000
00000000
00000010
00000000
00000000
00030000
,
00010010
00000000
00010000
00000000
00010100
00000000
00010000
00000000
00020001
00000000
00000000
00030000
00021000
00000000
00000000
00030000
,
00010100
00010000
00010001
00010000
00011000
00010000
00010010
00010000
,
00010100
00000000
00010000
00000000
00011000
00000000
00010000
00000000
00021000
00000000
00000000
00030000
00020100
00000000
00000000
00030000
,
00010100
00000000
00010000
00000000
00010001
00000000
00010000
00000000
00020010
00000000
00000000
00030000
00010001
00000000
00010000
00000000
,
00010100
00000000
00010100
00010000
00010001
00010000
00010100
00010000
,
00020010
00000000
00000000
00000000
00000100
00000000
00000000
00000000
00001000
00000000
00000000
00000000
00000001
00000000
00000000
00030000
,
10010100
00000001
10010110
00001000
,
10010101
00000100
10010101
00000010
,
10010011
00000100
10011010
00000100
,
10011001
00000010
10011001
00000000
,
00020220
00000000
00000000
00000000
00000000
00000000
00000000
00000000
00000000
00000000
00000000
00000000
00000000
00000000
00000000
00030330
,
00020001
00000000
00000000
00000000
00000001
00000000
00030000
00020000
00000100
00000000
00000000
00030000
00020010
00000000
00000000
00030000
,
00021000
00000000
00000000
00000000
00000001
00000000
00000000
00030000
00021000
00000000
00000000
00000000
00000100
00000000
00000000
00030000
,
00020001
00000000
00000000
00000000
00000001
00030000
00020000
00000000
00000100
00000000
00000000
00030000
00020001
00000000
00000000
00030000
,
00010010
00010000
00010001
00010000
00010100
00010000
00010001
00010000
,
00020100
00000000
00000000
00000000
00000100
00030000
00020000
00000000
00001000
00000000
00000000
00030000
00020001
00000000
00000000
00030000
,
00021000
00000000
00000000
00000000
00000010
00030000
00020000
00000000
00000010
00030000
00020000
00030000
00020100
00000000
00000000
00030000
,
00020100
00000000
00000000
00000000
00000100
00030000
00020000
00000000
00001000
00000000
00000000
00030000
00020001
00000000
00000000
00030000
,
00020001
00000000
00000000
00000000
00000100
00000000
00000000
00030000
00020001
00000000
00030000
00020000
00000001
00030000
00020000
00030000
,
00020001
00000000
00000000
00000000
00000001
00000000
00000000
00030000
00020010
00000000
00030000
00020000
00000100
00030000
00020000
00030000
,
00020100
00000000
00000000
00000000
00000100
00030000
00020000
00000000
00000001
00000000
00000000
00030000
00020010
00000000
00000000
00030000
,
00021000
00000000
00000000
00000000
00000100
00030000
00020000
00000000
00001000
00000000
00000000
00030000
00020100
00000000
00000000
00030000
,
00010100
00010000
00010001
00010000
00010010
00010000
00010001
00010000
,
00020001
00000000
00030000
00020000
00000001
00030000
00020000
00030000
00021000
00000000
00000000
00000000
00000010
00000000
00000000
00030000
,
00021000
00000000
00030000
00020000
00000100
00030000
00020000
00030000
00020100
00000000
00000000
00000000
00000100
00000000
00000000
00030000
,
00020100
00000000
00000000
00030000
00020001
00000000
00000000
00030000
00200001
00000000
00000000
00300000
02000001
00000000
00000000
03000000
,
20001000
00000000
00000000
00000000
00000010
00000000
00000000
00000000
00000100
00000000
00000000
30000000
20000100
30000000
20000000
30000000
,
20001100
00000000
00000000
00000000
00000000
00000000
00000000
30000000
20001001
00000000
00000000
30000000
20000000
00000000
00000000
30000000
,
20000011
00000000
00000000
00000000
00000000
00000000
00000000
30000000
20000000
00000000
00000000
30000000
20000000
00000000
00000000
30000000
,
20001100
00000000
00000000
00000000
00000000
00000000
00000000
30000000
20000000
00000000
00000000
30000000
20000000
00000000
00000000
30000000
,
20000011
00000000
00000000
00000000
00000000
00000000
00000000
00000000
00001001
00000000
00000000
30000000
20000000
00000000
00000000
30000000
,
20000101
00000000
00000000
00000000
00000000
00000000
00000000
30000000
20001100
00000000
00000000
30000000
20000000
00000000
00000000
30000000
,
20001001
00000000
00000000
00000000
00000000
00000000
00000000
00000000
00000000
00000000
00000000
30000000
20000000
00000000
00000000
30000000
,
20000101
00000000
00000000
00000000
00000000
00000000
00000000
30000000
20000000
00000000
00000000
30000000
20000000
00000000
00000000
30000000
,
20001010
00000000
00000110
00000000
,
00001001
00000000
00000000
00000000
30000000
00000000
00000000
00000000
00200000
00000000
00000000
00300000
02000000
00000000
00000000
03000000
,
02000001
00000000
00000000
00000000
00001000
00000000
00000000
03000000
02000100
00000000
00000000
03000000
02000010
00000000
00000000
03000000
,
02000100
00000000
00000000
00000000
00000001
00000000
00000000
03000000
02000001
00000000
00000000
03000000
02000100
00000000
00000000
03000000
,
02000001
00000000
00000000
00000000
00000001
00000000
00000000
00000000
00000100
00000000
00000000
00000000
00001000
00000000
00000000
03000000
,
02000010
00000000
00000000
00000000
00000001
00000000
00000000
03000000
02001000
00000000
00000000
03000000
02000001
00000000
00000000
03000000
,
02000100
00000000
00000000
00000000
00000100
00000000
00000000
03000000
02000100
00000000
00000000
03000000
02001000
00000000
00000000
03000000
,
02000001
00000000
00000000
00000000
00001000
00000000
00000000
03000000
02000010
00000000
00000000
03000000
02000100
00000000
00000000
03000000
,
02000100
00000100
00001000
00000001
,
03000001
00000000
00000000
00000000
00000100
00000000
00000000
00000000
02001000
00000000
00000000
03000000
02000001
00000000
00000000
03000000
,
20021000
00000000
00000000
00000000
00000001
00000000
00000000
30030000
20020010
00000000
00000000
30030000
20020100
00000000
00000000
30030000
,
20021000
00000000
00000000
00000000
00001000
00000000
00000000
30030000
20020001
00000000
00000000
30030000
20020010
00000000
00000000
30030000
,
20020001
00000000
00000000
00000000
00001000
00000000
00000000
30030000
20020010
00000000
00000000
30030000
20020100
00000000
00000000
30030000
,
20021000
00000000
00000000
00000000
00000001
00000000
00000000
30030000
20020010
00000000
00000000
30030000
20021000
00000000
00000000
30030000
,
20020001
00000000
00000000
00000000
00001000
00000000
00000000
30030000
20020100
00000000
00000000
30030000
00020010
00000000
00000000
00030000
,
00200010
00000000
00000000
00000000
00000100
00000000
00000000
00300000
02000100
00000000
00000000
00000000
00000100
00000000
00000000
03000000
,
20001000
00001000
00000001
00000001
,
00001000
00000000
00000100
00000000
00000000
00000000
00000000
30000000
20020100
00000000
00000000
30030000
20020100
00000000
00000000
30030000
,
20021000
00000000
00000000
00000000
00001000
00000000
00000000
30030000
20020100
00000000
00000000
30030000
20020010
00000000
00000000
30030000
,
20020100
00000000
00000000
00000000
00000001
00000000
00000000
30030000
20020001
00000000
00000000
30030000
20020100
00000000
00000000
30030000
,
20021000
00000000
00000000
00000000
00000001
00000000
00000000
00000000
00000100
00000000
00000000
00000000
00000001
00000000
00000000
30030000
,
20020010
00000000
00000000
00000000
00000001
00000000
00000000
30030000
20020100
00000000
00000000
30030000
20020001
00000000
00000000
30030000
,
20020100
00000000
00000000
00000000
00001000
00000000
00000000
30030000
20020100
00000000
00000000
30030000
20020001
00000000
00000000
30030000
,
20020001
00000000
00000000
00000000
00000010
00000000
00000000
30030000
20021000
00000000
00000000
30030000
20020100
00000000
00000000
30030000
,
20020100
00000100
00001000
00000001
,
30030001
00000000
00000000
00000000
00000100
00000000
00000000
00000000
20020001
00000000
00000000
30030000
20021000
00000000
00000000
30030000
,
20020001
00000000
00000000
00000000
00001000
00000000
00000000
30030000
20020010
00000000
00000000
30030000
20020100
00000000
00000000
30030000
,
20020010
00000000
00000000
00000000
00001000
00000000
00000000
30030000
20020001
00000000
00000000
30030000
20020010
00000000
00000000
30030000
,
20021000
00000000
00000000
00000000
00000100
00000000
00000000
30030000
20020010
00000000
00000000
30030000
20020100
00000000
00000000
30030000
,
20020100
00000000
00000000
00000000
00000001
00000000
00000000
30030000
20020010
00000000
00000000
30030000
20020001
00000000
00000000
30030000
,
00022002
00000000
00000000
00000000
00000000
00000000
00000000
00030000
00020000
00000000
00000000
00030000
00020000
00000000
00000000
00033003
,
00022002
00000000
00000000
00000000
00000000
00000000
00000000
00030000
00200000
00000000
00000000
00000000
00000000
00000000
00000000
00303003
,
02002002
00000000
00000000
00000000
00000000
00000000
00000000
00000000
00000000
00000000
00000000
00000000
00000000
00000000
00000000
03003003
,
20022002
30033003
00000000
00000000
;

//---------------dance-double - Emerald Sword----------------
#NOTES:
     dance-double:
     Emerald Sword:
     Beginner:
     7:
     0.925,1.000,1.000,1.000,0.023,748.000,383.000,443.000,0.000,150.000:
00000000
00000000
00000000
00000000
,
00000000
00000000
00000000
00020000
00000000
00000000
00000000
00030000
,
00020001
00030000
00000010
00000000
,
00000100
00000000
00001000
00000000
,
00020001
00030000
00000000
00000000
00000000
00000000
00000000
00000000
00000001
00000000
00000000
00000000
00000000
00000000
00000000
00000000
,
00000010
00000000
00000000
00000000
00000000
00000000
00000000
00000000
00001000
00000000
00000000
00000000
00020000
00030000
00000000
00000000
,
00020001
00030000
00000000
00000000
00000000
00000000
00000000
00000000
00001000
00000000
00000000
00000000
00000000
00000000
00000000
00000000
,
00001000
00000000
00001000
00000000
,
00020001
00030000
00000000
00000000
00000000
00000000
00000000
00000000
00001000
00000000
00000000
00000000
00000000
00000000
00000000
00000000
,
00000100
00000000
00000000
00000000
00000000
00000000
00000000
00000000
00020001
00030000
00000000
00000000
00021000
00030000
00000000
00000000
,
00021000
00000000
00000000
00000000
00001000
00000000
00000000
00030000
00021000
00000000
00000000
00000000
00001000
00000000
00000000
00030000
,
00021000
00000000
00000000
00000000
00001000
00000000
00000000
00030000
00020010
00000000
00000000
00030000
00020010
00000000
00000000
00030000
,
00020010
00000000
00000000
00000000
00000100
00000000
00000000
00030000
00020100
00000000
00000000
00000000
00000100
00000000
00000000
00030000
,
00020100
00000000
00000000
00000000
00000100
00000000
00000000
00030000
00020100
00000000
00000000
00030000
00021000
00000000
00000000
00030000
,
00021000
00000000
00000000
00000000
00001000
00000000
00000000
00030000
00020100
00000000
00000000
00000000
00000010
00000000
00000000
00030000
,
00020010
00000000
00000000
00000000
00000100
00000000
00000000
00030000
00021000
00000000
00000000
00030000
00021000
00000000
00000000
00030000
,
00020001
00000000
00000000
00000000
00001000
00000000
00000000
00030000
00020010
00000000
00000000
00000000
00000100
00000000
00000000
00030000
,
00020100
00000000
00000000
00000000
00001000
00000000
00000000
00030000
00020100
00000000
00000000
00030000
00021000
00000000
00000000
00030000
,
00000001
00000000
00000000
00000000
00001000
00000000
00000000
00000000
00000002
00000000
00000000
00000000
00000000
00000000
00000000
00000003
,
00001000
00001000
00001000
00000010
,
00001000
00000000
00001000
00000000
00002000
00000000
00000000
00003000
,
00000001
00000010
00000010
00000001
,
00000100
00001000
00000001
00001000
,
00000001
00000001
00000100
00000001
,
00000001
00000001
00000001
00000010
,
00000001
00000001
00000001
00001000
,
00020001
00000000
00000000
00000000
00000001
00030000
00020000
00000000
00000010
00000000
00000000
00030000
00020001
00000000
00000000
00030000
,
00020001
00000000
00000000
00000000
00000001
00030000
00020000
00000000
00000100
00000000
00000000
00030000
00021000
00000000
00000000
00030000
,
00020001
00000000
00000000
00000000
00000100
00030000
00020000
00000000
00000001
00000000
00000000
00030000
00020100
00000000
00000000
00030000
,
00010100
00010001
00010001
00010001
,
00020010
00000000
00000000
00000000
00000001
00030000
00020000
00000000
00001000
00000000
00000000
00030000
00020100
00000000
00000000
00030000
,
00020001
00000000
00000000
00000000
00000100
00030000
00020000
00000000
00001000
00000000
00000000
00030000
00020001
00000000
00000000
00030000
,
00020100
00000000
00000000
00000000
00001000
00030000
00020000
00000000
00000100
00000000
00000000
00030000
00020010
00000000
00000000
00030000
,
00020001
00000000
00000000
00000000
00001000
00000000
00000000
00030000
00021000
00000000
00030000
00020000
00001000
00030000
00020000
00030000
,
00020001
00000000
00000000
00000000
00000010
00000000
00000000
00030000
00021000
00000000
00030000
00020000
00000010
00030000
00020000
00030000
,
00020100
00000000
00000000
00000000
00000001
00030000
00020000
00000000
00000010
00000000
00000000
00030000
00020100
00000000
00000000
00030000
,
00021000
00000000
00000000
00000000
00000001
00030000
00020000
00000000
00000010
00000000
00000000
00030000
00020010
00000000
00000000
00030000
,
00011000
00010010
00010100
00010001
,
00020100
00000000
00030000
00020000
00001000
00030000
00020000
00030000
00020100
00000000
00000000
00000000
00001000
00000000
00000000
00030000
,
00020001
00000000
00030000
00020000
00001000
00030000
00020000
00030000
00020001
00000000
00000000
00000000
00000001
00000000
00000000
00030000
,
00021000
00000000
00000000
00030000
00020001
00000000
00000000
00030000
00021000
00000000
00000000
00030000
00020100
00000000
00000000
00030000
,
20020001
00000000
00000000
00000000
00000010
00000000
00000000
00000000
00001000
00000000
00000000
30030000
00010001
00000000
00000000
00000000
,
00021000
00000000
00000000
00000000
00000000
00000000
00000000
00030000
00020100
00000000
00000000
00030000
00021000
00000000
00000000
00030000
,
00020001
00000000
00000000
00000000
00000000
00000000
00000000
00030000
00020000
00000000
00000000
00030000
00020000
00000000
00000000
00030000
,
00021001
00000000
00000000
00000000
00000000
00000000
00000000
00030000
00020000
00000000
00000000
00030000
00020000
00000000
00000000
00030000
,
00021001
00000000
00000000
00000000
00000000
00000000
00000000
00000000
00000000
00000000
00000000
00030000
00020000
00000000
00000000
00030000
,
00020101
00000000
00000000
00000000
00001000
00000000
00000000
00030000
00020100
00000000
00000000
00030000
00020001
00000000
00000000
00030000
,
00021001
00000000
00000000
00000000
00000000
00000000
00000000
00000000
00000000
00000000
00000000
00030000
00020000
00000000
00000000
00030000
,
00020101
00000000
00000000
00000000
00000000
00000000
00000000
00030000
00021010
00000000
00000000
00030000
00020000
00000000
00000000
00030000
,
00020110
00000000
00000000
00000000
00000000
00000000
00000000
00000000
00001000
00000000
00000000
00000000
00000001
00000000
00000000
00030000
,
00021001
00000000
00030000
00000001
,
00020110
00000000
00030000
00001000
,
00020100
00000010
00030001
00001000
,
00020010
00000000
00031000
00001000
,
00021001
00000000
00031000
00000001
,
00021100
00000100
00031000
00000100
,
00021010
00000010
00030010
00000100
,
00021001
00000001
00031000
00001000
,
00020001
00000000
00000000
00000000
00000001
00030000
00020000
00000000
00000010
00000000
00000000
00030000
00021000
00000000
00000000
00030000
,
00020001
00000000
00000000
00000000
00000001
00030000
00020000
00000000
00000100
00000000
00000000
00030000
00021000
00000000
00000000
00030000
,
00021000
00000000
00000000
00000000
00000100
00030000
00020000
00000000
00000001
00000000
00000000
00030000
00020100
00000000
00000000
00030000
,
00010100
00010001
00011000
00011000
,
00020001
00000000
00000000
00000000
00001000
00030000
00020000
00000000
00000100
00000000
00000000
00030000
00020100
00000000
00000000
00030000
,
00020001
00000000
00000000
00000000
00000100
00030000
00020000
00000000
00000001
00000000
00000000
00000000
00001000
00000000
00000000
00030000
,
00020100
00000000
00000000
00000000
00000100
00030000
00020000
00000000
00000100
00000000
00000000
00030000
00021000
00000000
00000000
00030000
,
00020001
00000000
00000000
00000000
00000100
00000000
00000000
00030000
00020100
00000000
00030000
00020000
00000100
00030000
00020000
00030000
,
00020001
00000000
00000000
00000000
00000010
00000000
00000000
00030000
00020010
00000000
00000000
00000000
00001000
00030000
00020000
00030000
,
00020100
00000000
00000000
00000000
00001000
00030000
00020000
00000000
00001000
00000000
00000000
00030000
00020100
00000000
00000000
00030000
,
00020001
00000000
00000000
00000000
00000001
00030000
00020000
00000000
00000010
00000000
00000000
00030000
00020010
00000000
00000000
00030000
,
00010001
00010010
00010100
00011000
,
00020100
00000000
00030000
00020000
00000100
00030000
00020000
00030000
00020100
00000000
00000000
00000000
00000100
00000000
00000000
00030000
,
00021000
00000000
00030000
00020000
00001000
00030000
00020000
00030000
00020001
00000000
00000000
00000000
00001000
00030000
00020000
00030000
,
00020001
00000000
00000000
00030000
00020001
00000000
00000000
00030000
00020001
00000000
00000000
00030000
00020100
00000000
00000000
00030000
,
20020001
00000000
00000000
00000000
00000010
00000000
00000000
00000000
00001000
00000000
00000000
30030000
00010001
00000000
00000000
00000000
,
00021001
00000000
00000000
00000000
00000000
00000000
00000000
00030000
00021001
00000000
00000000
00030000
00020000
00000000
00000000
00030000
,
00021001
00000000
00000000
00000000
00000000
00000000
00000000
00030000
00020000
00000000
00000000
00030000
00020000
00000000
00000000
00030000
,
00021100
00000000
00000000
00000000
00000000
00000000
00000000
00030000
00020101
00000000
00000000
00030000
00020000
00000000
00000000
00030000
,
00020110
00000000
00000000
00000000
00000000
00000000
00000000
00000000
00001100
00000000
00000000
00030000
00020000
00000000
00000000
00030000
,
00020011
00000000
00000000
00000000
00000000
00000000
00000000
00030000
00021001
00000000
00000000
00030000
00020000
00000000
00000000
00030000
,
00021001
00000000
00000000
00000000
00000000
00000000
00000000
00000000
00000000
00000000
00000000
00030000
00020000
00000000
00000000
00030000
,
00020011
00000000
00000000
00000000
00000000
00000000
00000000
00030000
00021001
00000000
00000000
00030000
00020000
00000000
00000000
00030000
,
00021001
00000000
00001001
00000000
,
00001001
00000000
00000000
00000000
00030000
00000000
00000000
00000000
00022002
00000000
00000000
00033003
00022002
00000000
00000000
00033003
,
00020001
00000000
00000000
00000000
00000001
00000000
00000000
00030000
00020100
00000000
00000000
00030000
00020010
00000000
00000000
00030000
,
00020100
00000000
00000000
00000000
00000001
00000000
00000000
00030000
00020001
00000000
00000000
00030000
00021000
00000000
00000000
00030000
,
00020001
00000000
00000000
00000000
00001000
00000000
00000000
00000000
00000100
00000000
00000000
00000000
00000001
00000000
00000000
00030000
,
00020010
00000000
00000000
00000000
00000001
00000000
00000000
00030000
00020100
00000000
00000000
00030000
00020001
00000000
00000000
00030000
,
00020100
00000000
00000000
00000000
00000100
00000000
00000000
00030000
00020100
00000000
00000000
00030000
00020001
00000000
00000000
00030000
,
00021000
00000000
00000000
00000000
00000010
00000000
00000000
00030000
00021000
00000000
00000000
00030000
00020100
00000000
00000000
00030000
,
00020100
00000100
00001000
00000001
,
00031000
00000000
00000000
00000000
00000100
00000000
00000000
00000000
00020001
00000000
00000000
00030000
00020001
00000000
00000000
00030000
,
00021000
00000000
00000000
00000000
00001000
00000000
00000000
00030000
00020010
00000000
00000000
00030000
00020100
00000000
00000000
00030000
,
00020100
00000000
00000000
00000000
00001000
00000000
00000000
00030000
00020001
00000000
00000000
00030000
00020010
00000000
00000000
00030000
,
00021000
00000000
00000000
00000000
00000100
00000000
00000000
00030000
00020010
00000000
00000000
00030000
00020100
00000000
00000000
00030000
,
00020100
00000000
00000000
00000000
00000001
00000000
00000000
00030000
00020010
00000000
00000000
00030000
00020001
00000000
00000000
00030000
,
00020001
00000000
00000000
00000000
00000001
00000000
00000000
00030000
00020100
00000000
00000000
00030000
00020010
00000000
00000000
00030000
,
00020010
00000000
00000000
00000000
00001000
00000000
00000000
00030000
00021000
00000000
00000000
00000000
00000100
00000000
00000000
00030000
,
00020100
00000001
00000001
00001000
,
00000100
00000000
00000000
00000000
00030010
00000000
00000000
00000000
00020001
00000000
00000000
00000000
00001000
00000000
00000000
00030000
,
20001100
00000000
00000000
00000000
00000100
00000000
00000000
00000000
00000100
00000000
00000000
00000000
00000001
00000000
00000000
30000000
,
20001010
00000000
00000000
00000000
00000001
00000000
00000000
00000000
00000001
00000000
00000000
00000000
00000100
00000000
00000000
30000000
,
20001010
00000010
00000001
00000010
,
00000100
00000000
00000000
00000000
00001000
00000000
00000000
00000000
00000010
00000000
00000000
00000000
00000001
00000000
00000000
30000000
,
20001100
00000000
00000000
00000000
00000100
00000000
00000000
00000000
00000001
00000000
00000000
00000000
00000100
00000000
00000000
30000000
,
20000110
00000000
00000000
00000000
00001000
00000000
00000000
00000000
00000100
00000000
00000000
00000000
00001000
00000000
00000000
30000000
,
20000101
00000100
00000001
00000010
,
00001000
00000000
00000000
00000000
00000001
00000000
00000000
00000000
00000100
00000000
00000000
00000000
00001000
00000000
00000000
30000000
,
20000001
00000000
00000000
00000000
00000001
00000000
00000000
00000000
00000100
00000000
00000000
00000000
00001000
00000000
00000000
30000000
,
20000001
00000000
00000000
00000000
00001000
00000000
00000000
00000000
00000001
00000000
00000000
00000000
00001000
00000000
00000000
30000000
,
20000001
00000001
00001000
00000100
,
00000001
00000000
00000000
00000000
00000100
00000000
00000000
00000000
00001000
00000000
00000000
00000000
00000010
00000000
00000000
30000000
,
20000001
00000000
00000000
00000000
00000010
00000000
00000000
00000000
00000001
00000000
00000000
00000000
00001000
00000000
00000000
30000000
,
20000001
00000000
00000000
00000000
00001000
00000000
00000000
00000000
00000100
00000000
00000000
00000000
00000010
00000000
00000000
30000000
,
20000001
00000001
00001000
00000010
,
00000001
00000000
00000000
00000000
00000010
00000000
00000000
00000000
00001000
00000000
00000000
00000000
00000010
00000000
00000000
30000000
,
00010010
00010001
00010001
00010010
,
00011000
00010010
00011000
00010001
,
00011000
00010001
00010001
00010010
,
00011000
00010100
00010010
00010001
,
00011000
00010001
00010010
00011000
,
00010100
00010010
00010010
00011000
,
00011000
00010010
00010010
00011000
,
00011000
00010100
00011000
00011000
,
00010100
00000000
00000000
00000000
00010010
00000000
00000000
00000000
00021000
00000000
00000000
00030000
00020010
00000000
00000000
00030000
,
00010010
00000000
00000000
00000000
00011000
00000000
00000000
00000000
00020001
00000000
00000000
00000000
00000010
00000000
00000000
00030000
,
00010010
00000000
00000000
00000000
00010100
00000000
00000000
00000000
00020001
00000000
00000000
00030000
00021000
00000000
00000000
00030000
,
00010100
00010001
00011000
00010010
,
00010100
00000000
00000000
00000000
00011000
00000000
00000000
00000000
00021000
00000000
00000000
00030000
00020100
00000000
00000000
00030000
,
00010100
00000000
00000000
00000000
00010001
00000000
00000000
00000000
00020010
00000000
00000000
00030000
00010001
00000000
00000000
00000000
,
00010100
00010100
00010001
00010100
,
00020010
00000000
00000000
00000000
00000100
00000000
00000000
00000000
00001000
00000000
00000000
00000000
00000001
00000000
00000000
00030000
,
10010100
00000001
10010110
00001000
,
10010101
00000100
10010101
00000010
,
10010011
00000100
10011010
00000100
,
10011001
00000010
10011001
00000000
,
00020220
00000000
00000000
00000000
00000000
00000000
00000000
00000000
00000000
00000000
00000000
00000000
00000000
00000000
00000000
00030330
,
00020001
00000000
00000000
00000000
00000001
00000000
00030000
00020000
00000100
00000000
00000000
00030000
00020010
00000000
00000000
00030000
,
00021000
00000000
00000000
00000000
00000001
00000000
00000000
00030000
00021000
00000000
00000000
00000000
00000100
00000000
00000000
00030000
,
00020001
00000000
00000000
00000000
00000001
00030000
00020000
00000000
00000100
00000000
00000000
00030000
00020001
00000000
00000000
00030000
,
00010010
00010001
00010100
00010001
,
00020100
00000000
00000000
00000000
00000100
00030000
00020000
00000000
00001000
00000000
00000000
00030000
00020001
00000000
00000000
00030000
,
00021000
00000000
00000000
00000000
00000010
00030000
00020000
00000000
00000010
00030000
00020000
00030000
00020100
00000000
00000000
00030000
,
00020100
00000000
00000000
00000000
00000100
00030000
00020000
00000000
00001000
00000000
00000000
00030000
00020001
00000000
00000000
00030000
,
00020001
00000000
00000000
00000000
00000100
00000000
00000000
00030000
00020001
00000000
00030000
00020000
00000001
00030000
00020000
00030000
,
00020001
00000000
00000000
00000000
00000001
00000000
00000000
00030000
00020010
00000000
00030000
00020000
00000100
00030000
00020000
00030000
,
00020100
00000000
00000000
00000000
00000100
00030000
00020000
00000000
00000001
00000000
00000000
00030000
00020010
00000000
00000000
00030000
,
00021000
00000000
00000000
00000000
00000100
00030000
00020000
00000000
00001000
00000000
00000000
00030000
00020100
00000000
00000000
00030000
,
00010100
00010001
00010010
00010001
,
00020001
00000000
00030000
00020000
00000001
00030000
00020000
00030000
00021000
00000000
00000000
00000000
00000010
00000000
00000000
00030000
,
00021000
00000000
00030000
00020000
00000100
00030000
00020000
00030000
00020100
00000000
00000000
00000000
00000100
00000000
00000000
00030000
,
00020100
00000000
00000000
00030000
00020001
00000000
00000000
00030000
00020001
00000000
00000000
00030000
00020001
00000000
00000000
00030000
,
00021000
00000000
00000000
00000000
00000010
00000000
00000000
00000000
00000100
00000000
00000000
00030000
00020100
00030000
00020000
00030000
,
00021100
00000000
00000000
00000000
00000000
00000000
00000000
00030000
00021001
00000000
00000000
00030000
00020000
00000000
00000000
00030000
,
00020011
00000000
00000000
00000000
00000000
00000000
00000000
00030000
00020000
00000000
00000000
00030000
00020000
00000000
00000000
00030000
,
00021100
00000000
00000000
00000000
00000000
00000000
00000000
00030000
00020000
00000000
00000000
00030000
00020000
00000000
00000000
00030000
,
00020011
00000000
00000000
00000000
00000000
00000000
00000000
00000000
00001001
00000000
00000000
00030000
00020000
00000000
00000000
00030000
,
00020101
00000000
00000000
00000000
00000000
00000000
00000000
00030000
00021100
00000000
00000000
00030000
00020000
00000000
00000000
00030000
,
00021001
00000000
00000000
00000000
00000000
00000000
00000000
00000000
00000000
00000000
00000000
00030000
00020000
00000000
00000000
00030000
,
00020101
00000000
00000000
00000000
00000000
00000000
00000000
00030000
00020000
00000000
00000000
00030000
00020000
00000000
00000000
00030000
,
00021010
00000000
00000110
00000000
,
00001001
00000000
00000000
00000000
00030000
00000000
00000000
00000000
00020000
00000000
00000000
00030000
00020000
00000000
00000000
00030000
,
00020001
00000000
00000000
00000000
00001000
00000000
00000000
00030000
00020100
00000000
00000000
00030000
00020010
00000000
00000000
00030000
,
00020100
00000000
00000000
00000000
00000001
00000000
00000000
00030000
00020001
00000000
00000000
00030000
00020100
00000000
00000000
00030000
,
00020001
00000000
00000000
00000000
00000001
00000000
00000000
00000000
00000100
00000000
00000000
00000000
00001000
00000000
00000000
00030000
,
00020010
00000000
00000000
00000000
00000001
00000000
00000000
00030000
00021000
00000000
00000000
00030000
00020001
00000000
00000000
00030000
,
00020100
00000000
00000000
00000000
00000100
00000000
00000000
00030000
00020100
00000000
00000000
00030000
00021000
00000000
00000000
00030000
,
00020001
00000000
00000000
00000000
00001000
00000000
00000000
00030000
00020010
00000000
00000000
00030000
00020100
00000000
00000000
00030000
,
00020100
00000100
00001000
00000001
,
00030001
00000000
00000000
00000000
00000100
00000000
00000000
00000000
00021000
00000000
00000000
00030000
00020001
00000000
00000000
00030000
,
20021000
00000000
00000000
00000000
00000001
00000000
00000000
30030000
20020010
00000000
00000000
30030000
20020100
00000000
00000000
30030000
,
20021000
00000000
00000000
00000000
00001000
00000000
00000000
30030000
20020001
00000000
00000000
30030000
20020010
00000000
00000000
30030000
,
20020001
00000000
00000000
00000000
00001000
00000000
00000000
30030000
20020010
00000000
00000000
30030000
20020100
00000000
00000000
30030000
,
20021000
00000000
00000000
00000000
00000001
00000000
00000000
30030000
20020010
00000000
00000000
30030000
20021000
00000000
00000000
30030000
,
20020001
00000000
00000000
00000000
00001000
00000000
00000000
30030000
20020100
00000000
00000000
30030000
20020010
00000000
00000000
30030000
,
20020010
00000000
00000000
00000000
00000100
00000000
00000000
30030000
20020100
00000000
00000000
00000000
00000100
00000000
00000000
30030000
,
20021000
00001000
00000001
00000001
,
00001000
00000000
30030100
00000000
00000000
00000000
00000000
00000000
20020100
00000000
00000000
30030000
20020100
00000000
00000000
30030000
,
20021000
00000000
00000000
00000000
00001000
00000000
00000000
30030000
20020100
00000000
00000000
30030000
20020010
00000000
00000000
30030000
,
20020100
00000000
00000000
00000000
00000001
00000000
00000000
30030000
20020001
00000000
00000000
30030000
20020100
00000000
00000000
30030000
,
20021000
00000000
00000000
00000000
00000001
00000000
00000000
00000000
00000100
00000000
00000000
00000000
00000001
00000000
00000000
30030000
,
20020010
00000000
00000000
00000000
00000001
00000000
00000000
30030000
20020100
00000000
00000000
30030000
20020001
00000000
00000000
30030000
,
20020100
00000000
00000000
00000000
00001000
00000000
00000000
30030000
20020100
00000000
00000000
30030000
20020001
00000000
00000000
30030000
,
20020001
00000000
00000000
00000000
00000010
00000000
00000000
30030000
20021000
00000000
00000000
30030000
20020100
00000000
00000000
30030000
,
20020100
00000100
00001000
00000001
,
30030001
00000000
00000000
00000000
00000100
00000000
00000000
00000000
20020001
00000000
00000000
30030000
20021000
00000000
00000000
30030000
,
20020001
00000000
00000000
00000000
00001000
00000000
00000000
30030000
20020010
00000000
00000000
30030000
20020100
00000000
00000000
30030000
,
20020010
00000000
00000000
00000000
00001000
00000000
00000000
30030000
20020001
00000000
00000000
30030000
20020010
00000000
00000000
30030000
,
20021000
00000000
00000000
00000000
00000100
00000000
00000000
30030000
20020010
00000000
00000000
30030000
20020100
00000000
00000000
30030000
,
20020100
00000000
00000000
00000000
00000001
00000000
00000000
30030000
20020010
00000000
00000000
30030000
20020001
00000000
00000000
30030000
,
00022002
00000000
00000000
00000000
00000000
00000000
00000000
00030000
00020000
00000000
00000000
00030000
00020000
00000000
00000000
00033003
,
00022002
00000000
00000000
00000000
00000000
00000000
00000000
00030000
00020000
00000000
00000000
00000000
00000000
00000000
00000000
00033003
,
00022002
00000000
00000000
00000000
00000000
00000000
00000000
00000000
00000000
00000000
00000000
00000000
00000000
00000000
00000000
00033003
,
20022002
30033003
00000000
00000000
;
