#TITLE:Flan-chan's Music Class;
#SUBTITLE:(LV.4 crazy nekomii remix);
#ARTIST:Nekomirin feat. Miyu;
#TITLETRANSLIT:;
#SUBTITLETRANSLIT:;
#ARTISTTRANSLIT:;
#CREDIT:;
#BANNER:flan-bn.png;
#BACKGROUND:flan-bg.png;
#LYRICSPATH:;
#CDTITLE:!mmexc-cd.png;
#MUSIC:flan.ogg;
#OFFSET:-0.010;
#SAMPLESTART:88.000;
#SAMPLELENGTH:12.000;
#SELECTABLE:YES;
#BPMS:0.000=180.000,63.000=360.000,64.000=180.000,128.000=90.000,132.000=360.000,134.000=90.000,134.500=360.000,136.500=90.000,137.000=360.000,139.000=90.000,139.500=360.000,141.500=90.000,142.000=360.000,144.000=90.000,144.500=360.000,146.500=90.000,147.000=360.000,149.000=90.000,149.500=360.000,151.500=90.000,152.000=360.000,154.000=90.000,154.500=360.000,156.500=90.000,157.000=360.000,159.000=90.000,159.500=360.000,161.500=90.000,162.000=360.000,164.000=90.000,164.500=360.000,166.500=90.000,167.000=360.000,169.000=90.000,169.500=360.000,171.500=90.000,172.000=360.000,174.000=90.000,174.500=360.000,176.500=90.000,177.000=360.000,179.000=90.000,179.500=360.000,181.500=90.000,182.000=360.000,184.000=90.000,184.500=360.000,186.500=90.000,187.000=360.000,189.000=90.000,189.500=360.000,191.500=90.000,192.000=360.000,194.000=90.000,194.500=360.000,196.500=90.000,197.000=360.000,199.000=90.000,199.500=360.000,201.500=90.000,202.000=360.000,204.000=90.000,204.500=360.000,206.500=90.000,207.000=1440.000,211.000=45.000,219.000=90.000,235.000=180.000,263.000=1440.000,267.000=180.000,295.000=720.000,311.000=180.000,318.000=360.000,319.000=180.000,323.000=360.000,327.000=180.000,334.000=360.000,335.000=180.000,339.000=360.000,341.000=180.000;
#STOPS:63.000=0.167
,207.000=0.292
,208.000=0.292
,209.000=0.292
,210.000=0.292
,263.000=0.292
,264.000=0.292
,265.000=0.292
,266.000=0.292
,318.000=0.083
,318.500=0.083
,323.000=0.042
,323.250=0.042
,323.500=0.083
,324.000=0.167
,325.000=0.167
,326.000=0.083
,326.500=0.083
,334.000=0.083
,334.500=0.083
,339.000=1.000
,373.000=2.667
;
#BGCHANGES:63.000=flan-bg.png=1.000=0=0=1,
132.000=207_JB_HD.mpg=1.000=0=0=1,
152.000=207_JB_HD.mpg=1.000=0=0=1,
210.000=flan-bg.png=1.000=0=0=1,
211.000=1135_JumpBack.mpg=1.000=0=0=1,
373.000=flan-bg.png=1.000=0=0=1,
99999=-nosongbg-=1.000=0=0=0 // don't automatically add -songbackground-
;
// cache tags:
#FIRSTBEAT:16.000;
#LASTBEAT:373.021;
#SONGFILENAME:Songs/Index Tournament 1/[Letty] Flan-chan's Music Class (remix)/file.sm;
#HASMUSIC:1;
#HASBANNER:1;
#MUSICLENGTH:133.333;
// end cache tags

//---------------dance-single - L. Whiterock----------------
#NOTES:
     dance-single:
     L. Whiterock:
     Challenge:
     14:
     1.000,1.000,1.000,0.023,1.000,796.000,152.000,3.000,257.000,0.000:
0000
0000
0000
0000
,
0000
0000
0000
0000
,
0000
0000
0000
0000
,
0000
0000
0000
0000
,
1MM1
0001
M1M1
0100
M11M
0010
1M1M
1000
,
11MM
0000
0100
0000
M11M
0000
0010
0001
1000
0000
0000
0101
0000
0000
1010
0000
,
1MM1
0001
M1M1
0100
M11M
0010
1M1M
1000
,
0000
1001
0000
0000
0000
0000
0000
0001
0000
0000
0000
0000
0100
0000
0000
0000
0000
0000
0000
0010
0000
0000
0000
0000
0000
1000
0000
0001
0000
0000
0000
0000
,
1000
010M
1000
0000
1000
00M1
1000
0000
1000
0M10
1000
0000
1000
010M
1000
0000
,
0001
01M0
0001
0000
0001
10M0
0001
0100
M010
0000
0000
0101
0000
0000
1MM1
0000
,
0001
M010
0001
0000
0001
1M00
0001
0000
0001
01M0
0001
0000
0001
M010
0001
0000
,
1000
001M
1000
0010
1000
0M01
1000
0010
010M
0000
0000
1010
0000
0000
1MM1
0000
,
0001
0100
0010
0000
1000
0001
0100
0000
0010
1000
0100
0000
0010
0001
1000
0000
,
0001
0100
0010
0000
1000
0100
0010
0100
1000
0000
0000
1100
0000
0000
1001
0000
,
1000
0010
0100
0000
0001
1000
0010
0000
0100
0001
0010
0000
0100
1000
0001
0000
,
1000
0000
0010
0000
0000
0000
0100
0000
0001
0000
0010
0000
0100
0000
0010
0000
0001
0000
1000
0000
0001
0000
0100
0000
M04M
M00M
M00M
M00M
003M
000M
000M
000M
,
1M1M
1000
11MM
0100
M11M
0010
MM11
0001
,
1MM1
0000
1000
0000
1MM1
0000
0001
0100
0010
0000
0010
1000
0000
1000
0001
0000
,
M1M1
0100
M11M
0010
1M1M
1000
1MM1
0001
,
1MM1
0000
1100
0000
1MM1
0000
1000
0010
0100
0000
0100
0001
0000
0001
0010
0000
,
MM11
0010
M11M
0010
MM11
0001
1MM1
1000
,
1M1M
0000
0010
0000
M11M
0000
0010
1000
0100
0000
0010
0001
0000
0001
0100
0000
,
M1M1
0001
1MM1
1000
1M1M
0010
M11M
0100
,
0000
0000
0000
0000
0000
0000
0101
0000
0000
0000
0000
0000
0000
0000
0000
0000
0000
0000
0000
0000
0000
0000
0000
0000
0000
0000
0000
0000
0000
0000
0000
0000
0000
0000
0000
0000
0000
0000
0000
0000
0000
0000
0000
0000
0000
0000
0000
0000
0001
0000
0000
0000
0000
0000
0000
0000
0000
0000
0000
0000
0000
0000
0000
0000
0000
0000
0000
0000
0000
0000
0000
0000
1000
0000
0000
0000
0000
0000
0000
0000
0000
0000
0000
0000
0000
0000
0000
0000
0000
0000
0000
0000
0000
0000
0000
0000
0000
0000
0000
0000
0000
0000
0000
0000
0000
0000
0000
0000
0000
0000
0000
0000
0000
0000
0000
0000
0000
0000
0000
0000
0000
0000
0000
0000
0000
0000
1001
0000
0000
0000
0000
0000
0000
0000
0000
0000
0000
0000
0000
0000
0000
0000
0000
0000
0000
0000
0000
0000
0000
0000
0000
0000
0000
0000
0000
0000
0000
0000
0000
0000
M00M
0000
0000
0000
0000
0000
0000
0000
0000
0000
0000
0000
0000
0000
0000
0000
0000
0000
0000
0000
0000
0000
0000
0000
0000
0000
0000
0000
0000
0000
0000
0000
,
1000
0001
0100
0000
0010
1000
0100
0000
1000
0001
0010
0000
0001
0100
0010
0000
,
1000
0100
1000
0000
0001
0010
0001
1000
0010
0000
0010
1000
0000
1000
0001
0000
,
0100
0001
1000
0000
0010
0100
0001
0000
0010
0100
1000
0000
0001
0100
0001
0000
,
1000
0100
0010
0100
1000
0000
0001
0100
0010
0000
0010
0001
0000
0001
0010
0000
,
1000
0101
0000
1001
0000
1100
0000
0011
,
0000
0000
0110
0000
0000
0000
1000
0100
0001
0000
0100
0010
0000
0100
1000
0000
,
4001
0000
0010
3000
0140
0000
1000
0030
,
11MM
M11M
MM11
1MM1
,
1100
0000
0000
0000
0011
0000
0000
0000
0110
0000
0000
0000
1000
0100
0010
0001
1000
0100
0010
0001
0100
0001
0010
0100
1000
0000
0000
0000
0101
0000
0000
0000
,
1001
0000
M00M
0000
0000
1010
0000
1010
,
0000
M0M0
0101
0000
0M0M
0000
0000
1000
,
0100
0010
0000
1001
0011
0000
00MM
0000
,
0000
1001
0000
1001
0000
M00M
1010
0000
,
M0M0
0000
0000
0000
0000
0000
0000
0000
0000
0000
0000
0000
0001
0000
0000
0000
0010
0000
0000
0000
0100
0000
0000
0000
0000
0000
0000
0000
1000
0000
0001
0010
,
0100
0000
0M00
0000
0000
1010
0000
0101
,
0000
0M0M
1001
0000
M00M
0000
0000
0001
,
1000
0010
0000
0101
1001
0000
M00M
0000
,
0000
1100
0000
MM11
0000
00MM
1001
0000
,
M00M
0000
0000
0000
0000
0000
0000
0000
0000
0000
0000
0000
0001
0000
0000
0000
1000
0000
0000
0000
0100
0000
0000
0000
0000
0000
0000
0000
1000
0000
0010
0100
,
0001
0000
000M
0000
0000
1001
0000
M11M
,
0000
0MM0
1100
0000
MM00
0000
0000
1000
,
0100
0001
0000
1100
0101
0000
0M0M
0000
,
0000
0110
0000
1MM1
0000
M00M
1100
0000
,
MM00
0000
0000
0000
0000
0000
0000
0000
0000
0000
0000
0000
0100
0000
0000
0000
0001
0000
0000
0000
0010
0000
0000
0000
0000
0000
0000
0000
0011
0000
0001
1000
,
0100
0000
0M00
0000
0000
1001
0000
M1M1
,
0000
0M0M
0110
0000
0MM0
0000
0000
1000
,
0001
0100
0000
1010
1001
0000
M00M
0000
,
0000
1100
0000
MM11
0000
00MM
1001
0000
,
1001
0000
0000
0000
0000
0000
0000
0000
0000
0000
0000
0000
4004
0000
0000
0000
0000
0000
3003
0000
0000
0000
0000
0000
MMMM
0000
M00M
0000
M00M
0000
M00M
0000
0000
0000
0000
0000
1001
0000
0000
0100
0000
0000
0011
0000
0000
1000
0000
0000
,
0110
0000
0000
0000
0001
0000
1000
0000
0100
0000
0000
0000
1010
0000
0100
0000
0001
0000
0000
0000
1000
0000
0100
0000
0020
0000
0000
0000
0031
0000
0000
0000
0100
0000
0100
0001
0100
0000
0000
0000
0101
0000
0000
0001
1000
0000
1000
0100
0010
0000
0000
0000
0101
0000
0000
0000
0010
0000
0000
0000
1100
0000
0000
0000
,
0001
0000
0000
0000
1000
0000
0001
0000
0100
0000
0000
0000
1001
0000
1000
0000
0010
0000
1000
0000
0100
0000
0010
0000
0100
0000
1000
0001
0010
0000
0001
0000
0440
0000
0000
0000
0000
0000
M00M
0000
M00M
0000
M00M
0000
0330
0000
0000
0000
0110
0000
0000
0000
0000
0000
0000
0000
1000
0000
0000
0000
0000
0000
0000
0000
,
0101
0000
0010
0000
1001
0000
0100
0001
1000
0001
0010
0010
0011
0001
0100
0010
,
1000
0000
0100
0010
0100
0000
1000
0000
0010
0000
0100
0001
0010
0000
0001
0000
0011
0000
0000
1000
0001
0000
0001
0100
0010
0000
0000
0000
1100
0000
0000
0000
,
0001
0000
0110
0000
1000
0000
0001
0100
0010
0000
1001
1001
1001
0100
0010
1000
,
0001
0000
0010
0001
1000
0000
0100
0000
0041
0000
M000
0000
0M00
0000
000M
0030
0100
0010
0001
1000
0100
0010
0001
1000
0010
0000
0000
0000
0100
0000
0001
0000
,
1000
0000
0010
0000
0100
0000
0001
1000
0010
0000
1000
0000
0001
0000
0010
0001
,
0100
0000
0001
0000
1000
0000
0100
0010
0001
0000
1001
0000
0001
0000
0100
0001
,
1000
0000
0010
0000
0100
0000
0001
1000
0100
0000
1000
0000
0010
0000
0100
0000
,
0001
0010
0000
0010
0002
0000
0000
1003
0100
0000
0010
0001
0100
0000
0001
1000
,
0010
0000
0100
0000
0001
0000
0100
1000
0100
0000
0001
0000
0010
0000
0100
1000
,
0010
0000
0001
0000
0010
0000
1000
0100
0010
0000
0001
0000
0100
0000
0001
0010
,
0100
0000
1000
0000
0010
0000
0100
0001
1000
0000
0010
0000
4004
0000
0000
0000
,
0000
0000
0000
0000
0000
0000
0000
3003
M11M
0000
0000
0000
0010
0001
1000
0010
,
0100
0010
1000
0001
0100
0001
0010
0100
0010
0001
1000
0100
1000
0100
1000
0001
,
0100
0001
0100
0001
0010
0001
0100
0001
1000
0100
0010
0001
0100
0010
1000
0001
,
1000
0001
1000
0001
0100
0010
0100
0010
1000
0001
0100
0001
1000
0100
1000
0010
,
1000
0000
0000
0000
0000
0000
0000
0000
0000
0000
0000
0000
0001
0000
0000
0000
0000
0000
0000
0000
0000
0000
0000
0000
0100
0000
0000
0000
0000
0000
0000
0000
0000
0000
0000
0000
0001
0000
0000
0000
0000
0000
0000
0000
0000
0000
0000
0000
0020
0000
0000
0000
0000
0000
0000
0000
0000
0000
0000
0000
0000
0000
0000
0000
0000
0000
0000
0000
0000
0000
0000
0000
0000
0000
0000
0000
0000
0000
0000
0000
0000
0000
0000
0000
0031
0000
0000
0000
0000
0000
0000
0000
0000
0000
0000
0000
0100
00M0
0000
0000
0000
0000
0000
0000
0000
0000
0000
0000
0000
0000
0000
0000
0000
0000
0000
0000
0000
0000
0000
0000
0001
0000
0000
0000
0000
0000
0000
0000
0000
0000
0000
0000
0010
0000
0000
0000
0000
0000
0000
0000
0000
0000
0000
0000
0001
0000
0000
0000
0000
0000
0000
0000
0000
0000
0000
0000
1000
0000
0000
0000
0000
0000
0000
0000
0000
0000
0000
0000
0010
0000
0000
0000
0000
0000
0000
0000
0000
0000
0000
0000
0100
0000
0000
0000
0000
0000
0000
0000
0000
0000
0000
0000
,
0010
0100
0001
1000
0001
0010
0100
1000
0100
0001
0100
1000
0100
1000
0001
0010
,
0001
1000
0001
0010
0100
0010
0001
1000
0010
0100
0001
1000
0010
1000
0001
1000
,
0100
1000
0001
0100
1000
0100
0010
1000
0001
0100
0001
0000
0100
0000
0000
0000
,
M010
010M
M010
010M
,
M010
0000
010M
0000
M010
0000
040M
M040
,
000M
M000
000M
M000
000M
M000
000M
M000
,
000M
M000
000M
M000
033M
0000
11MM
0100
,
M11M
0010
MM11
0001
1MM1
1000
1M1M
0010
,
M11M
0100
M1M1
0001
1MM1
M11M
1MM1
0001
,
M1M1
0000
0100
0000
M11M
0000
0010
0000
1M1M
0000
1000
0000
10MM
0100
0010
0000
,
0101
0M0M
1001
M00M
1100
1010
0101
0100
,
M11M
0010
1M1M
1000
1MM1
0001
1MM1
1000
,
11MM
0100
M11M
0010
MM11
M11M
11MM
1000
,
1100
0001
0101
1000
1010
0001
0044
0033
,
00MM
0000
0000
0000
0001
1000
0001
1000
0100
1000
0010
0100
0001
1000
0001
0100
,
0001
1000
0100
1000
0010
0100
0001
0010
0001
0100
0001
1000
0001
1000
0100
0010
,
0001
0000
0011
0000
0010
0001
0100
0001
1000
0001
0100
0010
0100
0010
1000
0100
,
1000
0100
1000
0001
0010
0000
0001
0100
0010
0000
0MM0
0000
1010
0000
0000
1000
,
0100
0000
0001
0100
1000
0001
0100
0001
0010
0100
1000
0100
0010
0001
0100
0001
,
1000
0001
0100
0010
0100
0001
1000
0010
1000
0100
1000
0001
0010
0001
0100
0010
,
0100
0000
1100
0000
0100
0001
0010
0001
1000
0100
0010
0001
1000
0010
0100
0010
,
1000
0001
0010
0100
0010
0001
0000
0001
1000
0100
0010
0001
0100
0000
0001
1000
,
0110
0000
0000
0000
0000
0000
0000
0000
0000
0000
0000
0000
0000
0000
0000
0000
0000
0000
0000
0000
0000
0000
0000
0000
M01M
0000
0000
0000
0000
0000
0000
0000
0000
0000
0000
0000
0100
0000
0000
0000
0000
0000
0000
0000
0000
0000
0000
0000
4004
3003
0000
0000
0000
0000
0000
0000
0000
0000
0000
0000
0000
0000
0000
0000
0000
0000
0000
0000
0000
0000
0000
0000
0000
0000
0000
0000
0000
0000
0000
0000
0000
0000
0000
0000
0000
0000
0000
0000
0000
0000
0000
0000
0000
0000
0000
0000
0000
0000
0000
0000
0000
0000
0000
0000
0000
0000
0000
0000
0000
0000
0000
0000
0000
0000
0000
0000
0000
0000
0000
0000
0000
0000
0000
0000
0000
0000
0000
0000
0000
0000
0000
0000
0000
0000
0000
0000
0000
0000
0000
0000
0000
0000
0000
0000
0000
0000
0000
0000
0000
0000
0000
0000
0000
0000
0000
0000
0000
0000
0000
0000
0000
0000
0000
0000
0000
0000
0000
0000
0000
0000
0000
0000
0000
0000
0000
0000
0000
0000
0000
0000
0000
0000
0000
0000
0000
0000
0000
0000
0000
0000
0000
0000
;
