#TITLE:Swordsmanguy Boss 2;
#SUBTITLE:;
#ARTIST:2MB, Taka, Naoki, Patrick Victorio, Paula Terry;
#TITLETRANSLIT:;
#SUBTITLETRANSLIT:;
#ARTISTTRANSLIT:;
#CREDIT:;
#BANNER:Swordsmanguy boss 2-banner.PNG;
#BACKGROUND:1-bg.png;
#LYRICSPATH:;
#CDTITLE:Guy Season 3.PNG;
#MUSIC:Swordsmanguy Boss 2.ogg;
#OFFSET:-0.650;
#SAMPLESTART:170.110;
#SAMPLELENGTH:30.000;
#SELECTABLE:YES;
#BPMS:0.000=160.000,148.000=148.000,258.000=134.000,324.000=155.000,459.000=152.000;
#STOPS:;
#BGCHANGES:12.000=tripmachineluvmix-bg.png=1.000=1=0=1,
20.000=Sun.avi=1.000=1=0=1,
36.000=Heart1.avi=1.000=0=0=1,
52.000=Hearts.avi=1.000=0=0=1,
84.000=Heart1.avi=1.000=0=0=1,
100.000=Rising Stars.avi=1.000=0=0=1,
132.000=Stars.avi=1.000=0=0=1,
148.000=kakumei-bg.png=1.000=1=0=1,
152.000=Spinning!.avi=1.000=1=0=1,
164.000=Hearts.avi=1.000=0=0=1,
180.000=Star2.avi=1.000=0=0=1,
197.000=Sun.avi=1.000=0=0=1,
212.000=Geometry1.avi=1.000=0=0=1,
228.000=Rising Stars.avi=1.000=0=0=1,
243.500=Stars.avi=1.000=0=0=1,
258.000=LA COPA DE LA VIDA-bg.png=1.000=1=0=1,
264.000=Heart1.avi=1.000=1=0=1,
290.500=Sun.avi=1.000=0=0=1,
306.500=Geometry1.avi=1.000=0=0=1,
324.000=drivin-bg.png=1.000=1=0=1,
332.000=Highway1.avi=1.000=1=0=1,
352.000=Hearts.avi=0.000=0=0=1,
354.000=Rising Stars.avi=0.000=0=0=1,
354.500=Stars.avi=0.000=0=0=1,
356.000=Spinning!.avi=1.000=0=0=1,
395.000=Geometry1.avi=1.000=0=0=1,
411.500=Highway1.avi=1.000=0=0=1,
427.000=text5.avi=1.000=0=0=1,
443.000=Light10.avi=1.000=0=0=1,
459.000=Hyper Eurobeat.png=1.000=1=0=1,
465.500=Hearts.avi=1.000=1=0=1,
477.500=Geometry1.avi=1.000=0=0=1,
481.500=Heart1.avi=1.000=0=0=1,
485.500=Hearts.avi=1.000=0=0=1,
489.500=Highway1.avi=1.000=0=0=1,
493.500=Light10.avi=1.000=0=0=1,
497.500=Rising Stars.avi=1.000=0=0=1,
501.500=text5.avi=1.000=0=0=1,
510.000=Sun.avi=1.000=0=0=1,
541.500=Spinning!.avi=1.000=0=0=1,
557.500=Star2.avi=1.000=0=0=1,
565.500=text5.avi=1.000=0=0=1,
589.500=tripmachineluvmix-bg.png=1.000=0=0=1,
591.500=kakumei-bg.png=1.000=0=0=1,
593.500=LA COPA DE LA VIDA-bg.png=1.000=0=0=1,
595.500=drivin-bg.png=1.000=0=0=1,
597.500=Hyper Eurobeat.png=1.000=0=0=1,
602.000=1-bg.png=1.000=1=0=1,
99999=-nosongbg-=1.000=0=0=0 // don't automatically add -songbackground-
;
// cache tags:
#FIRSTBEAT:4.000;
#LASTBEAT:606.500;
#SONGFILENAME:Songs/toune 2/Swordsmanguy boss 2/Swordsmanguy Boss 2.sm;
#HASMUSIC:1;
#HASBANNER:1;
#MUSICLENGTH:243.868;
// end cache tags

//---------------dance-single - ----------------
#NOTES:
     dance-single:
     :
     Hard:
     8:
     0.585,0.560,0.508,0.098,0.031,850.000,124.000,24.000,0.000,1.000:
0000
0000
0000
0000
,
1001
0000
0000
0000
,
1001
0000
0000
0000
,
1001
0000
0000
0000
,
1001
0000
0000
0000
,
1001
0000
0010
1000
0010
0000
1000
0100
,
0000
0010
0001
0000
0010
0100
0010
1000
,
0100
0000
0010
0100
1000
0000
0010
0100
,
0000
0010
1000
0000
0100
0010
0001
0010
,
0100
0000
0010
0001
0100
0000
0010
0100
,
0000
1000
0100
0000
0001
0010
0100
1000
,
0100
0000
0010
0100
1000
0000
0010
0100
,
0000
0001
0010
0000
0100
1000
0010
0100
,
0001
0110
0000
0011
0000
1010
0000
0101
,
0000
1100
0000
1001
0000
0110
0000
1100
,
0000
0011
0000
0110
0000
1100
0000
1010
,
0000
1001
0000
1010
0000
1100
0000
0110
,
0000
0101
0000
1010
0000
1100
0000
0110
,
0000
0011
0000
0110
0000
1100
0000
1100
,
0000
1100
0000
0011
0000
0110
0000
1100
,
0000
0110
0000
0011
0000
0110
0000
0000
,
1000
0000
0100
0010
0001
0000
0010
0100
,
0000
0100
0010
0000
1000
0100
0010
0001
,
0100
0000
1000
0100
1000
0000
0010
0100
,
0000
0001
0010
0000
1000
0100
0010
0001
,
0100
1010
0000
0110
0000
1100
0000
0011
,
0000
0101
0000
1010
0000
1100
0000
0110
,
0000
1100
0000
0011
0000
0110
0000
1100
,
0000
0011
0000
0110
0000
1100
0000
0110
,
0000
1100
0000
0011
0000
0101
0000
1010
,
0000
1100
0000
0110
0000
1100
0000
0011
,
0000
0110
0000
1100
0000
0101
0000
1010
,
0000
1100
0000
0110
0000
0011
0000
1100
,
0000
0010
0100
0010
0100
0010
1000
0100
,
1000
0100
1000
0100
1000
0100
0010
0100
,
0010
0100
0010
0100
0001
0010
0001
0010
,
0001
0010
0001
0100
0010
0100
0010
0100
,
2000
0000
0000
0000
0000
0000
0000
0000
0000
0000
0000
0000
0000
0000
0000
3000
0000
0000
0100
0000
0000
0000
0001
0000
,
0020
0000
0000
0000
0000
0000
0000
0000
0000
0000
0000
0000
0000
0000
0000
0030
0000
0000
1000
0000
0000
0000
0010
0000
,
0200
0000
0000
0000
0000
0000
0000
0300
0000
0001
0000
0010
,
0200
0000
0000
0000
0000
0000
0000
0000
0000
0000
0000
0000
0000
0000
0000
0300
0000
0000
1000
0000
0000
0000
0100
0000
,
0020
0000
0000
0000
0000
0000
0000
0000
0000
0000
0000
0000
0000
0000
0000
0030
0000
0000
0100
0000
0000
0000
0001
0000
,
0010
0000
0000
0000
0000
0000
0200
0000
0000
0000
0000
0000
0000
0000
0000
0300
0000
0000
1000
0000
0000
0000
0100
0000
,
0010
0002
0000
0000
,
0000
0003
0000
0000
,
1000
0000
0000
0100
0010
0000
1000
0000
,
0100
0000
0001
0000
,
0010
0000
0000
0100
1000
0000
0010
0000
,
0100
0000
0000
0000
0000
0000
0000
0000
0000
1000
0000
0100
,
0010
0000
0001
0010
0100
1000
0001
0010
,
0100
1000
0001
0010
0100
1000
0001
0010
,
0100
1000
0001
0010
0100
1000
0001
0010
,
0100
1000
0001
0010
0100
1000
0001
0010
,
0100
1000
0001
0010
0100
1000
0001
0010
,
0100
1000
0001
0010
0100
1000
0001
0010
,
0100
1000
0001
0010
0100
1000
0100
0001
,
0000
0000
0100
0010
0100
0010
0100
1000
,
0020
0000
0030
0000
0000
0100
1000
0100
,
0020
0000
0000
0000
0000
0000
0030
0000
0000
0000
0200
0000
0000
0000
0300
0000
0000
0000
0001
0000
0000
0010
0000
0000
,
0200
0000
0000
0300
0000
1000
0100
0010
,
0002
0000
0000
0000
0003
0000
0000
1000
,
0000
0000
0000
0010
0000
0100
0000
0000
1000
0000
0000
0000
,
0000
0000
0100
0000
0000
0000
0001
0000
0000
0000
0000
0000
0100
0000
0000
0010
0000
0000
0000
0000
1000
0000
0000
0000
,
0100
0000
0000
0000
0001
0000
0010
0000
0000
0100
0000
0000
,
1000
0000
1001
1001
0000
0110
0000
1001
,
0000
0110
0000
0000
1000
0100
1000
0100
,
1000
0100
0000
0000
0000
1010
0000
0101
,
0000
1010
0000
0000
0100
0010
0100
0010
,
0100
0010
0000
0000
1000
0100
0000
0011
,
0000
1100
0000
0000
0010
0100
0010
0100
,
0010
0100
0000
0000
1000
0001
0000
0110
,
0000
1100
0000
0000
0010
0100
0010
0100
,
0010
0100
0000
0000
0000
1000
0000
0110
,
0000
1101
0000
0000
1000
0010
1000
0010
,
1000
0010
0000
0000
0000
1100
0000
0110
,
0000
0011
0000
0000
0100
0010
0100
0010
,
0100
0010
0000
0000
0100
1000
0000
0110
,
0000
0011
0000
0000
1000
0001
1000
0001
,
1000
0001
0000
0000
0000
0110
0000
0101
,
0000
1010
0000
0000
0100
0001
0100
0001
,
0100
0001
0000
0000
0000
0110
0000
0000
,
0000
0010
1000
0100
0000
0001
0010
0100
,
0001
2000
0000
0000
3000
0100
0010
0001
,
0010
0100
1000
0100
0010
0100
2000
0000
,
0000
3000
0100
0010
0001
0100
1000
0001
,
0010
0100
1000
0100
0010
1000
0100
0010
,
0001
0010
0200
0000
0000
0300
1000
0100
,
0010
0100
0001
0010
1000
0100
0010
0001
,
0110
0000
0000
0000
0110
0110
0000
0000
,
1000
0100
0010
0100
0000
0001
0100
0020
,
0000
0030
0000
1000
0000
0100
0001
0010
,
0100
1000
0000
0000
1000
0000
0100
0010
,
1001
0000
0110
0000
2002
0000
0000
3003
,
1000
0000
0000
0000
0010
0000
0000
0000
0000
0000
0000
0000
0100
0000
0000
0000
0000
0000
0010
0000
0000
0100
0000
0000
,
1000
0000
0000
0000
0000
0000
0000
0000
0000
0100
0000
0000
0000
0000
0010
0000
0000
0000
1000
0000
0000
0100
0000
0000
,
0001
0100
0000
0010
0000
0100
0001
0010
,
1100
0110
0022
0000
,
0033
1001
0000
1001
0000
0110
0000
0110
,
0000
1010
1010
1010
0000
0000
1010
1010
,
0000
1000
0001
0100
0010
1000
0100
0010
,
1000
0100
0001
0010
0100
0001
0010
1000
,
0100
1000
0010
0100
0001
0010
1000
0100
,
0010
0100
0001
0010
1000
0100
0001
0010
,
0100
0001
0010
1000
0100
0010
0100
0001
,
0010
0100
1000
0100
1000
0010
0100
1000
,
0001
0010
0100
1000
0100
0010
1100
0000
,
1001
0000
1010
0000
0110
0001
0010
0100
,
1000
0010
1000
0100
1000
0010
0100
0001
,
0010
0100
0010
1000
0010
0100
0010
0001
,
0010
0100
0010
1000
0100
0010
1000
0100
,
1000
0010
0100
0001
0010
1000
0100
1000
,
0010
0100
0010
0001
0010
0100
1000
0100
,
0010
0100
0001
0010
1000
0100
0010
0100
,
1000
0100
1000
0010
0100
0001
0010
1000
,
0100
0001
0010
1000
0100
0010
0000
1010
,
0000
0101
0000
1010
0100
0001
0010
1000
,
0100
1000
0010
0100
0001
0010
1000
0100
,
1000
0001
0010
0100
1000
0001
0010
0100
,
0010
1000
0100
0010
0001
0010
0100
1000
,
0100
1000
0010
0001
0010
0100
1000
0100
,
0010
1000
0000
0100
0010
1000
0001
0100
,
0010
1000
0000
1000
0100
0010
0001
0010
,
0100
1000
0000
0010
0100
0001
0010
0100
,
1000
0100
0000
0010
0100
1000
0001
0010
,
0100
1000
0000
0010
0100
1000
0010
0001
,
0010
0100
0000
1000
0100
0010
0001
0010
,
0100
1000
0000
1001
0000
1001
0000
1001
,
0000
1001
0000
0000
0100
1000
0010
0100
,
0001
0010
0100
1000
0010
0100
0001
0010
,
1000
0100
1000
0100
0010
0100
0001
0010
,
1000
0100
0010
0001
0010
0100
0001
0010
,
1000
0100
1000
0010
0100
1000
0100
0010
,
0001
0010
0100
1000
0010
0100
0001
0010
,
0100
1000
0100
1000
0010
0100
0010
0001
,
0010
0100
1000
0100
1000
0001
0010
1010
,
0000
0011
0000
2020
0000
0000
0000
0000
,
0000
3030
0000
1000
0100
0001
0010
0100
,
0010
1000
0100
0010
0001
0010
1000
0010
,
0100
0001
0010
1000
0100
1000
0010
0001
,
0100
0010
0000
0010
0100
0010
1000
0001
,
0010
0100
0000
0100
1000
0100
0010
0001
,
0010
0100
0000
1000
0010
0100
0001
0010
,
0100
1000
0000
0100
0010
1000
0100
0010
,
0001
0010
0000
0010
1000
0001
0100
0010
,
1000
0100
0000
0010
0001
1000
0100
0010
,
0100
1000
0000
0010
0100
0001
0010
1000
,
0100
0001
0000
0010
0100
1000
0010
0001
,
0100
0010
0000
1000
1000
0100
0100
0010
,
0010
0001
0001
0010
0010
0100
0100
1000
,
1000
0100
0100
0010
0010
0001
0001
0010
,
0100
0010
0001
0010
1000
0100
0010
0001
,
0010
0100
0010
2002
0000
3003
0000
0000
;
