#TITLE:Yu-Gi-Oh!;
#SUBTITLE:- Voice [Para Para Mix];
#ARTIST:石田燿子;
#TITLETRANSLIT:;
#SUBTITLETRANSLIT:;
#ARTISTTRANSLIT:Yoko Ishida;
#CREDIT:;
#BANNER:voice.png;
#BACKGROUND:voice-BG.png;
#LYRICSPATH:;
#CDTITLE:;
#MUSIC:voice.mp3;
#OFFSET:0.000;
#SAMPLESTART:37.975;
#SAMPLELENGTH:12.000;
#SELECTABLE:YES;
#BPMS:0.000=158.000;
#STOPS:;
#BGCHANGES:;
// cache tags:
#FIRSTBEAT:4.000;
#LASTBEAT:307.875;
#SONGFILENAME:Songs/Anime Songs/voice/voice.sm;
#HASMUSIC:1;
#HASBANNER:1;
#MUSICLENGTH:116.932;
// end cache tags

//---------------dance-single - ----------------
#NOTES:
     dance-single:
     :
     Challenge:
     8:
     0.616,0.658,0.470,0.445,0.192,397.000,55.000,52.000,0.000,0.000:  // measure 1
0000
0000
0000
0000
,  // measure 2
0010
0000
0100
0000
0100
0001
0000
0000
1000
0000
0010
0000
0100
0001
0000
0000
,  // measure 3
0010
0000
0100
0000
0100
1000
0000
0000
0001
0000
0010
0000
0100
1000
0000
0000
,  // measure 4
0010
0000
0100
0000
0100
0001
0000
0000
1000
0000
0010
0000
0100
0001
0000
0000
,  // measure 5
1000
0000
0000
0000
0100
0000
0000
0000
1000
0000
0000
0000
0001
0000
0000
0000
1000
0000
0000
0100
0000
0000
0000
0000
1100
0000
0000
0000
0011
0000
0000
0000
,  // measure 6
0001
0000
1000
0000
1000
0100
0000
0000
0010
0000
0001
0000
1000
0100
0000
0000
,  // measure 7
0100
0000
0010
0000
0010
0001
0000
0000
1000
0000
0100
0000
0010
0001
0000
0000
,  // measure 8
1000
0001
0100
0010
0001
1000
0010
0100
,  // measure 9
0010
0000
0100
0000
0000
0000
0000
0000
1000
0000
0000
0000
0001
0000
0000
0000
0220
0000
0000
0000
0330
0000
2002
0000
0000
0000
0000
0000
0000
0000
0000
3003
,  // measure 10
0000
0000
0000
0000
0000
0000
0000
0000
1000
0000
0000
0000
0100
0000
0000
0000
0011
0000
0000
0000
0000
0000
0000
0000
1010
0000
0000
0000
0000
0110
0000
0000
,  // measure 11
0000
0000
0000
0000
0000
0000
0000
0000
0001
0000
0000
0000
0100
0000
0000
0000
1010
0000
0000
0000
0000
0000
0000
0000
0011
0000
0000
0000
0000
0110
0000
0000
,  // measure 12
0000
0000
0000
0000
0000
0000
0000
0000
0010
0000
0000
0000
1000
0000
0000
0000
2000
0000
0000
0000
0000
0000
0000
3000
0002
0000
0000
0003
0000
2000
0000
3000
,  // measure 13
0220
0000
0000
0000
0000
0000
0000
0000
0000
0000
0000
0000
0000
0000
0000
0330
2200
0000
0000
0000
0000
0000
0000
0000
0000
0000
0000
0000
0000
0000
0000
3300
,  // measure 14
0000
0000
0000
0000
0000
0000
0000
0000
1000
0000
0000
0000
0010
0000
0000
0000
0101
0000
0000
0000
0000
0000
0000
0000
1100
0000
0000
0000
0000
0110
0000
0000
,  // measure 15
0000
0000
0000
0000
0000
0000
0000
0000
0001
0000
0000
0000
0010
0000
0000
0000
1100
0000
0000
0000
0000
0000
0000
0000
0101
0000
0000
0000
0000
0110
0000
0000
,  // measure 16
0000
0000
1000
0100
1000
0010
0100
0010
,  // measure 17
2000
0000
0000
0000
0000
0000
0000
0000
0000
0000
0000
0000
0000
0000
0000
0000
0000
0000
0000
0000
0000
0000
0000
0000
0000
0000
0000
0000
0000
0000
0000
3000
,  // measure 18
0010
0000
0100
0000
0100
0001
0000
0000
1000
0000
0010
0000
0100
0001
0000
0000
,  // measure 19
0010
0000
0100
0000
0100
1000
0000
0000
0001
0000
0010
0000
0100
1000
0000
0000
,  // measure 20
0100
0000
0010
0000
0010
0001
0000
0000
1000
0000
0100
0000
0010
0001
0000
0000
,  // measure 21
0001
0000
0000
0000
0100
0000
0000
0000
0001
0000
0000
0000
1000
0000
0000
0000
0001
0000
0000
0100
0000
0000
0000
0000
0101
0000
0000
0000
1010
0000
0000
0000
,  // measure 22
0010
0000
0100
0000
0100
0001
0000
0000
1000
0000
0010
0000
0100
0001
0000
0000
,  // measure 23
1000
0000
0001
0000
0001
0010
0000
0000
0100
0000
1000
0000
0001
0010
0000
0000
,  // measure 24
0010
1000
0010
0100
0010
1000
0001
0100
,  // measure 25
1000
0000
0001
0000
0000
0000
0000
0000
0001
0000
0000
0000
1000
0000
0000
0000
2002
0000
0000
0000
0000
3003
2002
0000
0000
0000
0000
0000
0000
0000
0000
3003
,  // measure 26
0000
0000
0000
1000
0010
0000
1000
0010
,  // measure 27
0002
0000
0000
0000
0000
0000
0000
0000
0000
0000
0000
0003
1000
0000
0000
0000
0010
0000
0000
0000
0000
0000
0000
0000
1000
0000
0000
0000
0001
0000
0000
0000
,  // measure 28
2020
0000
0000
0000
0000
0000
0000
0000
0000
0000
0000
3030
0202
0000
0000
0000
0000
0000
0000
0000
0000
0000
0000
0303
0000
0000
0000
0000
0000
0000
0000
0000
,  // measure 29
0110
0000
1001
0110
,  // measure 30
0000
0000
0000
1000
0001
0000
0100
1000
,  // measure 31
0002
0000
0000
0000
0000
0000
0000
0000
0000
0000
0000
0003
1000
0000
0000
0000
0100
0000
0000
0000
0000
0000
0000
0000
1000
0000
0000
0000
0001
0000
0000
0000
,  // measure 32
2002
0000
0000
0000
0000
0000
0000
0000
0000
0000
0000
3003
0010
0000
0000
0000
1000
0000
0000
0000
0000
0000
0002
0000
0000
0000
0000
0000
0000
0000
0000
0003
,  // measure 33
1010
0000
0101
0110
,  // measure 34
0000
0000
0000
0001
1000
0000
0010
0001
,  // measure 35
2000
0000
3000
0100
0001
0000
0010
1000
,  // measure 36
2000
0000
0000
0000
0000
0000
0000
0000
0000
0000
0000
3000
0001
0000
0000
0000
2000
0000
0000
0000
0000
0000
0000
0000
0000
0000
0000
0000
0000
0000
0000
3000
,  // measure 37
0011
0000
0110
1001
,  // measure 38
0000
0000
0000
1000
0100
0000
0010
0001
,  // measure 39
2000
0000
0000
0000
0000
0000
0000
0000
0000
0000
0000
3000
0010
0000
0000
0000
0100
0000
0000
0000
0000
0000
0000
0000
0001
0000
0000
0000
0100
0000
0000
0000
,  // measure 40
2000
0000
0000
0000
0000
0000
0000
0000
0000
0000
0000
3000
0100
0000
1000
0000
0020
0000
0000
0000
0000
0000
0000
0000
0000
0000
0000
0000
0000
0000
0000
0030
,  // measure 41
0000
0000
1000
0100
0010
0001
0010
0100
,  // measure 42
1000
0000
0000
1000
0001
0000
1000
0001
,  // measure 43
1000
0100
0000
1000
0010
0001
0001
0000
,  // measure 44
0000
0000
0000
1000
0001
0000
1000
0010
,  // measure 45
0010
0000
0000
0000
1000
0000
0000
0000
0000
0000
0000
0000
0001
0000
0000
0000
0010
0000
0000
0000
0200
0000
0000
0000
0000
0000
0000
0000
0000
0000
0000
0300
,  // measure 46
0000
0000
0000
1000
0100
0000
0100
0001
,  // measure 47
1000
0000
0000
0000
0100
0000
0000
0000
0000
0000
0000
0000
0010
0000
0000
0000
1000
0000
0000
0000
0010
0000
0000
0000
2000
0000
0000
0000
0000
0000
0000
3000
,  // measure 48
0000
0000
0000
1000
0001
0000
1000
0001
,  // measure 49
0001
0010
0000
1000
0010
1000
0001
0000
,  // measure 50
0000
0000
0000
1000
0010
0000
0100
0001
,  // measure 51
0002
0000
0000
0000
0000
0000
0000
0000
0000
0000
0000
0003
0100
0000
0000
0000
0010
0000
0000
0000
0000
0000
0000
0000
1000
0000
0000
0000
0000
0010
0000
0000
,  // measure 52
2000
0000
0000
0000
0000
0000
0000
0000
0000
0000
0000
3000
0100
0000
0000
0000
2000
0000
0000
0000
0000
0000
0000
0000
0000
0000
0000
3000
0000
0000
0000
0000
,  // measure 53
0110
0000
1010
0011
,  // measure 54
0000
0000
0000
1000
0001
0000
0010
0100
,  // measure 55
0020
0000
0000
0000
0000
0000
0000
0000
0000
0000
0000
0030
0100
0000
0000
0000
0001
0000
0000
0000
0000
0000
0000
0000
0001
0000
0000
0000
0100
0000
0000
0000
,  // measure 56
2000
0000
0000
0000
0000
0000
0000
0000
0000
0000
0000
3000
0100
0000
1000
0000
0200
0000
0000
0000
0000
0000
0000
0000
0000
0000
0000
0000
0000
0000
0000
0300
,  // measure 57
0110
0000
1000
0001
0100
0001
0100
0010
,  // measure 58
1000
0000
0000
0001
0010
0000
0100
0001
,  // measure 59
0001
0100
0000
0010
0010
1000
0100
0010
,  // measure 60
0000
0000
0000
1000
0001
0000
0010
1000
,  // measure 61
0010
0100
0000
0100
0001
1000
0001
1000
,  // measure 62
0000
0000
0000
1000
0100
0000
1000
0001
,  // measure 63
0010
0100
0000
0001
1000
0001
0100
0100
,  // measure 64
0000
0000
0000
1000
0100
0000
1000
0001
,  // measure 65
0001
0000
0000
0000
1000
0000
0000
0000
0000
0000
0000
0000
0100
0000
0000
0000
0002
0000
0000
0000
0000
0000
0000
0000
0000
0000
0000
0003
0000
0000
0000
0000
,  // measure 66
1000
0000
0000
0001
0000
0000
1000
0000
0000
0000
1000
0000
0100
0000
1000
0000
,  // measure 67
2100
0000
0000
0000
0000
0000
0001
0000
0000
0000
0000
0000
0100
0000
0000
3000
0000
0000
0000
0000
1000
0000
0000
0000
1000
0000
0000
0000
1000
0000
0000
0000
,  // measure 68
0012
0000
0000
0000
0000
0000
1000
0000
0000
0000
0000
0000
0010
0000
0000
0003
0000
0000
0000
0000
1000
0000
0000
0000
0100
0000
0000
0000
1000
0000
0000
0000
,  // measure 69
0010
0000
0000
0000
0000
0000
1000
0000
0000
0000
0000
0000
0100
0000
0000
0000
0002
0000
0000
0000
0000
0000
0000
0000
0000
0000
0000
0000
0000
0000
0000
0003
,  // measure 70
0000
0000
0000
0000
0000
0000
0000
0000
0001
0000
0000
0000
0100
0000
0000
0000
1010
0000
0000
0000
0000
0000
0000
0000
0011
0000
0000
0000
0000
0110
0000
0000
,  // measure 71
0000
0000
0000
0000
0000
0000
0000
0000
1000
0000
0000
0000
0100
0000
0000
0000
0011
0000
0000
0000
0000
0000
0000
0000
1010
0000
0000
0000
0000
0110
0000
0000
,  // measure 72
0000
0000
0000
0000
0000
0000
0000
0000
0010
0000
0000
0000
1000
0000
0000
0000
2000
0000
0000
0000
0000
0000
0000
3000
0002
0000
0000
0003
0000
2000
0000
3000
,  // measure 73
0220
0000
0000
0000
0000
0000
0000
0000
0000
0000
0000
0000
0000
0000
0000
0330
2200
0000
0000
0000
0000
0000
0000
0000
0000
0000
0000
0000
0000
0000
0000
3300
,  // measure 74
0000
0000
0000
0000
0000
0000
0000
0000
1000
0000
0000
0000
0010
0000
0000
0000
0101
0000
0000
0000
0000
0000
0000
0000
1100
0000
0000
0000
0000
0110
0000
0000
,  // measure 75
0000
0000
0000
0000
0000
0000
0000
0000
0100
0000
0000
0000
0001
0000
0000
0000
1010
0000
0000
0000
0000
0000
0000
0000
1100
0000
0000
0000
0000
1001
0000
0000
,  // measure 76
0000
0000
0000
0000
1000
0000
0001
0000
1000
0000
0000
0001
0000
0000
1000
0000
,  // measure 77
0012
0000
0000
0000
0000
0000
0000
0000
1000
0000
0000
0000
0000
0000
0000
0000
0010
0000
0000
0000
0000
0000
0000
0000
0020
0000
0000
0000
0000
0000
0000
0033
;
