#TITLE:J'ai Envie de Plaisir X2;
#SUBTITLE:;
#ARTIST:S.i.m. on kor Funkle;
#TITLETRANSLIT:;
#SUBTITLETRANSLIT:;
#ARTISTTRANSLIT:;
#CREDIT:;
#BANNER:../fallback - bn.png;
#BACKGROUND:../fallback - bg.png;
#LYRICSPATH:;
#CDTITLE:;
#MUSIC:j'ai envie de plaisir X2.ogg;
#OFFSET:-0.145;
#SAMPLESTART:108.420;
#SAMPLELENGTH:11.160;
#SELECTABLE:YES;
#DISPLAYBPM:127.000:141.000;
#BPMS:0.000=141.400,22.000=282.800,36.000=141.400,127.000=127.260,222.500=141.400,295.000=282.800,295.250=70.700,295.375=141.400;
#STOPS:6.000=0.106
,6.750=0.106
,13.000=0.106
,13.250=0.106
,14.000=0.106
,14.250=0.106
,20.000=0.106
,20.250=0.106
,37.000=0.106
,37.250=0.106
,37.500=0.106
,37.750=0.106
,38.500=0.106
,38.750=0.106
,39.000=0.106
,39.250=0.106
,41.000=0.212
,41.500=0.318
,41.750=0.106
,42.000=0.106
,42.250=0.106
,46.500=0.318
,46.750=0.106
,47.000=0.106
,47.250=0.106
,47.500=0.106
,48.000=0.106
,48.500=0.106
,48.750=0.106
,49.000=0.106
,49.250=0.106
,50.000=0.106
,50.250=0.106
,50.500=0.106
,53.250=0.106
,53.500=0.106
,53.750=0.106
,54.500=0.106
,54.750=0.106
,55.000=0.106
,55.750=0.106
,56.000=0.106
,56.250=0.106
,56.500=0.106
,60.750=0.106
,61.000=0.106
,61.250=0.106
,61.500=0.106
,61.750=0.106
,63.250=0.636
,64.000=0.106
,65.250=0.106
,65.500=0.106
,66.750=0.106
,67.000=0.106
,68.250=0.106
,68.500=0.106
,69.750=0.106
,78.000=0.106
,79.250=0.106
,79.500=0.106
,80.750=0.106
,81.000=0.106
,81.250=0.106
,81.500=0.106
,81.750=0.106
,98.000=0.318
,98.250=0.318
,104.000=0.318
,104.250=0.106
,104.500=0.106
,104.750=0.106
,111.000=0.106
,111.250=0.106
,111.500=0.106
,111.750=0.106
,125.750=0.053
,126.000=0.053
,126.250=0.053
,126.500=0.106
,126.750=0.165
,142.000=0.117
,142.250=0.118
,225.500=0.318
,228.250=0.530
,239.500=0.318
,242.250=0.530
,275.750=0.106
,275.875=0.106
,279.250=0.106
,279.375=0.106
,282.500=0.212
,286.250=0.212
,286.500=0.106
,287.000=0.106
,289.000=0.212
;
#BGCHANGES:;
// cache tags:
#FIRSTBEAT:0.000;
#LASTBEAT:298.750;
#SONGFILENAME:Songs/Beast Aoreo BEAST!/J'ai Envie de Plaisir X2 - [Aoreo]/envie.sm;
#HASMUSIC:1;
#HASBANNER:1;
#MUSICLENGTH:142.140;
// end cache tags

//---------------dance-single - J. Nero----------------
#NOTES:
     dance-single:
     J. Nero:
     Challenge:
     14:
     1.000,1.000,1.000,0.183,1.000,1031.000,159.000,26.000,35.000,1.000:
1001
0000
0001
0100
0000
0010
1000
0000
1100
0000
0100
0010
0000
0001
0100
0001
,
0100
0000
0001
0010
0100
0000
1100
0000
1010
0000
0001
0100
0000
0000
0101
0000
,
0001
1000
0000
0010
0100
0000
0101
0000
0001
0010
0000
0010
0100
0100
1000
0000
,
0001
0000
0000
0000
1000
0000
0000
0000
0000
0000
0000
0000
1000
0000
0000
0000
0010
0000
0000
0000
0110
0000
0000
0000
0100
0000
0000
0000
0001
0000
0000
0000
2000
3000
0000
0000
0002
0003
0000
0000
2000
3000
0000
0000
0000
0000
0000
0000
0001
0000
0000
0000
0100
0000
0000
0000
0000
0000
0000
0000
0100
0000
0000
0000
,
0010
0000
1010
0000
1000
0100
0000
1000
0001
0100
0001
0000
1000
0010
0000
0010
,
1000
1100
0001
0010
0100
0000
1000
0000
00M4
0000
0M00
0000
M000
0000
00M0
0000
,
0M00
M000
0M00
00M0
M000
0M00
00M0
M000
,
0M00
00M0
M000
0M00
00M0
M000
00M0
0M00
,
00M0
M000
0M03
0000
0000
0000
0000
0000
,
0000
0000
0000
0000
1001
1001
1001
1001
2000
0000
3000
1010
0010
0101
0100
0000
,
0001
0000
0000
0000
1000
0000
0000
0000
0001
0000
0000
0000
0100
0000
0000
0000
0020
0030
0000
0000
0000
0000
0000
0000
2020
3030
0000
0000
1100
0000
0000
0000
1001
0000
0000
0000
0101
0000
0000
0000
0001
0000
0000
0000
0010
0000
0000
0000
0100
0000
0000
0000
1000
0000
0000
0000
0010
0000
0000
0000
0000
0000
0000
0000
,
0110
0000
0000
0000
0000
0000
0000
0000
0100
0000
0000
0000
0001
0000
0000
0000
1000
0000
0000
0000
0001
0000
0000
0000
1000
0000
0000
0000
0000
0000
0000
0000
0100
0000
0000
0000
1000
0000
0000
0000
0002
0003
0000
0000
1000
0000
0000
0000
1010
0000
0000
0000
0010
0000
0000
0000
0110
0000
0000
0000
0100
0000
0000
0000
,
0002
0003
0000
0000
1000
0000
0000
0000
0100
0000
0000
0000
1000
0000
0000
0000
1000
0000
0000
0000
1000
0000
0000
0000
0001
0000
0000
0000
0100
0000
0000
0000
0001
0000
0000
0000
0001
0000
0000
0000
0001
0000
0000
0000
0100
0000
0000
0000
0010
0000
0000
0000
0100
0000
0000
0000
0000
0000
0000
0000
0001
0000
0000
0000
,
0010
0100
0010
0100
1000
0001
0001
0001
1000
0100
1000
1000
1000
0001
0100
0010
,
0010
0000
0100
0000
0100
0000
0001
0100
0001
0100
0001
0100
0001
0100
0001
0100
0001
0100
0001
0100
0001
0000
0100
0000
0001
0000
0010
0000
0100
0000
1000
0000
,
0001
0000
0100
0000
0001
0000
2000
3000
1001
0000
0002
0003
0101
0000
2000
3000
0001
0000
1000
0000
0001
0000
1000
0000
0001
0000
1000
0000
0000
0000
0000
0000
,
1001
0001
1000
0100
1000
0010
0110
0100
0001
0010
0100
1000
1100
0100
0010
0001
,
0100
0001
0101
0100
0010
1000
0100
2000
3001
0100
0010
1000
0001
0100
0010
1000
,
0001
0100
0010
1000
0001
0100
0010
1000
0001
0100
0001
0100
0010
1000
0100
0010
,
0001
0010
0001
0100
0010
1000
0100
1000
0002
1003
0100
0010
0001
1000
1100
0100
,
1000
0010
0100
0001
0011
0110
1100
1010
0010
0100
0001
1000
0010
0100
0001
1000
,
0100
0000
0000
0000
,
1000
0001
1000
0001
1000
0001
1000
0001
1000
0100
0010
0001
1000
0100
0010
0001
,
0011
0000
0001
0010
0000
0000
0001
0000
0011
0000
0110
0000
1100
0000
0000
0000
,
1001
0000
0000
0000
0000
0000
0000
0000
0000
0000
0000
0000
1100
0000
0000
0000
0001
0000
0000
0000
1000
0000
0000
0000
0001
0000
0000
0000
1000
0000
0000
0000
0022
0033
0000
0000
2002
3003
0000
0000
0101
0000
0000
0000
0000
0000
0000
0000
0100
0000
0000
0000
0001
0000
0000
0000
0000
0000
0000
0000
0000
0000
0000
0000
,
0100
0100
0001
1000
1000
0001
0000
0000
0010
0010
0100
1000
0010
0000
1000
1000
,
0002
0003
0000
0000
0100
0000
0000
0000
0101
0000
0000
0000
0010
0000
0000
0000
1010
0000
0000
0000
0000
0000
0000
0000
1010
0000
0000
0000
0000
0000
0000
0000
0110
0000
0000
0000
0000
0000
0000
0000
0110
0000
0000
0000
0000
0000
0000
0000
0101
0000
0000
0000
0000
0000
0000
0000
0000
0000
0000
0000
0100
0000
0000
0000
,
0001
0000
0101
0000
1001
0000
1001
0000
1100
0000
0100
1000
0001
0101
1000
1001
,
0011
0000
0011
0000
0011
1000
0011
0000
1100
0000
1100
0000
1100
0001
1100
0000
,
0101
0000
0101
0000
0101
0010
0101
0000
1010
0000
1010
0000
1010
0100
1010
0000
,
0101
0000
0101
0000
0101
1000
0101
0000
1100
0000
1100
0000
1100
0010
1100
0000
,
0001
0000
1000
0000
0001
0000
1000
0000
0001
0000
1000
0000
0001
0000
1000
0000
0001
0000
1000
0000
0001
0000
1000
0000
0001
0000
0000
0000
1000
0000
0001
1000
,
0001
0000
1000
0000
0001
1000
0001
1000
0001
0000
0100
0000
0001
0100
0001
0100
0001
0000
0010
0000
0100
0000
0000
0000
1000
0000
0001
1000
0001
0000
0100
0001
,
0100
0000
0001
0000
1000
0100
1000
0100
1000
0000
0100
0000
1000
0010
1000
0010
1000
0000
0010
0000
0100
0000
0000
0000
0001
0000
0000
0000
1000
0000
0010
0000
,
0100
0000
0100
0001
1000
0100
1000
0000
1000
0100
0010
0001
0100
0000
0100
0000
,
0001
0000
0000
0000
0100
0000
0000
0000
0001
0000
0000
0000
0000
0000
0000
0000
1000
0000
0000
0000
0000
0000
0000
0000
1000
0000
0000
0000
0000
0000
0000
0000
0002
0003
0000
0000
0200
0300
0000
0000
0101
0000
0000
0000
0000
0000
0000
0000
0001
0000
0000
0000
1000
0000
0000
0000
0000
0000
0000
0000
0010
0000
0000
0000
,
1000
0010
1000
0000
0010
0000
0100
0000
0001
0100
0001
0000
0010
0000
0100
0000
1000
0000
0100
0000
1000
0000
0010
0000
0100
0000
0001
0000
0010
0000
0100
0000
,
1000
0000
0001
0000
1000
0000
0001
0000
1000
0001
1000
0001
1000
0000
0100
0000
0010
0000
0001
0100
0001
0000
0100
0000
0010
0000
0100
0000
0001
0000
1000
0000
,
0100
1000
0100
0000
1000
0001
1000
0000
0001
0000
0100
0000
0001
1000
0001
0000
1000
0000
0100
0000
1000
0000
0001
0100
0010
1000
0001
0100
0010
0000
1000
0000
,
0000
0000
0001
0000
1000
0100
1000
0100
1000
0100
1000
0100
1000
0000
0100
1000
0100
0000
1000
0000
0001
0000
1000
0000
0001
0000
1000
0000
0001
0000
0010
0000
,
0001
0000
0010
0000
0100
0000
1000
0100
1000
0000
0010
0000
0100
0000
0001
0100
0001
0100
0001
0000
0100
0000
0001
0000
1000
0000
0001
0000
1000
0001
1000
0001
,
1000
0001
1000
0001
1000
0000
0001
1000
0001
0000
1000
0000
0001
0000
1000
0100
0010
0001
0010
0000
0001
0000
0100
0001
0100
0000
0001
0000
0100
0000
0001
0000
,
1000
0100
1000
0000
0100
0000
1000
0000
0010
0000
0100
0000
0001
0010
0100
1000
0001
0010
0100
1000
0100
0000
1000
0000
0010
0000
0100
0000
0001
0000
1000
0000
,
0001
0000
1001
0001
1000
1000
0010
0010
0100
0100
0101
0001
0100
0001
0010
0100
,
1000
0100
1000
0000
0100
0000
1000
0000
0010
0100
0010
0000
0100
0000
0010
0000
0100
0000
0001
0000
1000
0000
0100
0000
0010
0000
0100
0000
1000
0000
0001
0000
,
0100
0000
0001
0100
0001
0000
0100
0000
0001
0010
0100
1000
0100
0000
1000
0000
0100
0000
1000
0001
1000
0000
0001
0000
0100
0000
0010
0000
0100
0000
0001
0000
,
1000
0100
1000
0000
0010
0000
1000
0000
0001
0000
0100
0000
0010
0100
0010
0000
0100
0000
0010
0000
1000
0000
0001
0100
0001
0100
0010
1000
0010
0000
1000
0000
,
0000
0000
0001
0000
1000
0100
1000
0100
1000
0001
1000
0001
1000
0000
0001
0100
0001
0000
0100
0000
0001
0000
1000
0000
0100
0000
1000
0000
0001
0000
0010
0000
,
0100
0000
1000
0000
0100
0000
1000
0100
1000
0000
0001
0000
0100
0000
0001
0100
0001
0100
0001
0000
0100
0000
0001
0000
0010
0000
0100
0000
1000
0100
1000
0100
,
1000
0100
1000
0100
1000
0000
0100
1000
0100
0000
1000
0000
0001
0100
0001
0100
0001
0100
0001
0000
0100
0000
0001
0100
0001
0000
0100
0000
0001
0000
1000
0000
,
0001
0010
0100
0000
1000
0000
0010
0100
0010
0000
0100
0000
0001
1000
0001
1000
0001
0010
0100
1000
0100
0000
0010
0000
0001
0000
0010
0000
0001
0000
0100
0000
,
0010
0100
0001
0000
0100
0000
0100
0000
0100
0000
1001
0000
1000
0010
0000
0000
,
1100
0000
0000
0000
1000
0100
0010
0001
1000
0000
0001
0000
1000
0000
0001
0000
0100
0000
0100
0000
0010
0000
0000
0000
1000
0000
0100
0000
1000
0000
0001
0000
,
0100
0000
0001
0000
1000
0001
1000
0001
1000
0001
0100
0001
0100
0001
0100
0010
1000
0010
0100
0001
1000
0000
0010
0000
1000
0000
0100
0000
0010
0000
0001
0000
,
1000
0010
0100
0001
0010
0100
1000
0100
1000
0001
0100
0000
0001
0100
0001
0000
,
0101
0100
0110
0110
0110
1001
0101
0110
,
1010
0000
0000
0000
0000
0000
0000
0000
1001
0000
0000
0000
0000
0000
0000
0000
0000
0000
0000
0000
0100
0000
0000
0000
2000
3000
0000
0000
1001
0000
0000
0000
0000
0000
0000
0000
0101
0000
0000
0000
0000
0000
0000
0000
1010
0000
0000
0000
0000
0000
0000
0000
1100
0000
0000
0000
0000
0000
0000
0000
0110
0000
0000
0000
,
0000
0011
0011
0000
0010
0000
0110
0000
0100
0000
1100
0000
1010
0000
0010
0000
,
0110
0000
0101
0000
1010
0000
0101
0000
1010
0000
1000
0100
0010
0001
1000
0100
,
0010
0001
0010
0000
0001
0000
0101
0000
0100
0000
0110
0000
0000
0100
0010
1010
,
0000
1001
0000
0101
0000
1001
0000
1001
0000
0101
0100
0000
0100
0000
0101
0000
,
0001
0001
1001
1000
1000
1010
0110
0101
,
0110
0000
0001
0010
0100
1000
0001
0010
0100
1000
0100
0010
0100
0010
0001
0100
,
0010
1000
0010
0000
1000
0000
0010
0000
1000
0000
0100
0000
0010
0000
0100
0000
1000
0000
0100
0000
1000
0000
0001
0000
0010
0000
0100
0000
0010
0000
0100
0000
,
1000
0100
1000
0000
0100
0000
1000
0000
0010
0000
0010
0000
0100
0000
0100
0000
0001
0000
0001
0000
1100
0000
0010
0000
1100
0000
0001
0000
1100
0000
0010
0000
,
0100
0001
0100
0000
0011
0000
1000
0000
0011
0000
1000
0000
0011
0000
0100
0000
0011
0000
1000
0000
0011
0000
0000
0000
1000
0000
0001
0000
1000
0000
0100
0000
,
0010
0100
0010
0000
0001
0000
0100
0000
0010
0000
0010
0000
0100
0000
0100
0000
0001
0000
0001
0000
1100
0000
0010
0000
1100
0000
0001
0000
1100
0000
0010
0000
,
0100
0010
0100
0000
0011
0000
1000
0000
0011
0000
0100
0000
0011
0000
1000
0000
0011
0000
0100
0000
0011
0000
0000
0000
1100
0000
0001
0000
1000
0000
0001
0000
,
1000
0001
1000
0000
0001
0000
0010
0000
0100
0000
0100
0000
1000
0000
1000
0000
0010
0000
0010
0000
1010
0000
0000
0000
1000
0000
0001
0000
1000
0000
0MM1
1MM0
,
0MM1
0000
1000
0000
0001
0000
0010
0000
0100
0000
0000
0000
1100
0000
0000
0000
1100
0000
0000
0000
0100
0000
1000
0000
0010
0000
M10M
M01M
M10M
0000
0010
0000
,
0100
0001
1000
0001
1000
0100
0010
0000
0001
0000
0101
0000
1001
0000
1000
0001
,
0000
0000
0000
0000
0100
0000
0000
0000
0001
0000
0000
0000
0010
0000
0000
0000
0100
0000
0000
0000
0000
0000
0000
0000
1000
0000
0000
0000
0100
0000
0000
0000
0000
0000
0000
0000
0200
0300
0000
0000
1000
0000
0000
0000
0001
0000
0000
0000
2000
3000
0000
0000
0100
0000
0000
0000
0001
0000
0000
0000
0100
0000
0000
0000
,
1000
1001
1001
0011
1100
0011
1100
0011
,
1100
0000
0011
0000
1100
0000
0011
0000
1100
0011
1100
0000
0022
0000
1133
0000
,
0001
1000
0000
0001
0010
0100
1000
0000
0010
0100
0000
0100
0000
0000
0000
0000
;
