#TITLE:Let it be;
#SUBTITLE:;
#ARTIST:Miscellanious;
#TITLETRANSLIT:;
#SUBTITLETRANSLIT:;
#ARTISTTRANSLIT:;
#CREDIT:;
#BANNER:33 copia.jpg;
#BACKGROUND:33.jpg;
#LYRICSPATH:;
#CDTITLE:CDTITLE.jpg;
#MUSIC:07-let-it-be.mp3;
#OFFSET:0.080;
#SAMPLESTART:100.000;
#SAMPLELENGTH:12.000;
#SELECTABLE:YES;
#BPMS:0.000=170.080;
#STOPS:;
#BGCHANGES:;
// cache tags:
#FIRSTBEAT:2.000;
#LASTBEAT:325.000;
#SONGFILENAME:Songs/Definitive Keyboard Megapack/Let it be - Miscellanious(Leone510)/07-let-it-be.sm;
#HASMUSIC:1;
#HASBANNER:1;
#MUSICLENGTH:114.685;
// end cache tags

//---------------dance-single - ----------------
#NOTES:
     dance-single:
     :
     Hard:
     11:
     1.000,1.000,1.000,0.087,0.506,686.000,270.000,10.000,0.000,0.000:
0000
0000
1000
0001
,
0000
1000
0000
0010
0100
0000
0100
0000
,
0001
0000
0010
0000
1000
0000
0001
0100
,
0000
0100
1000
0000
0001
0000
0100
0010
,
0000
0001
1000
0100
1001
0000
0100
0001
,
0000
0010
1000
0000
0001
0000
1000
0001
,
0000
0010
0100
0000
0001
0000
1000
2000
,
0000
3020
0000
0130
0000
0000
0100
0010
,
0000
0010
0001
0000
1100
0000
1001
0000
,
1010
0011
0110
1100
,
1001
0011
1010
1100
,
1001
1010
0011
0110
,
1100
0000
1001
0000
0011
0100
1010
0000
,
1100
1001
1010
0011
,
0110
1100
1001
0011
,
1010
1100
1001
1010
,
0011
0000
1010
0000
0110
0000
1010
0000
0101
0000
2100
0100
3002
0000
0103
0000
,
0001
0010
1000
0001
1010
0100
0001
1000
0011
0000
0100
0000
1100
0000
0100
0000
,
1001
0010
1010
0100
1001
0010
1100
0010
,
1010
0100
0011
1000
0101
0001
0101
1000
,
0110
0010
1100
0100
1001
0010
0101
1000
,
0011
0100
1010
0100
0011
0100
1100
0100
,
1001
0010
1010
0100
1001
0010
1100
0010
,
1010
0100
0011
1000
0101
0001
0101
1000
,
0110
0010
1100
0100
1001
0010
0101
1000
,
0011
0100
1010
0100
0011
0100
1100
0100
,
1001
0010
1010
0100
1001
0010
1100
0010
,
1010
0100
0011
1000
0101
0001
0101
1000
,
0110
0010
1100
0100
1001
0010
0101
1000
,
0011
0000
0100
0000
1010
0000
0100
0000
1000
0001
1000
0001
0010
0100
0010
1000
,
0010
0001
0010
1000
0100
0001
0010
0100
1000
0001
0100
1000
0001
1000
0001
0100
,
0010
0001
0100
0001
1000
0001
1000
0001
0010
0100
0010
1000
0010
0001
0010
1000
,
0100
0001
0010
0100
1000
0001
0100
1000
0011
0000
1000
0000
0011
0000
0100
0000
,
1001
1000
0110
0100
0011
0100
1100
0100
,
1001
0010
1010
0100
1001
0010
1100
0010
,
1010
0100
0011
1000
0101
0001
0101
1000
,
0110
0010
1100
0100
1001
0010
0101
1000
,
0011
0100
1010
0100
0011
0100
1100
0100
,
1001
0010
1010
0100
1001
0010
1100
0010
,
1010
0100
0011
1000
0101
0001
0101
1000
,
0110
0010
1100
0100
1001
0010
0101
1000
,
0011
0100
1010
0100
0011
0100
1100
0100
,
1001
0010
1010
0100
1001
0010
1100
0010
,
1010
0100
0011
1000
0101
0001
0101
1000
,
0110
0010
1100
0100
1001
0010
0101
1000
,
0011
0000
0100
0000
1010
0000
0100
0000
1000
0001
1000
0001
0010
0100
0010
1000
,
0010
0001
0010
1000
0100
0001
0010
0100
1000
0001
0100
1000
0001
1000
0001
0100
,
0010
0001
0100
0001
1000
0001
1000
0001
0010
0100
0010
1000
0010
0001
0010
1000
,
0100
0001
0010
0100
1000
0001
0100
1000
0011
0000
1000
0000
0011
0000
0100
0000
,
1001
1000
0110
0100
0011
0100
1100
0100
,
1001
0010
1010
0100
1001
0010
1100
0010
,
1010
0100
0011
1000
0101
0001
0101
1000
,
0110
0010
1100
0100
1001
0010
0101
1000
,
0011
0000
0100
0000
1010
0000
0100
0000
0001
0010
0100
1000
0100
0010
0100
0010
,
0001
0010
0100
1000
0100
0010
0100
1000
0001
0010
0100
1000
0100
0010
0100
0010
,
0001
0010
0100
1000
0100
0010
0100
1000
0001
0010
0100
1000
0100
0010
0100
0010
,
0001
0010
0100
1000
0100
0010
0100
1000
0101
0000
2100
0100
3002
0000
0103
0000
,
0010
0001
0010
0100
1000
0001
0010
0100
1000
0001
0010
0100
1001
0000
0000
0101
0000
0000
0000
0000
0000
1100
0000
0000
,
0000
0101
0101
1001
0101
1010
0000
1010
,
0000
1100
0101
1001
0101
1010
0000
1010
,
0000
0101
0101
1001
0101
1010
0000
1010
,
1100
0011
0101
1010
1001
0101
0000
1100
,
0000
0101
0101
1001
0101
1010
0000
1010
,
0000
1100
0101
1001
0101
1010
0000
1010
,
0000
0101
0101
1001
0101
1010
0000
1010
,
1100
0011
0101
1010
1001
0101
0000
1100
,
0000
0101
0101
1001
0101
1010
0000
1010
,
0000
1100
0101
1001
0101
1010
0000
1010
,
0000
0101
0101
1001
0101
1010
0000
1010
,
1100
0000
0011
0000
0101
0000
1010
0000
0001
0010
0100
1000
0100
0010
0100
0010
,
0001
0010
0100
1000
0100
0010
0100
1000
0001
0010
0100
1000
0100
0010
0100
0010
,
0001
0010
0100
1000
0100
0010
0100
1000
0001
0010
0100
1000
0100
0010
0100
0010
,
0001
0010
0100
1000
0100
0010
0100
1000
0101
0000
2100
0100
3002
0000
0103
0000
,
0001
0010
1000
0001
1010
0100
0001
1000
0011
0000
0100
0000
1100
0000
0100
0000
,
1001
0010
1010
0100
1001
0010
1100
0010
,
1010
0100
0011
1000
0101
0001
0101
1000
,
0110
0010
1100
0100
1001
0010
0101
1000
,
0011
0100
1010
0100
0011
0100
1100
0100
,
1001
0010
1010
0100
1001
0010
1100
0010
,
1010
0100
0011
1000
0101
0001
0101
1000
,
0110
0000
0010
0000
1100
0000
0100
0000
0101
0000
2100
0100
3002
0000
0103
0000
,
0011
1010
0000
0000
;

//---------------dance-single - Copied from----------------
#NOTES:
     dance-single:
     Copied from:
     Challenge:
     13:
     1.000,1.000,1.000,0.087,0.746,770.000,326.000,10.000,0.000,161.000:
0000
0000
1000
0001
,
0000
1000
0000
0010
0100
0000
0100
0000
,
0001
0000
0010
0000
1000
0000
0001
0100
,
0000
0100
1000
0000
0001
0000
0100
0010
,
0000
0001
1000
0100
1001
0000
0100
0001
,
0000
0010
1000
0000
0001
0000
1000
0001
,
0000
0010
0100
0000
0001
0000
1000
2000
,
0000
3020
0000
0130
0000
0000
0100
0010
,
0000
0010
0001
0000
1100
0010
1001
0100
,
1010
0100
0011
1000
0110
0001
1100
0010
,
1001
0100
0011
0100
1010
0001
1100
0010
,
1001
0100
1010
0100
0011
1000
0110
0001
,
1100
0000
0010
0000
1001
0000
0100
0000
0011
1000
0100
0001
1010
0100
0001
0010
,
1100
0001
0010
0100
1001
0010
0100
0001
1010
0001
0100
1000
0011
0100
1000
0001
,
0110
1000
0001
0010
1100
0001
0010
0100
1001
0010
0100
1000
0011
1000
0100
0001
,
1010
0100
0001
0010
1100
0001
0010
0100
1001
0010
0100
0001
1010
0100
1000
0100
,
0011
0000
0000
0000
0000
0000
1010
0000
0000
0000
0000
0000
0110
0000
0000
0000
0000
0000
1010
0000
0000
0000
0000
0000
0101
0000
0000
0000
0000
0000
2100
0000
0000
0100
0000
0000
3102
0000
0000
0000
0000
0000
1113
0000
0001
0000
1000
0000
,
0001
0010
0100
1000
0001
0100
1010
0100
0010
0001
0100
1000
0011
0000
0000
0100
0000
0000
1101
0000
0000
0100
0000
0000
,
1011
0010
1010
0100
1101
0010
1101
0010
,
1010
0100
0111
1000
1101
0001
0101
1000
,
0111
0010
1101
0100
1001
0010
0111
1000
,
0111
0000
0100
0000
1010
0001
0100
1000
0011
0000
0100
0000
1101
0000
0100
0000
,
1011
0010
1010
0100
1101
0010
1101
0010
,
1010
0100
0111
1000
1101
0001
0101
1000
,
0111
0010
1101
0100
1001
0010
0111
1000
,
0111
1000
0100
0001
1010
0001
0100
1000
0011
0000
0100
0000
1101
0000
0100
0000
,
1011
0010
1010
0100
1101
0010
1101
0010
,
1010
0100
0111
1000
1101
0001
0101
1000
,
0111
0010
1101
0100
1001
0010
0111
1000
,
0111
0000
0100
0000
1010
0001
0100
0010
1100
0001
1000
0001
1010
0100
0010
1000
,
0110
0001
0010
1000
0110
0001
0010
0100
1010
0001
0100
1000
0011
1000
0001
0100
,
1010
0001
0100
0001
1100
0001
1000
0001
1010
0100
0010
1000
0110
0001
0010
1000
,
0110
0001
0010
0100
1010
0001
0100
1000
0111
0000
1000
0000
0111
0000
0100
0000
,
1011
1000
0111
0100
0011
0100
1101
0100
,
1011
0010
1010
0100
1101
0010
1101
0010
,
1010
0100
0111
1000
1101
0001
0101
1000
,
0111
0010
1101
0100
1001
0010
0111
1000
,
0111
0000
0100
0000
1010
0001
0100
1000
0011
0000
0100
0000
1101
0000
0100
0000
,
1011
0010
1010
0100
1101
0010
1101
0010
,
1010
0100
0111
1000
1101
0001
0101
1000
,
0111
0010
1101
0100
1001
0010
0111
1000
,
0111
1000
0100
0001
1010
0001
0100
1000
0011
0000
0100
0000
1101
0000
0100
0000
,
1011
0010
1010
0100
1101
0010
1101
0010
,
1010
0100
0111
1000
1101
0001
0101
1000
,
0111
0010
1101
0100
1001
0010
0111
1000
,
0111
0000
0100
0000
1010
0001
0100
0010
1100
0001
1000
0001
1010
0100
0010
1000
,
0110
0001
0010
1000
0110
0001
0010
0100
1010
0001
0100
1000
0011
1000
0001
0100
,
1010
0001
0100
0001
1100
0001
1000
0001
1010
0100
0010
1000
0110
0001
0010
1000
,
0110
0001
0010
0100
1010
0001
0100
1000
0111
0000
1000
0000
0111
0000
0100
0000
,
1011
1000
0111
0100
0011
0100
1101
0100
,
1101
0010
1010
0100
1011
0010
1101
0010
,
1010
0100
0111
1000
0111
0001
0101
1000
,
0111
0010
1101
0100
1001
0010
0111
1000
,
0111
0000
0100
0000
1010
0000
0100
0000
0101
0010
0100
1000
0101
0010
0100
0010
,
1001
0010
0100
1000
0101
0010
0100
1000
0101
0010
0100
1000
0101
0010
0100
1000
,
0101
0010
0100
0010
1001
0010
0100
1000
0101
0010
0100
1000
0101
0010
0100
0010
,
1001
0000
0000
0010
0000
0000
0100
0000
0000
1000
0000
0000
0101
0000
0000
0010
0000
0000
0100
0000
0000
1000
0000
0000
0101
0000
0000
0000
0000
0000
2100
0000
0000
0100
0000
0000
3102
0000
0000
0000
0000
0000
1113
0000
0001
0000
1000
0000
,
0001
0010
0100
1000
0001
0100
1010
0100
0010
0001
0100
1000
1001
0000
0000
1101
0000
0000
0000
0000
0000
1101
0000
0000
,
0000
0111
1101
1001
0111
1011
0000
1011
,
0000
1101
1101
1001
0111
1110
0000
1011
,
0000
0111
1101
1001
0111
1011
0000
1011
,
1100
1011
0101
1110
1001
1101
0000
1101
,
0000
0111
1101
1001
0111
1011
0000
1011
,
0000
1101
1101
1001
0111
1110
0000
1011
,
0000
0111
1101
1001
0111
1011
0000
1011
,
1100
1011
0101
1110
1001
1101
0000
1101
,
0000
0111
1101
1001
0111
1011
0000
1011
,
0000
1101
1101
1001
0111
1110
0000
1011
,
0000
0111
1101
1001
0111
1011
0000
1011
,
1100
0000
1011
0000
0101
0000
1110
0000
0101
0010
0100
1000
0101
0010
0100
0010
,
1001
0010
0100
1000
0101
0010
0100
1000
0101
0010
0100
1000
0101
0010
0100
0010
,
1001
0010
0100
1000
0101
0010
0100
1000
0101
0010
0100
1000
0101
0010
0100
0010
,
1001
0010
0100
1000
0101
0010
0100
1000
0101
0000
2100
0100
3102
0000
1113
0001
,
0010
0001
1000
0100
1010
0100
0001
1000
0011
0000
0100
0000
1101
0000
0100
0000
,
1011
0010
1010
0100
1101
0010
1101
0010
,
1010
0100
0111
1000
1101
0001
0101
1000
,
0111
0010
1101
0100
1001
0010
0111
1000
,
0111
0000
0100
0000
1010
0001
0100
1000
0011
0000
0100
0000
1101
0000
0100
0000
,
1011
0010
1010
0100
1101
0010
1101
0010
,
1010
0100
0111
1000
1101
0001
0101
1000
,
0111
0000
0010
0000
1101
0000
0100
0000
0101
0000
2100
0100
3102
0000
1113
0000
,
0101
0100
0000
0000
;
