#TITLE:[1-1] With A Dance Number;
#SUBTITLE:;
#ARTIST:HujuniseikouyuuP (Ft. Hatsune Miku);
#TITLETRANSLIT:;
#SUBTITLETRANSLIT:;
#ARTISTTRANSLIT:;
#CREDIT:;
#BANNER:../Beast 4 - bn.png;
#BACKGROUND:../Beast 4 - bg.png;
#LYRICSPATH:;
#CDTITLE:;
#MUSIC:With a Dance Number.ogg;
#OFFSET:1.226;
#SAMPLESTART:62.017;
#SAMPLELENGTH:12.000;
#SELECTABLE:YES;
#DISPLAYBPM:148.000;
#BPMS:0.000=148.000;
#STOPS:;
#BGCHANGES:;
// cache tags:
#FIRSTBEAT:4.000;
#LASTBEAT:355.000;
#SONGFILENAME:Songs/Beast Aoreo BEAST! 4/With A Dance Number - [Aoreo]/With a Dance Number.sm;
#HASMUSIC:1;
#HASBANNER:1;
#MUSICLENGTH:145.135;
// end cache tags

//---------------dance-single - J. Nero----------------
#NOTES:
     dance-single:
     J. Nero:
     Challenge:
     14:
     1.000,1.000,0.021,0.517,1.000,1197.000,3.000,75.000,4.000,0.000:
0000
0000
0000
0000
,
0001
1000
0100
0000
0010
0000
0001
0000
1000
0000
0100
0000
1000
0001
0100
0000
0010
0000
1000
0000
0001
0000
0100
0000
0001
1000
0100
0000
0010
0000
0001
0000
,
1000
0000
0001
0000
0100
0001
1000
0000
0010
0000
0100
0000
0010
0000
1000
0000
0001
0000
0010
0000
0100
0000
0000
0000
1000
0000
0000
0000
0001
0000
0000
0000
,
1000
0001
0100
0000
0001
0000
0010
0000
0100
0000
1000
0000
0001
0100
0010
0000
1000
0000
0001
0000
0010
0000
0100
0000
1000
0001
0100
0000
0010
0000
1000
0000
,
0001
0000
0100
0000
0001
1000
0100
0000
0010
0000
0001
0000
1000
0000
0010
0000
0100
0000
0001
0000
0020
0000
0000
0000
0100
0000
0030
0000
1000
0000
0000
0000
,
1001
0000
0001
0000
1000
0100
1000
0000
0001
0000
0100
0000
0010
1000
0010
0000
,
1000
0000
0001
0000
0010
0100
1000
0000
0001
0000
0100
0001
1000
0000
1000
0000
,
0100
0000
0010
0001
1000
0001
0100
0000
0010
0000
1000
0000
0001
0100
0001
0000
,
0010
0000
0000
0000
0100
0000
0000
0000
1000
0000
0001
0000
1000
0000
0000
0000
0010
0000
1000
0100
1000
0000
0001
0000
0010
0000
0000
0000
0100
0000
0000
0000
,
1000
0100
1000
0001
0100
0010
0100
0001
1000
0001
0010
0100
1000
0001
0100
0001
,
1000
0000
0100
0000
0010
0000
0001
0000
1000
0000
0010
0000
0100
0000
0010
0000
1000
0000
0001
0100
0001
0000
1000
0000
0100
0000
0000
0000
0010
0000
0000
0000
,
0001
0100
0010
0100
0001
1000
0001
0010
0100
1000
0001
0100
0001
1000
0100
0010
,
0001
1000
0100
1000
0001
0100
0010
0100
0001
1000
0001
0010
0100
1000
0001
0100
,
0001
1000
0001
0100
0001
1000
0010
0100
0010
1000
0001
1000
0100
0010
0001
1000
0100
1000
0001
0100
0010
0100
0001
1000
,
0001
0000
0100
0000
0010
0000
0100
0000
0001
0000
1000
0000
0100
0000
0010
0000
0001
0000
1000
0000
0100
0000
1000
0000
0001
0000
0100
0000
0001
0000
2000
0000
0000
0000
0000
0000
3001
0000
0000
0000
0000
0000
0001
0000
0000
0010
0000
0000
,
0100
0000
1000
0000
0010
0000
0100
0000
0001
0000
010M
0100
1000
0000
0010
0000
,
0200
0000
0302
0000
0023
0000
0230
0000
2300
0000
3020
0000
0230
0000
0301
1000
,
0001
0100
0100
1000
0001
0100
0100
1000
0001
0010
0010
1000
0001
0100
0100
1000
,
0020
0000
0230
0000
0302
0000
0023
0000
0230
0000
2300
0000
3002
0000
1003
0100
,
0010
0001
0100
0020
0000
0030
1000
0001
1000
0000
0001
0000
0010
0000
0002
0000
,
2003
0000
3020
0000
0230
0000
0320
0000
2030
0000
3002
0000
0023
0000
0130
1000
,
0001
0000
1000
0100
M000
0100
0001
0000
1000
0000
0010
0000
0100
0000
0002
0000
,
0023
0000
0230
0000
2300
0000
3002
0000
0203
0000
0310
0000
2000
0000
3001
1000
,
0100
0010
0001
1000
0001
0100
0010
0100
0001
1000
0001
0010
0100
1000
0001
0100
,
0010
0000
0100
0000
0001
0000
1000
0000
0100
0000
0010
0000
0001
0000
1000
0000
0001
0000
0100
0000
0010
0000
0100
0000
0001
1000
0001
0000
0010
0000
0100
0000
,
1000
0001
1000
0010
0100
0010
1000
0001
1000
0100
0010
0001
1000
0010
0100
0010
,
1000
0000
0100
0000
0010
0000
0100
0000
1000
0000
0010
0000
0100
0000
0001
0000
0010
0000
0100
0000
1000
0000
0001
0000
0100
0001
0100
0000
0010
0000
1000
0000
,
0001
0100
0001
1000
0001
0010
0100
1000
0001
0100
0010
0100
0001
1000
0100
0010
,
0001
1000
0100
1000
0010
0100
0010
1000
0001
0010
0100
1000
0001
0100
0001
1000
,
0010
0000
0100
0001
0000
0100
0001
0000
0010
0000
0100
0000
1000
0001
1000
0000
,
0020
0000
0000
0000
0000
0000
1030
0000
0000
0000
0001
0000
1000
0000
0000
0000
0000
0000
0000
0000
0001
0100
0001
0000
1000
0000
0100
0000
0010
0000
0001
0000
,
1000
0000
0001
0100
0010
0000
1000
0001
0010
0100
1000
0001
0000
1000
0000
1000
,
0001
0000
0100
0000
0010
0000
1000
0100
0010
0001
0000
2000
0000
3010
0100
0000
,
0001
0100
0100
1000
0000
0001
0100
0010
1000
0000
0100
0000
0010
0000
0001
0000
,
2000
0000
0000
0000
0000
0000
0000
0000
0000
0000
0000
0000
3001
0000
0200
0000
0000
0000
0000
0000
0301
1000
0001
0000
0010
0000
0100
0000
1000
0000
0001
0000
,
0100
0000
0100
0000
1001
0000
0001
0010
0100
1000
0000
0001
0000
1000
0010
0100
,
0010
0000
1000
0001
0000
0001
0010
0000
0100
1000
0000
0002
0000
1003
0010
1000
,
0010
0000
1000
0100
0000
1000
0002
0000
0000
0100
0003
0000
0001
0010
0100
0000
,
1000
0000
0100
0000
1000
0000
0001
0000
0000
0000
0100
0000
0000
0000
0010
0000
0000
0000
1000
0000
0100
0000
1000
0000
0001
0100
0001
0000
1000
0000
0010
0000
,
0100
0001
0010
0100
1000
0001
0100
0010
0100
0000
0002
0000
0000
0000
1003
0100
,
0010
0100
1000
0001
0100
0010
0100
0001
1000
0000
0200
0000
0000
0000
1300
0001
,
0010
0100
1000
0001
0100
0010
0100
0001
1000
0100
0010
0100
1000
0001
0100
0010
,
0100
0001
1000
0001
0010
0100
1000
0001
2000
3000
0200
0300
0020
0030
0001
1000
,
0001
0000
0100
0000
0001
0000
1000
0000
0000
0100
0000
0000
0010
0000
0000
0001
0000
0000
1000
0000
0000
0001
0000
0000
0100
0000
0000
0010
0000
0000
0100
0000
0000
0001
0000
0000
1000
0000
0000
0100
0000
0000
0010
0000
0000
0100
0000
0000
,
1000
0001
0100
0010
0100
0001
1000
0001
0010
0100
1000
0001
0100
0001
1000
0100
,
1000
0000
0001
0000
0010
0000
0100
0000
0000
1000
0000
0000
0001
0000
0000
0100
0000
0000
0010
0000
0000
0100
0000
0000
0001
0000
0000
1000
0000
0000
0100
0000
0000
0010
0000
0000
0001
0000
0000
1000
0000
0000
0001
0000
0000
0100
0000
0000
,
0010
2000
3000
0200
0300
0020
0030
0002
0000
0000
1003
0000
0100
0010
0100
0010
,
0001
1000
0010
0100
0001
1000
0100
1000
0010
0000
0200
0000
0000
0000
0301
1000
,
0001
0010
0100
1000
0001
0100
0010
0100
0001
0000
2000
0000
0000
0000
3100
0010
,
0100
1000
0001
0100
0010
0100
0001
1000
0001
0010
0100
1000
0001
0100
0010
0100
,
0001
0000
0000
1000
0000
0000
0100
0000
0000
0010
0000
0000
0001
0000
0000
1000
0000
0000
0001
0000
0000
0100
0000
0000
0001
0000
0010
0000
0100
0000
1000
0000
0000
0000
0000
0000
0002
0000
0000
0000
0000
0000
0003
0000
0000
0000
0000
0000
,
1000
0100
0010
0100
1000
0001
0100
0010
0100
0001
1000
0001
0010
0100
1000
0001
,
0100
0001
1000
0001
0100
0010
0100
0001
1000
0100
1000
0001
0010
0100
1000
0001
,
1000
0100
1000
0001
0100
0010
0100
0001
1000
0001
0100
0001
1000
0100
0010
0001
1000
0100
1000
0001
0100
0010
0100
0001
,
2000
3200
0300
0020
0030
0002
0003
2000
3000
0001
0100
0001
1000
0100
0010
0001
,
1000
0000
0100
1000
0000
0001
1000
0000
0010
0100
0000
0001
1000
0000
1000
0000
,
0001
0000
0000
0000
0100
0000
0001
0000
0000
0000
1000
0000
0001
0000
0000
0000
0010
0000
0100
0000
0000
0000
1000
0000
0001
0100
0001
0000
1000
0000
0010
0000
,
0100
0000
0000
0000
0000
0000
0001
0000
0000
1000
0000
0000
0000
0000
0000
0001
0000
0000
0100
0000
0000
0000
0000
0000
0010
0000
0000
1000
0000
0000
0000
0000
0000
0010
0000
0000
1000
0000
0000
0000
0100
0000
0000
0000
0010
0000
0000
0000
,
0001
0000
1000
0100
0000
0000
1000
0000
0001
0000
0001
1000
0100
0000
1000
0001
,
1000
0100
0010
0001
1000
0001
0100
0010
0100
0001
1000
0001
0010
0100
1000
0001
1000
0010
0100
0010
1000
0001
1000
0100
,
0010
0001
1000
0001
0100
0010
0100
0001
1000
0100
0010
0001
1000
0100
1000
0001
1000
0010
0100
0010
1000
0001
0100
0001
,
1000
0100
0010
0100
1000
0001
0100
0010
0100
0001
1000
0100
0010
0001
1000
0100
,
1000
0000
0010
0000
0100
0000
0001
0000
0010
0000
0100
0000
1000
0000
0010
0000
0100
0000
0010
0000
1000
0000
0001
0000
1000
0100
1000
0000
0001
0000
0100
0000
,
0010
0100
0001
0010
0100
1000
0001
0100
0010
0100
0001
1000
0100
0010
0001
1000
,
0001
0100
0001
1000
0100
0010
0001
1000
0001
0100
0010
0100
0001
1000
0100
0010
0001
1000
0002
0000
0000
0000
0003
0000
,
1000
0100
0100
0001
1000
0010
0100
0001
0100
0100
1000
0001
0100
0100
1000
0010
,
1000
0001
1000
0000
0010
0000
0100
0000
0001
0000
0010
0100
1000
0000
0001
0000
1000
0000
0001
0000
0010
0000
0100
0000
2000
0000
0000
0000
0000
0000
3000
0000
,
0001
0100
0001
1000
0010
0100
0010
1000
0001
1000
0100
0010
0001
1000
0100
1000
0001
0100
0010
0100
0001
1000
0001
0100
,
0001
1000
0100
0010
0100
1000
0001
0100
0010
0100
0001
1000
0001
0000
0100
0000
,
0001
0000
1000
0100
0000
1000
0001
0000
0100
0000
0010
0000
1000
0001
1000
0000
,
0001
0000
0000
0000
0010
0000
0100
0000
0000
0000
1000
0000
0002
0000
0000
0000
0000
0000
0000
0000
1003
0100
1000
0000
0001
0000
0100
0000
0010
0000
0100
0000
,
0001
0000
1000
0010
0100
0000
0001
1000
0100
0010
0001
1000
0000
0001
0000
0001
,
1000
0000
0010
0000
0100
0000
0001
0010
0100
1000
0000
0002
0000
0103
0010
0000
,
1000
0100
0100
0001
0000
1000
0010
0100
0001
0000
0010
0000
0100
0000
1000
0000
,
0002
0000
0000
0000
0000
0000
0000
0000
0000
0000
0000
0000
1003
0000
0200
0000
0000
0000
0000
0000
1300
0001
1000
0000
0100
0000
0010
0000
0001
0000
1000
0000
,
0001
0000
0100
0001
0000
0100
0010
0000
1000
0100
1000
0001
0010
0100
1000
0001
,
0100
0010
1000
0100
0000
1000
0000
0002
0000
0000
1003
0100
1000
0100
0010
0001
,
1000
0000
0001
0100
0000
0001
0000
0001
0000
0010
0000
0200
0000
0000
0300
1000
,
0002
0203
0300
0002
0003
0020
0030
0200
0300
0000
2000
0000
3001
0100
0001
0100
,
0010
0000
1000
0010
0100
0000
0001
1000
0100
0010
0001
1000
0000
0001
0000
0001
,
1000
0000
0010
0000
0100
0000
0001
0010
0100
1000
0000
0002
0000
0103
0010
0000
,
1000
0100
0100
0001
0000
1000
0010
0100
0001
0000
0010
0000
0100
0000
1000
0000
,
0002
0000
0000
0000
0000
0000
0000
0000
2003
0000
3000
0000
0002
0000
0203
0000
0000
0000
0000
0000
0301
1000
0001
0000
0010
0000
0100
0000
1000
0000
0001
0000
,
0100
0000
0100
0000
1001
0000
0001
0010
0100
1000
0000
0001
0000
1000
0010
0100
,
0010
1000
0001
0010
0100
1000
0001
0100
0010
0100
0001
1000
0100
0010
0001
1000
,
0001
0000
1000
0100
0000
1000
0001
0000
0100
0010
0000
0100
0001
1000
0010
0000
,
1000
0000
0100
0000
0010
0000
0100
0000
1000
0000
0010
0000
0100
0000
0010
0000
1000
0000
0001
0100
0001
0000
1000
0000
0100
0000
0010
0000
0001
1000
0001
0000
,
1000
0010
0100
0010
1000
0001
0010
0100
1000
0010
0100
0001
1000
0100
0010
0100
,
1000
0010
0100
0010
1000
0100
1000
0002
0000
0000
0000
0000
0MM3
0000
0000
0000
;
