#TITLE:Do It Like We Do;
#SUBTITLE:(Al Storm Remix);
#ARTIST:Scott Brown;
#TITLETRANSLIT:;
#SUBTITLETRANSLIT:;
#ARTISTTRANSLIT:;
#CREDIT:;
#BANNER:sb.banner.jpg;
#BACKGROUND:sb.bg.jpg;
#LYRICSPATH:;
#CDTITLE:CDTITLE.jpg;
#MUSIC:Scott Brown - Do It Like We Do (Al Storm remix).mp3;
#OFFSET:-0.080;
#SAMPLESTART:100.000;
#SAMPLELENGTH:12.000;
#SELECTABLE:YES;
#BPMS:0.000=177.220;
#STOPS:;
#BGCHANGES:;
// cache tags:
#FIRSTBEAT:16.000;
#LASTBEAT:351.500;
#SONGFILENAME:Songs/Definitive Keyboard Megapack/Do It Like We Do (Al Storm remix) - Scott Brown(Leone510)/Scott Brown - Do It Like We Do (Al Storm remix).sm;
#HASMUSIC:1;
#HASBANNER:1;
#MUSICLENGTH:128.731;
// end cache tags

//---------------dance-single - ----------------
#NOTES:
     dance-single:
     :
     Hard:
     11:
     0.999,1.000,1.000,0.249,0.113,605.000,263.000,32.000,0.000,12.000:
0000
0000
0000
0000
,
0000
0000
0000
0000
,
0000
0000
0000
0000
,
0000
0000
0000
0000
,
0010
0001
0020
0000
0130
1000
0200
0000
,
0311
1000
0101
1000
0110
0010
1001
0000
,
0101
0100
1100
0010
1001
0001
1010
0100
,
0011
0000
1000
0000
0110
0000
0100
0000
0011
0100
1000
0000
0020
0000
0030
0000
,
1100
0100
0011
0000
0101
0010
1001
0000
,
1100
0010
1001
0010
0101
0010
1100
0000
,
0101
0100
0011
0010
1001
0100
0110
0100
,
0101
0000
0100
0000
1010
0000
0001
0000
1100
0000
0001
0000
0200
0300
0000
0000
,
1100
0100
0011
0000
0101
0010
1001
0000
,
1100
0010
1001
0010
0101
0010
1100
0000
,
0101
0100
0011
0010
1001
0100
0110
0100
,
0101
0100
1010
0001
1100
0002
0000
0203
,
0320
0000
0000
0000
,
0000
0230
0000
0000
0000
0000
0000
0000
,
0000
0301
0010
0100
1000
0010
1000
0010
,
0100
1000
0010
0100
0001
0000
0000
0000
,
0100
0100
1000
0000
0010
0001
0100
0000
,
0100
1000
0001
1000
0010
0100
0010
0000
,
0100
0001
0100
0001
0100
1000
0001
0100
,
1000
0010
0100
0001
0100
0000
0000
0000
,
0101
0000
1100
0000
0101
0100
0021
0100
,
0100
1000
1030
0100
0100
0001
0001
0100
,
1010
0101
1002
0100
0100
1000
1003
0001
,
0001
0100
0100
1000
0011
0100
0010
0100
,
0110
0100
2000
0000
3101
0010
1100
0000
,
0101
0010
0101
1000
0110
0001
1100
0000
,
0110
0100
0101
0001
1010
0010
0110
0100
,
1001
0010
0011
1000
0202
0010
1303
0010
,
0202
0303
1010
0000
0101
0100
1010
0001
,
0110
1000
0101
0010
1000
0001
0100
0000
,
1010
0001
1100
0001
1010
0100
0011
0100
,
1001
0010
0101
1000
0110
0001
1000
0001
,
1010
0001
1100
0001
1010
0100
0011
0100
,
1001
0010
0101
1000
0110
0001
1000
0001
,
1010
0001
1100
0001
1010
0100
0011
0100
,
1001
0000
0010
0000
0101
0000
1000
0000
0110
0000
0001
0000
1000
0010
0002
0000
,
1103
0100
0101
0000
0101
0010
1100
0000
,
1001
0000
0010
0001
0010
0000
0101
0000
1010
0000
1001
0000
0110
0000
0000
0000
,
0101
0000
0100
0001
0100
0000
1010
0000
0100
0010
0001
1000
0101
0000
0100
0000
,
1010
0000
0001
0000
0110
0000
1000
0000
0101
0010
1000
0000
0011
0000
0000
0000
,
1100
0100
0101
0000
0101
0010
1100
0000
,
1001
0000
0010
0001
0010
0000
0101
0000
1010
0000
1001
0000
0110
0000
0000
0000
,
0101
0000
0100
0001
0100
0000
1010
0000
0100
0010
0001
1000
0101
0000
0100
0000
,
1010
0000
0001
0000
0110
0000
1000
0000
0101
0000
0000
0000
0001
0010
2000
0000
,
3101
0100
1010
0010
0101
1000
0110
0001
,
1100
0010
1001
0010
0101
1000
0110
0001
,
1100
0010
0101
0100
1010
0010
0101
1000
,
0110
0001
1100
0010
1001
0010
0101
1000
,
0101
0100
1010
0010
0101
1000
0110
0001
,
1100
0010
1001
0010
0101
1000
0110
0001
,
1100
0010
0101
0100
1010
0010
0101
1000
,
0110
0001
1000
0010
1000
0002
0010
1003
,
0101
0000
1100
0000
0110
0110
0002
0000
,
1103
0000
0101
0100
1010
0001
1100
0000
,
0110
0000
1001
0000
1100
0010
1100
0001
,
1010
0101
1001
1001
,
0101
0000
1100
0000
0110
0110
0002
0000
,
1103
0000
0101
0100
1010
0001
1100
0000
,
0100
0010
0001
0010
1000
0001
0010
0100
1000
0100
0010
1000
0100
0010
0001
0100
,
1000
0010
1000
0010
0001
0100
0010
0100
0002
0000
0023
0000
2030
0000
3010
0000
,
0101
0000
1100
0000
0110
0110
0002
0000
,
1103
0000
0101
0100
1010
0001
1100
0000
,
0110
0000
1001
0011
0000
0011
1100
0001
,
1010
0000
0101
1001
0000
0010
1001
0010
,
0101
0000
1100
0000
0110
0110
0002
0000
,
1103
0000
0101
0100
1010
0001
1100
0000
,
0101
0000
1010
0011
0000
1001
0110
0000
,
1010
0000
0101
1010
0000
0011
1100
0011
,
1100
0010
0101
0010
1001
0100
1010
0100
,
0011
1000
0101
0010
1001
0100
1010
0100
,
0101
1000
0011
0100
1001
0100
1010
0100
,
0011
1000
0101
0010
1100
0001
1010
0001
,
1100
0010
0101
0010
1001
0100
1010
0100
,
0011
1000
0101
0010
1001
0100
1010
0100
,
0101
1000
0011
0100
1001
0100
1010
0100
,
0011
0000
1000
0000
0001
0000
0010
0000
0100
0000
0000
0000
1000
0100
0020
0000
,
0131
0000
1100
0000
0101
0100
1010
0010
,
0101
0100
1010
0010
0110
0010
0011
0010
,
1010
0100
0101
0010
1100
0100
0110
0010
,
0021
0230
2300
3002
,
0113
0000
1000
0001
0100
0000
0010
0000
1100
0000
0001
0000
1100
0000
0010
0000
,
0101
0000
0010
0100
1000
0000
0010
0000
0101
0000
0010
0000
1100
0000
0010
0000
,
0101
0000
1000
0001
1000
0000
0010
0000
0101
0000
0010
0000
0101
0000
1000
0000
,
0110
0000
1000
0010
0001
0000
0101
0000
0000
0000
0020
0000
2030
0000
3000
0000
;
