#TITLE:Final Fantasy II;
#SUBTITLE:- Crystal Theme (Orchestral);
#ARTIST:Unknown artist;
#TITLETRANSLIT:;
#SUBTITLETRANSLIT:;
#ARTISTTRANSLIT:;
#CREDIT:;
#BANNER:;
#BACKGROUND:backgroundFF2.JPG;
#LYRICSPATH:;
#CDTITLE:;
#MUSIC:Final Fantasy II - Crystal Theme (Orchestral).mp3;
#OFFSET:0.000;
#SAMPLESTART:100.000;
#SAMPLELENGTH:12.000;
#SELECTABLE:YES;
#BPMS:0.000=60.000;
#STOPS:;
#BGCHANGES:;
// cache tags:
#FIRSTBEAT:0.000;
#LASTBEAT:176.000;
#SONGFILENAME:Songs/cedric step/Final Fantasy II - Crystal Theme (Orchestral) by le_destructeur/Final Fantasy II - Crystal Theme (Orchestral).sm;
#HASMUSIC:1;
#HASBANNER:0;
#MUSICLENGTH:181.384;
// end cache tags

//---------------dance-single - le_destructeur----------------
#NOTES:
     dance-single:
     le_destructeur:
     Challenge:
     1:
     0.861,1.000,0.717,0.066,1.000,951.000,130.000,12.000,0.000,0.000:
0001
0010
0100
1000
0001
0010
0100
1000
0001
0010
0100
1000
0001
0010
0100
1000
1000
0100
0010
0001
0001
0010
0100
1000
,
1000
0100
0010
0001
0001
0010
0100
1000
1000
0100
0010
0001
0001
0010
0100
1000
1000
0100
0010
0001
0001
0010
0100
1000
,
1000
0100
0010
0001
0001
0010
0100
1000
1000
0100
0010
0001
0001
0010
0100
1000
1000
0100
0010
0001
0001
0010
0100
1000
,
1000
0100
0010
0001
0001
0010
0100
1000
1000
0100
0010
0001
0001
0010
0100
1000
1000
0100
0010
0001
0010
0100
1000
0001
,
0010
0100
1000
0001
0010
0100
1000
1000
0100
0010
0001
0001
0010
0100
1000
1000
0100
0010
0001
0001
0010
0100
1000
1000
,
0100
0010
0001
0001
0010
0100
1000
1000
0100
0010
0001
0001
0010
0100
1000
1000
0100
0010
0001
0001
0010
0100
1000
1000
,
0100
0010
0001
0001
0010
0100
1000
1000
0100
0010
0001
0001
0010
0100
1000
1000
0100
0010
0001
0001
0010
0100
1000
1000
,
0100
0010
0001
0001
0010
0100
1000
1000
0100
0010
0001
0001
0010
0100
1000
1000
0100
0010
0001
0001
0010
0100
1000
1000
,
0100
0010
0001
0000
0010
0100
1000
0001
0010
0100
1000
0001
0010
0100
1000
0001
0010
0100
1000
1000
0100
0010
0001
0001
,
0010
0100
1000
1000
0100
0010
0001
0001
0010
0100
1000
1000
0100
0010
0001
0001
0010
0100
1000
1000
0100
0010
0001
0001
,
0010
0100
1000
1000
0100
0010
0001
0001
0010
0100
1000
1000
0100
0010
0001
0001
0010
0100
1000
1000
0100
0010
0001
0001
,
0010
0100
1000
0001
0010
0100
1000
1000
0100
0010
0001
0001
0010
0100
1000
1000
0100
0010
0001
0001
0010
0100
1000
1000
,
0100
0010
0001
0001
0010
0100
1000
1000
0100
0010
0001
0010
0100
1000
1000
0100
0010
0001
1000
0100
0010
0001
0001
0010
,
0100
1000
0001
0010
0100
1000
0001
0010
0100
1000
0100
0010
0001
0001
0010
0100
1000
1000
0100
0010
0001
0001
0010
0100
,
1000
1000
0100
0010
0001
0001
0010
0100
1000
1000
0100
0010
0001
1000
0100
0010
0001
1000
0100
0010
0001
0001
0010
0100
,
1000
0100
0010
0001
0001
0010
0100
1000
1000
0100
0010
0001
0001
0010
0100
1000
1000
0100
0010
0001
0001
0010
0100
1000
,
0001
0010
0100
1000
0001
0010
0100
1000
0001
0010
0100
1000
0001
0010
0100
1000
0001
0010
0100
1000
2000
0000
0000
0000
,
0000
0000
0000
0000
,
3000
0100
0010
0001
0001
0010
0100
1000
1000
0100
0010
0002
0000
0000
0000
0000
0000
0000
0000
0000
0000
0000
0000
0000
,
0000
0000
0000
0000
,
0003
0010
0100
1000
0001
0010
0100
1000
0001
0010
0100
1000
0001
0010
0100
1000
0001
0010
0100
1000
0001
0010
0100
1000
,
1000
0100
0010
0001
1000
0100
0010
0001
0001
0010
0100
1000
1000
0100
0010
0001
0001
0010
0100
1000
1000
0100
0010
0001
,
0001
0010
0100
1000
1000
0100
0010
0001
0001
0010
0100
1000
1000
0100
0010
0001
0001
0010
0100
1000
1000
0100
0010
0001
,
0001
0001
0010
0100
1000
0001
0010
0100
1000
0001
0010
0100
1000
0001
0010
0100
1000
0001
0010
0100
1000
0001
0010
0100
,
1000
1000
0100
0010
0001
1000
0100
0010
0001
1000
0100
0010
0001
0010
0100
1000
1000
0100
0010
0001
0010
0100
1000
0100
,
0010
0001
0001
0010
0100
1000
1000
0100
0100
0010
0001
0001
0010
0100
1000
1000
0100
0010
0001
1000
0100
0010
0001
0010
,
0100
1000
0001
0010
0100
1000
0001
0010
0100
1000
0001
0010
0100
1000
1000
1000
1000
0100
0010
0001
0001
0001
0001
0010
,
0100
1000
0001
0010
0100
1000
1100
0011
0110
1100
0011
0110
1100
0011
0110
1100
0011
1100
0011
0110
1100
0011
0011
1100
,
1100
0110
0011
1100
0110
0001
0001
0010
0100
1000
0001
0010
0100
1000
1000
0100
0010
0001
0001
0010
0100
1000
1000
0100
,
0010
0001
0001
0010
0100
1000
1000
0100
0010
0001
0001
0010
0100
1000
1000
0100
0010
0001
0001
0010
0100
1000
0001
0010
,
0100
1000
0001
0010
0100
1000
1100
0011
0000
0011
0011
0110
1100
1100
0110
0011
0011
0110
0110
1100
1100
0000
0110
0011
,
0011
0110
1100
1100
0110
0011
0011
0110
1100
1100
0110
0011
0011
1100
0000
0011
0011
0110
1100
1100
0110
0011
0011
0110
,
1100
1100
0110
0011
0011
0110
1100
1000
0001
0010
0100
1000
1000
0100
0010
0001
0001
0010
0100
1000
1000
0100
0010
0001
,
0001
0010
0100
1000
1000
0100
0010
0001
0010
0100
1000
1000
0100
0010
0001
0001
0010
0100
1000
0001
0010
0100
1000
0001
,
0010
0100
1000
0001
0010
0100
1000
0001
0010
0100
1000
1100
0110
0011
1100
0110
0001
0000
1100
0110
0011
1100
0110
0011
,
1100
0110
0001
0011
1100
1100
0011
0011
1100
1100
0011
0011
0110
0110
1100
1100
0110
0001
0011
0011
0110
0110
1100
1100
,
0011
0011
0110
0110
1100
1100
0001
0010
1000
1000
0100
0010
0001
0001
0010
0100
0000
1000
0100
0010
0001
0001
0010
0100
,
1000
1000
0100
0010
0001
0001
0010
0100
1000
1000
0100
0010
0001
0001
0010
0100
1000
1000
0100
0010
0001
0001
0010
0100
,
1000
1000
0100
0010
0001
0001
0010
0100
1000
1000
0100
0010
0001
0001
0010
0100
1000
0001
0010
0100
2000
0000
0000
0000
,
0000
3000
0200
0000
0000
0000
0300
0020
0000
0000
0000
0032
0000
0000
0000
0003
0020
0000
0000
0000
0030
0200
0000
0000
,
0000
2300
0000
0000
0000
3200
0000
0000
0000
0320
0000
0000
0000
0032
0000
0000
0000
0013
0100
1000
0001
0010
0100
1000
,
0100
0010
0001
1000
0100
0010
0001
0001
0010
0100
1000
1000
0100
0010
0001
0001
0010
0100
1000
1000
0100
0010
0001
0010
,
0100
1000
1100
0110
0011
0011
0110
1100
1100
0110
0011
0011
0110
1100
1100
0110
0011
0011
0110
1100
1100
0110
0011
1100
,
0001
0010
0100
1000
1000
0100
0010
0001
0001
0010
0100
1000
1000
0100
0010
0001
0001
0010
0100
1000
1000
0100
0010
0001
,
0001
0000
0000
0000
;

//---------------dance-single - ----------------
#NOTES:
     dance-single:
     :
     Easy:
     1:
     0.000,0.000,0.000,0.000,0.000,0.000,0.000,0.000,0.000,0.000:
0000
0000
0000
0000
;
