#TITLE:DUE_TOMORROW;
#SUBTITLE:;
#ARTIST:Mr. T;
#TITLETRANSLIT:;
#SUBTITLETRANSLIT:;
#ARTISTTRANSLIT:;
#CREDIT:Darkmage;
#BANNER:duetomorrow-bn.png;
#BACKGROUND:duetomorrow-bg.png;
#LYRICSPATH:;
#CDTITLE:!darkmagetitle2.png;
#MUSIC:DUE TOMORROW.ogg;
#OFFSET:-0.026;
#SAMPLESTART:31.200;
#SAMPLELENGTH:19.500;
#SELECTABLE:YES;
#BPMS:0.000=100.000,4.000=200.000,16.000=100.000,18.000=200.000,30.000=100.000,32.000=200.000,160.000=50.000,168.000=200.000,232.000=100.000,248.000=200.000;
#STOPS:;
#BGCHANGES:0.000=duetomorrow-bg.png=1.000=0=0=1,
99999=-nosongbg-=1.000=0=0=0 // don't automatically add -songbackground-
;
// cache tags:
#FIRSTBEAT:4.000;
#LASTBEAT:288.000;
#SONGFILENAME:Songs/Archmage and Dark0wl Hammer of Thor UltraHyperMegaPack/DUE TOMORROW/DUE TOMORROW.sm;
#HASMUSIC:1;
#HASBANNER:1;
#MUSICLENGTH:105.000;
// end cache tags

//---------------dance-double - Darkmage----------------
#NOTES:
     dance-double:
     Darkmage:
     Challenge:
     20:
     1.000,1.000,1.000,0.200,1.000,1304.000,468.000,21.000,0.000,227.000:
00000000
00000000
00000000
00000000
,
10011001
00000000
00000000
00100000
00000000
00000000
00000010
00000000
00000000
01000000
00000000
00000000
00000100
00000000
00000000
10000000
00000000
00000000
00001000
00000000
01000000
00000000
00000100
00000000
00100000
00000000
00000000
00000010
00000000
00000000
00010000
00000000
00000100
00000000
00100000
00000000
00001000
00000000
01000000
00000000
00000100
00000000
00100000
00000000
00000010
00000000
00010000
00000000
,
00000001
00000000
00000000
00100000
00000000
00000000
00010000
00000000
00000000
01000000
00000000
00000000
00100000
00000000
00000000
10000000
00000000
00000000
00000001
00000000
00000010
00000000
00000001
00000000
00000100
00000000
00000000
00001000
00000000
00000000
01000000
00000000
00100000
00000000
00010000
00000000
00100000
00000000
00000100
00000000
00001000
00000000
00000010
00000000
00000100
00000000
01000000
00000000
,
00001000
00000000
00000000
00010000
00000000
00000000
00000100
00000000
00000000
00100000
00000000
00000000
00001000
00000000
00000000
00010000
00000000
00000000
00000010
00000000
00000100
00000000
00000010
00000000
00001000
00000000
00000000
01000000
00000000
00000000
00010000
00000000
00100000
00000000
00010000
00000000
01000000
00000000
00000100
00000000
00001000
00000000
00000010
00000000
00001000
00000000
00000100
00000000
,
10000000
00000000
00000000
00000000
00000000
00000000
01000000
00000000
00000000
00000000
00000000
00000000
00100000
00000000
00000000
00000000
00000000
00000000
00010000
00000000
00000000
00000000
00000000
00000000
00100000
00000000
00000000
00000000
00000000
00000000
01000000
00000000
00000000
00000000
00000000
00000000
00100000
00000000
00000000
00000000
00000000
00000000
00010000
00000000
00000000
00000000
00000000
00000000
00001000
00000000
00000000
00000000
00000000
00000000
00010000
00000000
00000000
00000000
00000000
00000000
00000100
00000000
00000000
00000000
00000000
00000000
00000010
00000000
00000000
00000000
00000000
00000000
00000100
00000000
00000000
00000000
00000000
00000000
00001000
00000000
00000000
00000000
00000000
00000000
00000010
00000000
00000000
00000000
00000000
00000000
00100000
00000000
00000000
00000000
00000000
00000000
10011001
00000000
00000000
00000000
00000000
00000000
00000000
00000000
00000000
00000000
00000000
00000000
00000100
00000000
00000000
00000000
00000000
00000000
00000000
00000000
00000000
00000000
00000000
00000000
00000010
00000000
00000000
00000000
00000000
00000000
00000000
00000000
00000000
00000000
00000000
00000000
10000000
00000000
00000000
00000000
00000000
00000000
00000000
00000000
00000000
00000000
00000000
00000000
01000000
00000000
00000000
00000000
00000000
00000000
00000000
00000000
00000000
00000000
00000000
00000000
00000001
00000000
00000000
00000000
00000000
00000000
00000000
00000000
00000000
00000000
00000000
00000000
00000010
00000000
00000000
00000000
00000000
00000000
00000000
00000000
00010000
00000000
00000000
00000000
00000000
00000000
00000000
00000000
00001000
00000000
00000000
00000000
00000000
00000000
00000000
00000000
,
01000000
00000000
00000000
00000100
00000000
00000000
00100000
00000000
00001000
00000000
00010000
00000000
00000100
00000000
01000000
00000000
00000010
00000000
10000000
00000000
00000001
00000000
01000000
00000000
00001000
00000000
00000000
00000100
00000000
00000000
00100000
00000000
00000000
00010000
00000000
00000000
00000100
00000000
00000000
00000010
00000000
00000000
10000000
00000000
01000000
00000000
00100000
00000000
,
00010000
00000000
00000000
00001000
00000000
00000000
00000001
00000000
00000010
00000000
00000100
00000000
10000000
00000000
01000000
00000000
00100000
00000000
00000010
00000000
00000100
00000000
00001000
00000000
01000000
00000000
00000000
00100000
00000000
00000000
00010000
00000000
00000000
00001000
00000000
00000000
00000100
00000000
00000000
00000010
00000000
00000000
00000100
00000000
00001000
00000000
00010000
00000000
,
00100000
00000000
00000000
00000000
00000000
00000000
00000000
00000000
00000000
00000000
00000000
00000000
01000000
00000000
00000000
00000000
00000000
00000000
00000000
00000000
00000000
00000000
00000000
00000000
10000000
00000000
00000000
00000000
00000000
00000000
00000000
00000000
00100000
00000000
00000000
00000000
00000000
00000000
00000000
00000000
00001000
00000000
00000000
00000000
00000000
00000000
00000000
00000000
00000010
00000000
00000000
00000000
00000000
00000000
00000000
00000000
01000000
00000000
00000000
00000000
00000000
00000000
00000000
00000000
00010000
00000000
00000000
00000000
00000000
00000000
00000000
00000000
00000100
00000000
00000000
00000000
00000000
00000000
00000000
00000000
00000001
00000000
00000000
00000000
00000000
00000000
00000000
00000000
00100000
00000000
00000000
00000000
00000000
00000000
00000000
00000000
10000000
00000000
00000000
00000000
00000000
00000000
00000001
00000000
00000000
00000000
00000000
00000000
01000000
00000000
00000000
00000000
00000000
00000000
00000010
00000000
00000000
00000000
00000000
00000000
00100000
00000000
00000000
00000000
00000000
00000000
00000100
00000000
00000000
00000000
00000000
00000000
00010000
00000000
00000000
00000000
00000000
00000000
00001000
00000000
00000000
00000000
00000000
00000000
00010000
00000000
00000000
00000000
00000000
00000000
00000100
00000000
00000000
00000000
00000000
00000000
00100000
00000000
00000000
00000000
00000000
00000000
00000010
00000000
00000000
00000000
00000000
00000000
01000000
00000000
00000000
00000000
00000000
00000000
00000001
00000000
00000000
00000000
00000000
00000000
10000000
00000000
00000000
00000000
00000000
00000000
00000010
00000000
00000000
00000000
00000000
00000000
,
01011100
00000000
00000000
00000010
00000000
00000000
10000000
00000000
00000000
00000001
00000000
00000000
01000000
00000000
00000000
00000010
00000000
00000000
10010000
00000000
00001000
00000001
00010000
00000000
01001000
00000000
00000000
00000010
00000000
00000000
10010000
00000000
00001000
00000001
00100000
00000000
01000100
00000000
00010000
00000010
00001000
00000000
10100000
00000000
00000100
00000001
00010000
00000000
,
01001000
00000000
00000000
00100000
00000000
00000000
00000100
00000000
00000000
00000010
00000000
00000000
01000000
00000000
00000000
00100000
00000000
00000000
10000100
00000000
00000001
00000010
10000000
00000000
01000001
00000000
00000000
00100000
00000000
00000000
00010100
00000000
00000001
00000010
10000000
00000000
01001000
00000000
00010000
00100000
00000001
00000000
10000100
00000000
00001000
00000010
00010000
00000000
,
10001000
00000000
00000000
00000001
00000000
00000000
00100000
00000000
00000000
00000100
00000000
00000000
10000000
00000000
00000000
00000001
00000000
00000000
00101000
00000000
01000000
00000100
00000010
00000000
10010000
00000000
00000000
00000001
00000000
00000000
00101000
00000000
01000000
00000100
00010000
00000000
10000010
00000000
00001000
00000001
00010000
00000000
00100010
00000000
01000000
00000100
00001000
00000000
,
10010000
00000000
00000000
01000000
00000000
00000000
10000000
00000000
00000000
00100000
00000000
00000000
01000000
00000000
00000000
00010000
00000000
00000000
00100000
00000000
00000000
00001000
00000000
00000000
00010000
00000000
00000000
00000100
00000000
00000000
00000010
00000000
00000001
00000010
00000100
00000000
00001000
00000000
00010000
00100000
01000000
00000000
10000000
00000000
01000000
00100000
00010000
00000000
,
10001001
00000000
00000000
01000010
00000000
00000000
10000001
00000000
00000000
01000010
00000000
00000000
10000001
00000000
00000000
01000010
00000000
00000000
10010001
00000000
00001000
01000010
00010000
00000000
10001001
00000000
00000000
01000010
00000000
00000000
10010001
00000000
00001000
01000010
00010000
00000000
10001001
00000000
00010000
01000010
00001000
00000000
10010001
00000000
00001000
01000010
00010000
00000000
,
10001001
00000000
00000000
00100000
00000000
00000000
01000000
00000000
00000000
00100000
00000000
00000000
01000000
00000000
00000000
00100000
00000000
00000000
01001000
00000000
00000100
00100000
00000010
00000000
01000001
00000000
00000000
00100000
00000000
00000000
01001000
00000000
00000100
00100000
00000010
00000000
01000001
00000000
00001000
00100000
00000100
00000000
01000010
00000000
00000001
00100000
00001000
00000000
,
01000010
00000000
00000000
00000100
00000000
00000000
00000010
00000000
00000000
00000100
00000000
00000000
00000010
00000000
00000000
00000100
00000000
00000000
00010010
00000000
00100000
00000100
01000000
00000000
10000010
00000000
00000000
00000100
00000000
00000000
00010010
00000000
00100000
00000100
01000000
00000000
10000010
00000000
00010000
00000100
00100000
00000000
01000010
00000000
10000000
00000100
00010000
00000000
,
10000010
00000000
00000000
01000000
00000000
00000000
00100000
00000000
00000000
00010000
00000000
00000000
00001000
00000000
00000000
00000100
00000000
00000000
00000010
00000000
00000000
00000001
00000000
00000000
00000010
00000000
00000000
00000100
00000000
00000000
00001000
00000000
00010000
00100000
01000000
00000000
10000000
00000000
01000000
00100000
00010000
00000000
00001000
00000000
00000100
00000010
00000001
00000000
,
10011001
01001000
10010000
10001000
01010000
01001000
00010000
00001000
00010001
00001010
00010001
00001001
00010010
00001010
00010000
00001000
,
10010000
01001000
10010000
10001000
01010000
01001000
00010000
00001000
00010001
00001010
00010001
00001001
00010010
00001010
00010000
00001000
,
10010000
01001000
10010000
10001000
01010000
01001000
00010000
00001000
00010001
00001010
00010001
00001001
00010010
00001010
00010000
00001000
,
10100000
01010000
00101000
00010100
00001010
00000101
00001010
00010100
00101000
01010000
10100000
01010000
00101000
00010100
00001010
00000101
,
11010001
00001010
11010000
11001000
00010011
00001011
00010000
00001000
00010011
01001000
00010110
00001110
11010000
11001000
00010000
00001000
,
10100000
00000101
10011000
00011001
10100100
00100101
10000000
00000001
10001000
00010001
10100100
00100101
10011000
00011001
10000000
00000001
,
01010000
00001010
11010000
11001000
00010011
00001011
00010000
00001000
01010000
00001010
11010000
11001000
00010011
00001011
00010000
00001000
,
00110000
00001100
01100000
00000110
11000000
00000011
01100000
00000110
00110000
00001100
00010000
00001000
00110000
00001100
01010000
00001010
,
10010101
00000000
00000000
01000000
00000000
00000000
00100000
00000000
00000000
00010000
00000000
00000000
00100000
00000000
00000000
01000000
00000000
00000000
10000100
00000000
00000010
01000000
00000100
00000000
00100010
00000000
00000000
00010000
00000000
00000000
00100100
00000000
00000010
01000000
00000100
00000000
10000010
00000000
00000100
01000000
00000010
00000000
00100100
00000000
00000010
00010000
00000100
00000000
,
00001000
00000000
00000000
00000100
00000000
00000000
00000010
00000000
00000000
00000001
00000000
00000000
00000010
00000000
00000000
00000100
00000000
00000000
01001000
00000000
00100000
00000100
01000000
00000000
00100010
00000000
00000000
00000001
00000000
00000000
01000010
00000000
00100000
00000100
01000000
00000000
00101000
00000000
01000000
00000100
00100000
00000000
01000010
00000000
00100000
00000001
01000000
00000000
,
00010000
00000000
00000000
00100000
00000000
00000000
01000000
00000000
00000000
10000000
00000000
00000000
01000000
00000000
00000000
00100000
00000000
00000000
00010010
00000000
00000001
00100000
00000010
00000000
01000001
00000000
00000000
10000000
00000000
00000000
01000010
00000000
00000001
00100000
00000010
00000000
00010001
00000000
00000010
00100000
00000001
00000000
01000010
00000000
00000001
10000000
00000010
00000000
,
01000000
00000000
00000000
00010000
00000000
00000000
00000100
00000000
00000000
00000001
00000000
00000000
00000100
00000000
00000000
00010000
00000000
00000000
01000000
00000000
00000000
00010000
00000000
00000000
00000100
00000000
00000000
00000001
00000000
00000000
10000100
00000000
00100000
00010000
00001000
00000000
01000010
00000000
00001000
00010000
00100000
00000000
10000100
00000000
00100000
00000001
00001000
00000000
,
10010110
00000000
00000000
01000000
00000000
00000000
00100000
00000000
00000000
00010000
00000000
00000000
01000000
00000000
00000000
00100000
00000000
00000000
00010010
00000000
00000100
01000000
00001000
00000000
00100100
00000000
00000000
00010000
00000000
00000000
01000010
00000000
00000100
00100000
00001000
00000000
00010100
00000000
00000010
01000000
00000100
00000000
00101000
00000000
00000100
00010000
00000010
00000000
,
00001000
00000000
00000000
00000100
00000000
00000000
00000010
00000000
00000000
00001000
00000000
00000000
00000100
00000000
00000000
00000010
00000000
00000000
10001000
00000000
01000000
00000100
00100000
00000000
10000010
00000000
00000000
00001000
00000000
00000000
10000100
00000000
01000000
00000010
00100000
00000000
10001000
00000000
01000000
00000100
00100000
00000000
10000010
00000000
01000000
00001000
10000000
00000000
,
00100000
00000000
00000000
00010000
00000000
00000000
00001000
00000000
00000000
00000100
00000000
00000000
00001000
00000000
00000000
00010000
00000000
00000000
00100001
00000000
00000010
00010000
00000001
00000000
00001010
00000000
00000000
00000100
00000000
00000000
10001000
00000000
01000000
00010000
10000000
00000000
00100001
00000000
00000010
00010000
00000001
00000000
00001010
00000000
00000001
00000100
00000010
00000000
,
10000001
00000000
00000000
00100000
00000000
00000000
00010000
00000000
00000000
00001000
00000000
00000000
00000010
00000000
00000000
00000001
00000000
00000000
00000010
00000000
00000000
00001000
00000000
00000000
00010000
00000000
00000000
00100000
00000000
00000000
10000000
00000000
01000000
00100000
00000100
00000000
00010000
00000000
01000000
00001000
00000100
00000000
00000010
00000000
01000000
00000001
00000100
00000000
,
10001010
01000100
10011000
01011000
10000110
01000110
10000000
01000000
10011000
01000001
10000110
01000110
10011000
01011000
10000000
01000000
,
10000011
01000100
10001010
01001010
10000101
01000101
10000000
01000000
10011000
01000100
10001010
01001010
10000101
01000101
10000000
01000000
,
10000011
01000100
10011000
01011000
10000101
01000101
10000000
01000000
10011000
01000100
10001010
01001010
10010100
01010100
10000000
01000000
,
10100000
01010000
00101000
00010100
00001010
00000101
00001010
00010100
00101000
01010000
00101000
00010100
00001010
00010100
00101000
01000100
,
10011001
01000010
10100001
10100010
01010001
01010010
00000001
00000010
00011001
00100010
01010001
01010010
10100001
10100010
00000001
00000010
,
01010001
00001010
01100001
01100010
10010001
10010010
00000001
00000010
01100001
10000010
01010001
01010010
00101001
00101010
00000001
00000010
,
01100001
10000010
00110001
00110010
11000001
11000010
00000001
00000010
01010001
00100010
11000001
11000010
00110001
00110010
00000001
00000010
,
10010001
01001000
00100100
00010010
00001001
00010010
00100100
01001000
10100000
01010000
00101000
00010100
00001010
00000101
00110000
00011000
,
10011001
00000000
00100000
10000000
00010000
00000000
10000010
00000000
00000100
10000000
00100000
00000000
11000000
00000000
00000100
10000000
00000001
00000000
10100000
00000000
00010000
10000000
00000100
00000000
10001000
00000000
01000000
10000000
00010000
00000000
10000001
00000000
00001000
10000000
00000100
00000000
10100000
00000000
00001000
10000000
01000000
00000000
10000010
00000000
00010000
10000000
00000100
00000000
,
10101000
00000000
00010000
10000000
00000010
00000000
10001000
00000000
00000100
10000000
01000000
00000000
10100000
00000000
00001000
10000000
00000010
00000000
10010000
00000000
00100000
10000000
00000100
00000000
10011000
00000000
00000010
10000000
01000000
00000000
10001000
00000000
00010000
10000000
00000100
00000000
10200010
00000000
00000001
10000000
00010000
00000000
10000010
00000000
00001000
10000000
00000100
00000000
,
11310002
11110000
11110000
11110000
11110000
11110000
11110000
11110000
,
11110000
00000000
11110000
00000000
11110000
00000000
11110000
00000000
11110000
00001110
11110000
00000000
11110000
00001110
11110000
00000000
,
20001113
00001111
00001111
00001111
00001111
00001111
00001111
00001111
,
00001111
00000000
00001111
00000000
00001111
00000000
00001111
00000000
00001111
01110000
00001111
00000000
00001111
01110000
00001111
00000000
,
31122110
01100110
01100110
01100110
01100110
01100110
01100110
01100110
,
01100110
00000000
01100110
00000000
01100110
00000000
01100110
00000000
01100110
10000001
01100110
00000000
01100110
10000001
01100110
00000000
,
21133112
00011000
01100110
00011000
01100110
00011000
01100110
00011000
,
01100110
00011000
00100110
01011000
00100100
01010010
00101100
00010010
32222223
03000000
00300000
00030000
00003000
00000000
00000300
00000000
,
10000030
01000000
00100000
00010000
00100000
01000000
10000000
00000001
01000000
00100000
00010000
00001000
00000100
00000010
00000001
00000010
,
10000000
01000000
00100000
00010000
00100000
01000000
10000000
00000001
10000000
01000000
00100000
00010000
00001000
00000100
00000010
00000001
,
10000000
01000000
00100000
00010000
00100000
01000000
10000000
00000001
10000000
01000000
00100000
00010000
00001000
00000100
00000010
00000001
,
10000000
00100000
00010000
00001000
00000100
00001000
00010000
00100000
10000000
01000000
00100000
00010000
00001000
00000100
00000010
00000001
,
10011001
01000000
00100000
00010000
00001000
00000100
00000010
01000000
10000000
01000000
00100000
00010000
00001000
00000100
00000010
00000001
,
10000000
01000000
00100000
00010000
00100000
01000000
00001000
00000100
10000000
01000000
00100000
00010000
00001000
00000100
00000010
00000001
,
00100000
00010000
00001000
00000001
00000010
00000100
00001000
01000000
10000000
00100000
00010000
00001000
00000100
00000010
00000001
00000100
,
10100000
01000000
00011000
00000010
00000101
01000000
00011000
00000010
10000000
01000000
00100000
00010000
00001000
00000100
00000010
00000001
,
10000000
01000000
00100000
10000000
01000000
00100000
10000000
01000000
00100000
10000000
01000000
00100000
10000000
01000000
00100000
10000000
01000000
00100000
10000000
01000000
00100000
10000000
01000000
00100000
10000000
01000000
00100000
10000000
01001001
00100000
10001001
01000000
,
00100000
00010000
00001000
00100000
00010000
00001000
00100000
00010000
00001000
00100000
00010000
00001000
00100000
00010000
00001000
00100000
00010000
00001000
00100000
00010000
00001000
00100000
00010000
00001000
00100000
00010000
00001000
00100000
00010000
00001000
10100000
00010000
,
10100001
00000010
00000100
00000001
00000010
00000100
00000001
00000010
00000100
00000001
00000010
00000100
00000001
00000010
10100100
10100001
10100010
00000100
00000001
00000010
00000100
00001000
00010000
00000001
00000010
00000100
00001000
00010000
00000001
00000010
10100100
10101000
,
10100001
00000010
10100100
00001000
00000001
00000010
10100100
10101000
10100001
00000010
10100100
00001000
00000001
00000010
10100100
00001000
00000011
00110000
00001100
01100000
00000011
11000000
00001100
00110000
00000011
11000000
00001100
00110000
00000011
11000000
00001100
00110000
,
10011001
00100000
00010000
00001000
11000100
00010010
00000100
00001000
11000001
00100000
00000100
00010000
11000010
00001000
00000100
10000000
,
00110001
00000100
00000010
10000000
00110100
00000001
00001000
00000010
10110000
00000100
01000000
10000000
00110001
00000010
00000001
00010000
,
01001100
00100000
10000000
01000000
00101100
00000001
00000010
00000001
01001100
10000000
00100000
01000000
00101100
00000001
00000010
00001000
,
00010011
00100000
01000000
00001000
10000011
00100000
01000000
00010000
00000111
00100000
00010000
01000000
00100011
00000100
00010000
00001000
,
10100010
00000001
00001000
01100100
00000010
00000001
01010100
00000010
00001000
00000001
01011000
00100000
10001100
00100000
00010011
00001000
,
11000100
00000010
00000001
00110100
00000010
01000000
10011000
01000000
00100000
00000001
01001100
00100000
10000110
00010000
00100011
00001000
,
10100100
00000010
00000001
10101000
01000000
00010000
10001010
00100000
01000000
00001000
00010011
01000000
10001100
00000001
00110010
00000100
,
11000000
00000011
00011000
01100000
00000110
00011000
10100000
00001001
01000100
00010010
10001000
00010001
00100100
00011000
00100100
00011000
,
22222222
00000000
00000000
00000000
,
33333333
00000000
00000000
00000000
;

//---------------dance-single - Darkmage----------------
#NOTES:
     dance-single:
     Darkmage:
     Challenge:
     16:
     1.000,1.000,0.429,0.019,1.000,1124.000,45.000,2.000,0.000,0.000:
0000
0000
0000
0000
,
1000
0000
0010
0000
0100
0000
0001
0000
1000
0000
0100
0000
0001
0100
1000
0000
0100
0000
0010
0000
0001
0100
1000
0000
0100
0010
1000
0000
0100
0010
0001
0000
,
1000
0000
0010
0000
0100
0000
0001
0000
0010
0000
0100
0000
1000
0010
0001
0000
0010
0000
0100
0000
0001
0010
0100
0000
1000
0010
0100
0000
0001
0010
0100
0000
,
1000
0000
0010
0000
0100
0000
0001
0000
1000
0000
0100
0000
0010
0100
1000
0000
0001
0000
0100
0000
0010
1000
0001
0000
0010
0100
0001
0000
0100
1000
0010
0000
,
1000
0100
0010
0001
1000
0100
0010
0001
1000
0100
0010
0001
1000
0100
0010
0001
1000
0000
0100
0000
0010
0000
0001
0000
1000
0000
0010
0000
0100
0001
0100
0000
,
0001
0000
0010
0000
0100
1000
0100
0000
1000
0100
1000
0000
0100
1000
0100
0000
1000
0000
0010
0000
0100
0000
0001
0000
0010
0000
0100
0000
1000
0100
0010
0000
,
0001
0000
1000
0000
0010
0100
0001
0000
1000
0100
0010
0000
0100
0010
0001
0000
1000
0000
0010
0000
0100
0000
0001
0000
0010
0000
0100
0000
1000
0100
0010
0000
,
0001
0000
0100
0000
0010
1000
0001
0000
1000
0100
0001
0000
0100
1000
0010
0000
0100
0010
1000
0001
0010
0100
1000
0010
0100
0001
0010
0100
1000
0010
0100
0001
,
1000
0000
0100
0000
0010
0000
0001
0000
1000
0000
0010
0000
0100
0001
0100
0000
0010
0000
1000
0000
0001
0010
0001
0000
0010
0100
0010
0000
1000
0100
1000
0000
,
0010
0000
0100
0000
0001
0000
0010
0000
0100
0000
1000
0000
0001
0100
0001
0000
0100
0000
0010
0000
1000
0010
1000
0000
0100
1000
0100
0000
0010
0100
0010
0000
,
0100
0000
1000
0000
0010
0000
0100
0000
0001
0000
1000
0000
0100
1000
0100
0000
1000
0000
0010
0000
0100
0001
0100
0000
0010
1000
0010
0000
1000
0100
1000
0000
,
0100
0010
0001
1000
0010
0100
0001
0010
0100
1000
0010
0100
0001
0010
0100
1000
,
0001
0000
0100
0000
0010
0000
1000
0000
0100
0000
1000
0000
0010
0100
0010
0000
1000
0000
0100
0000
0010
0100
0010
0000
0100
1000
0100
0000
1000
0010
1000
0000
,
0001
0000
0100
0000
0010
0000
1000
0000
0100
0000
0010
0000
0100
1000
0100
0000
1000
0000
0010
0000
0100
0001
0100
0000
0010
0100
0010
0000
1000
0010
1000
0000
,
0001
0000
0100
0000
0010
0000
1000
0000
0100
0000
0010
0000
0001
1000
0001
0000
1000
0000
0010
0000
0100
0001
0100
0000
0010
1000
0010
0000
1000
0100
1000
0000
,
0100
0010
0001
1000
0010
0100
0001
0100
0010
1000
0010
0100
0001
0010
0100
1000
,
0001
0010
0001
0010
0001
0100
0000
0000
0010
1000
0010
1000
0010
0100
0000
0000
,
0001
1000
0001
1000
0001
0010
0000
0000
0100
1000
0100
1000
0100
0010
0000
0000
,
0001
0010
0001
0010
0001
1000
0000
0000
0010
0100
0010
0100
0010
0001
0000
0000
,
0010
0100
0001
0010
0100
1000
0010
0100
0010
1000
0100
0010
0001
0010
0100
1000
,
0010
0100
0001
0100
0010
1000
0000
0000
0100
1000
0010
0100
0001
0010
0000
0000
,
0100
0001
0100
0010
0001
1000
0000
0000
0010
0100
0001
0100
1000
0100
0000
0000
,
0010
1000
0010
0001
0010
0100
0000
0000
0001
0010
0100
0001
0100
1000
0000
0000
,
0100
1000
0010
0100
0010
1000
0100
0010
0100
0010
0001
1000
0010
0100
0001
0100
,
0010
0000
1000
0000
0001
0000
0010
0000
0100
0000
1000
0000
0001
0100
0001
0000
0100
0000
0010
0000
1000
0100
1000
0000
0100
1000
0100
0000
1000
0100
1000
0000
,
0100
0000
0010
0000
0100
0000
1000
0000
0010
0000
0100
0000
0001
0010
0001
0000
0100
0000
0010
0000
0100
0001
0100
0000
0001
0010
0001
0000
0100
0001
0100
0000
,
0010
0000
1000
0000
0001
0000
0010
0000
0100
0000
0010
0000
0001
1000
0001
0000
1000
0000
0010
0000
0100
0010
0100
0000
0010
1000
0010
0000
1000
0010
1000
0000
,
0001
0100
0010
1000
0001
0010
0100
1000
0100
0010
0001
1000
0010
0100
0001
0100
,
0010
0000
1000
0000
0001
0000
1000
0000
0100
0000
0010
0000
0100
1000
0100
0000
0010
0000
0001
0000
1000
0010
1000
0000
0001
0100
0001
0000
1000
0100
1000
0000
,
0010
0000
0100
0000
0001
0000
0100
0000
0010
0000
1000
0000
0001
0010
0001
0000
0100
0000
0010
0000
1000
0100
1000
0000
0100
0010
0100
0000
1000
0010
1000
0000
,
0100
0000
0010
0000
0001
0000
1000
0000
0010
0000
0100
0000
0001
0100
0001
0000
0100
0000
0010
0000
1000
0010
1000
0000
0010
0100
0010
0000
0100
0001
0100
0000
,
0001
0010
0100
1000
0100
0010
0001
1000
0010
0100
0001
0100
0010
1000
0001
0010
,
0100
1000
0100
0010
0100
0001
0000
0000
0001
0100
0010
0100
1000
0010
0000
0000
,
0010
0100
1000
0100
0010
1000
0000
0000
1000
0010
1000
0001
0010
0100
0000
0000
,
0100
0001
0100
0010
0001
1000
0000
0000
1000
0010
0100
1000
0100
0010
0000
0000
,
0010
0100
0001
0010
0100
0001
0100
1000
0001
0100
1000
0100
0010
1000
0001
0010
,
0100
0001
0100
0010
0100
1000
0000
0000
1000
0001
0100
1000
0100
0010
0000
0000
,
0010
0100
0001
0010
0100
1000
0000
0000
1000
0100
0010
0100
0001
0100
0000
0000
,
0100
1000
0010
0100
0001
0010
0000
0000
0010
0001
0100
0010
1000
0100
0000
0000
,
0100
1000
0100
0001
0100
0010
0001
1000
0010
0100
1000
0100
0010
1000
0001
0010
,
1001
0000
0100
0000
,
0010
0000
0001
0000
,
1000
0001
1000
0001
1000
0001
1000
0001
,
1000
0000
0001
0000
1000
0000
0001
0000
1000
0001
1000
0000
0001
1000
0001
0000
,
0100
0010
0100
0010
0100
0010
0100
0010
,
0100
0000
0010
0000
0100
0000
0010
0000
0100
0010
0100
0000
0010
0100
0010
0000
,
1100
1100
0011
0011
0101
0101
1010
1010
,
1100
0000
1100
0000
0011
0000
0011
0000
1100
1100
1100
0000
0011
0011
0011
0000
,
1010
1010
0101
0101
0011
0011
1100
1100
,
1010
1010
0110
0110
0101
0101
0011
0011
1001
0000
0000
0000
0000
0000
0000
0000
,
1000
0100
0010
0001
1000
0100
0010
0001
1000
0100
0010
0001
1000
0100
0010
0001
,
1000
0100
0010
0001
1000
0100
0010
0001
1000
0100
0010
0001
1000
0100
0010
0001
,
1000
0100
0010
0001
1000
0100
0010
0001
1000
0100
0010
0001
1000
0100
0010
0001
,
1000
0100
0010
0001
1000
0100
0010
0001
1000
0100
0010
0001
1000
0100
0010
0001
,
1000
0010
0100
1000
0100
0010
1000
0001
0010
0100
0001
0100
1000
0001
0100
1000
,
0100
0010
1000
0001
0010
1000
0010
0001
1000
0100
0001
0100
0010
0001
0010
1000
,
0010
0100
1000
0001
0100
0010
0001
1000
0100
0010
1000
0001
0010
0100
0001
0100
,
1000
0100
0010
0001
1000
0100
0010
0001
1000
0100
0010
0001
1000
0100
0010
0001
,
1000
0100
1000
0100
1000
0100
1000
0100
1000
0010
1000
0010
1000
0010
1000
0010
0100
0010
0100
0010
0100
0010
0100
0010
0100
0001
0100
0001
0100
0001
0100
0001
,
0010
0001
0010
0001
0010
0001
0010
0001
0100
0001
0100
0001
0100
0001
0100
0001
1000
0001
1000
0001
1000
0001
1000
0001
0010
0001
0010
0001
0010
0001
0010
0001
,
0010
0100
0010
0100
0010
0100
0010
0100
0010
1000
0010
1000
0010
1000
0010
1000
0010
0100
0010
0100
0010
0100
0010
0100
0010
0001
0010
0001
0010
0001
0010
0001
,
1000
0010
1000
0010
0100
0010
0100
0010
1000
0001
1000
0001
0010
0100
0010
0100
1000
0100
1000
0100
0010
0001
0010
0001
1000
0010
1000
0010
0100
0001
0100
0001
,
1000
0100
0001
0100
1000
0100
0001
0100
1000
0100
0001
0100
1000
0100
0001
0100
,
1000
0010
0001
0010
1000
0010
0001
0010
1000
0010
0001
0010
1000
0010
0001
0010
,
0100
0001
0010
0001
0100
0001
0010
0001
0100
0001
0010
0001
0100
0001
0010
0001
,
1000
0010
0100
0010
1000
0010
0100
0010
1000
0010
0100
0010
1000
0010
0100
0010
,
1000
0100
0010
0100
1000
0100
0010
0100
1000
0100
0010
0100
1000
0100
0010
0100
,
1000
0100
0001
0100
1000
0100
0001
0100
1000
0100
0001
0100
1000
0100
0001
0100
,
0010
0100
1000
0100
0010
0100
1000
0100
0010
0100
1000
0100
0010
0100
1000
0100
,
0010
0001
0010
0001
0010
0001
0010
0001
1100
1100
1100
1100
1100
1100
1100
1100
,
2200
0000
0000
0000
,
0000
0000
0000
0000
,
3300
0000
0000
0000
;
