#TITLE:Southern Cross;
#SUBTITLE:;
#ARTIST:403;
#TITLETRANSLIT:;
#SUBTITLETRANSLIT:;
#ARTISTTRANSLIT:;
#CREDIT:;
#BANNER:../fallback-bn.png;
#BACKGROUND:../fallback-bg.png;
#LYRICSPATH:;
#CDTITLE:Kotarouchan.png;
#MUSIC:sc.ogg;
#OFFSET:-0.225;
#SAMPLESTART:58.845;
#SAMPLELENGTH:12.000;
#SELECTABLE:YES;
#BPMS:0.000=171.141,8.000=85.570,40.000=171.141,350.000=85.576,385.000=171.141,517.000=85.576,524.000=171.141;
#STOPS:38.000=0.033
;
#BGCHANGES:;
// cache tags:
#FIRSTBEAT:0.000;
#LASTBEAT:550.000;
#SONGFILENAME:Songs/SSSC PACK/[Zarkonis] - Southern Cross/steps.sm;
#HASMUSIC:1;
#HASBANNER:1;
#MUSICLENGTH:222.040;
// end cache tags

//---------------dance-single - ----------------
#NOTES:
     dance-single:
     :
     Challenge:
     13:
     1.000,1.000,0.851,0.032,1.000,1642.000,189.000,7.000,2.000,1.000:

0000
0000
0000
0000
,
0000
0000
0000
0000
,
1001
0001
0100
0110
1010
1001
0011
0010
0100
1100
0110
0011
,
0101
0100
0010
1010
1100
1001
0011
0010
0100
0000
0000
0100
,
1100
1000
0010
0100
0110
0101
1001
1000
0100
0110
1100
0011
,
0110
0010
0001
0101
0011
1100
1001
0001
0100
0000
0000
0100
,
0110
0000
0000
0000
1010
0010
0110
0000
0000
0101
0001
0010
,
1100
1000
0100
0110
0011
1100
1001
0001
0100
0000
0000
0100
,
0110
0010
1000
1100
0110
1100
0011
0001
0100
0110
1010
0110
,
0101
0000
0000
0000
0000
0000
0000
0000
0000
0000
0000
0000
0000
0000
0000
0000
0001
0000
0000
0000
0000
0000
0000
0000
0000
0000
0000
0000
0000
0000
0000
0000
1000
0000
0000
0000
0000
0000
0000
0000
0000
0000
0000
0000
0000
0000
0000
0000
1010
0000
0000
0000
0000
0000
0000
0000
0000
0000
0000
0000
0000
0000
0000
0000
0010
0000
0000
0000
0000
0000
0000
0000
0000
0000
0000
0000
0000
0000
0000
0000
0100
0000
0000
0000
0000
0000
0000
0000
0000
0000
0000
0000
0000
0000
0000
0000
1001
0000
0000
0000
0000
0000
0000
0000
0000
0000
0000
0000
0000
0000
0000
0000
0000
0000
0000
0000
0000
0000
0000
0000
0000
0000
0000
0000
0000
0000
0000
0000
0000
0000
0000
0000
0000
0000
0000
0000
0000
0000
0000
0000
0000
0000
0000
0000
0000
0000
0000
0000
0000
0000
0000
0000
0000
0000
0000
0000
0000
0000
0000
0000
0000
0000
0000
0000
0000
0000
0000
0000
1000
0000
0000
0000
0000
0000
0001
0000
0000
0000
0000
0000
1000
0000
0000
0000
0000
0000
0001
0000
0000
0000
0000
0000
,
1000
0000
0000
0000
0110
0000
0000
0000
1001
0000
0000
0000
0001
0000
0010
0001
,
0010
0000
0100
1000
0100
0000
0010
0001
0100
0010
1000
0010
0100
0001
1000
0001
,
1001
0000
0000
0000
1010
0000
0000
0000
0101
0000
0000
0000
0100
0000
0010
1000
,
0010
0100
0001
1000
0001
0010
0001
1000
0001
0000
0000
0000
1000
0001
1000
0001
,
1001
0000
0011
0000
1100
0000
1001
0011
,
0101
0000
0011
0000
1010
0000
1000
0100
,
0110
0000
0100
0010
0001
0000
1000
0000
0001
0000
1000
0010
0100
0000
0010
0000
,
1010
0000
0010
0100
0001
1000
0001
0000
0100
0001
0100
0000
0010
0000
0110
0000
,
1001
0000
0001
0010
0001
1000
0000
0010
1000
0000
0010
1000
0001
1000
0010
0100
,
0001
0000
0010
0001
0100
0000
0010
1000
0100
0000
0010
0000
0001
0000
1000
0000
,
0001
0010
0001
0010
0100
1000
0100
1000
0010
1000
0010
1000
0001
0100
0001
0100
,
0010
0000
1000
0100
1000
0000
0010
0100
0001
0000
0010
0000
0001
0000
0100
0000
,
0010
1000
0001
0010
0001
1000
0100
0010
0100
0010
0001
1000
0010
0100
0001
0100
,
0010
1000
0010
1000
0001
0100
0001
0100
0010
0100
0010
0100
0010
1000
0100
0010
,
0001
1000
0001
1000
0010
1000
0010
1000
0001
0100
0001
0100
0010
1000
0010
0100
,
0001
1000
0001
1000
0001
0100
0010
1000
0001
0000
0000
1001
0000
0000
1100
0000
,
1000
0100
1000
0010
0100
0001
0010
0001
1000
0100
1000
0100
0010
0001
0010
0001
,
1000
0000
0010
1000
0001
0000
0100
0001
1000
0000
0100
0000
0010
0000
0001
0000
,
1000
0100
0010
0001
0100
0001
0010
0001
1000
0100
0010
0100
1000
0010
0100
0001
,
1000
0000
0010
1000
0100
0000
0010
0001
1000
0000
0010
0000
0100
0000
0001
0000
,
0100
0010
0100
0001
1000
0001
1000
0100
0010
0001
0010
0100
1000
0010
0100
0001
,
1000
0010
1000
0010
0100
0001
0100
0001
1000
0001
1000
0001
1000
0100
0010
0001
,
1000
0010
1000
0010
0100
0010
0100
0001
1000
0000
0101
0000
1010
0000
1100
0000
,
0001
1000
0001
1000
0001
0100
0010
1000
0100
1000
0010
0100
0001
0010
0001
1000
,
0001
0000
0100
0010
1000
0010
0100
0001
1000
0100
0010
0001
1000
0001
0010
0100
,
0010
0001
0100
0001
1000
0001
0100
0001
0010
0001
1000
0001
0010
0001
1000
0010
,
0100
0000
0010
0100
0001
0000
0100
0001
1000
0000
0000
0000
1001
0000
0000
0000
,
1001
1000
0100
0010
0001
0100
0101
0001
1000
0010
0100
0010
,
0110
0100
0001
0101
0100
0010
1010
0000
0000
1100
0100
0010
,
0011
0000
0000
0101
0100
0010
0110
0000
0000
1010
1000
0100
,
0110
0010
0001
1001
1000
0010
0110
0000
0000
1001
0000
1000
,
1001
0000
0000
0001
0010
0100
1001
0000
0000
1000
0001
0100
,
0101
0001
1000
1010
0010
0100
0101
0000
0000
0011
0001
1000
,
1001
0000
0000
1100
0100
0010
0011
0000
0000
0011
0001
1000
,
1100
0100
0010
0110
0100
1000
1001
0000
0000
0001
1000
0001
,
1000
0000
0000
0000
0000
0000
0000
0000
0000
0000
0000
0000
0001
0000
0000
0000
0010
0000
0000
0000
0100
0000
0000
0000
1001
0000
0000
0000
0000
0000
0000
0000
0000
0000
0000
0000
0001
0000
0000
1000
0000
0000
0001
0000
0000
1000
0000
0000
,
0001
0000
0000
0000
1010
0000
0000
0000
0101
0000
0000
0000
1001
0000
1000
0100
,
1000
0000
0001
0100
0010
1000
0100
0010
0001
0010
0100
1000
0001
1000
0100
0010
,
0001
0000
0000
0000
0011
0000
0000
0000
1100
0000
0000
0000
0100
0000
1000
0100
,
0010
0100
1000
0001
0010
0001
1000
0001
1000
0000
0000
0000
0010
0100
0010
0100
,
1001
0000
0011
0000
1100
0000
1010
0110
,
0101
0000
0011
0000
0110
0000
0100
1000
,
1100
0000
0100
1000
0001
0000
0100
0000
0010
0000
0100
0001
1000
0000
0100
0000
,
1000
0000
0001
0100
0001
0100
0001
0000
1000
0010
1000
0010
1000
0000
0110
0000
,
0100
0001
0010
0001
0100
0010
1000
0001
1000
0100
0010
0001
1000
0001
0010
0100
,
1000
0000
0100
1000
0001
0000
0010
0001
1000
0000
0010
0000
0100
0000
0010
0000
,
1000
0100
0010
0100
1000
0001
0010
0001
0100
0010
0100
0001
1000
0001
0010
0100
,
1000
0000
0010
1000
0100
0000
0010
0001
0100
0000
0010
0000
0100
0000
0001
0000
,
0010
0001
0010
0001
0100
0010
0100
0010
1000
0100
1000
0100
1000
0010
0100
0001
,
1000
0010
1000
0010
0100
0001
0100
0001
1000
0010
1000
0010
1000
0010
0100
0001
,
1000
0010
1000
0010
1000
0100
1000
0100
0010
0001
0010
0001
0100
0010
0100
0001
,
1000
0100
0010
0100
1000
0001
0010
0001
1000
0100
1000
0010
0100
0001
0100
0010
,
1000
0001
0010
0001
1000
0100
1000
0001
0100
0010
1000
0100
1000
0001
0010
0001
,
1000
0000
0010
1000
0001
0000
0010
0001
1000
0000
0001
0000
0100
0000
0001
0000
,
1000
0010
1000
0010
0100
0010
0100
0010
1000
0001
1000
0001
1000
0100
1000
0100
,
0010
0000
0100
1000
0001
0000
0100
0001
0010
0000
0100
0000
1000
0000
0001
0000
,
0100
0010
0100
0010
1000
0010
1000
0010
0100
0001
0100
0001
0010
0001
1000
0100
,
0010
0001
0010
0001
1000
0100
1000
0100
1000
0001
1000
0001
1000
0100
0010
0001
,
1000
0010
1000
0010
0100
0010
0100
0010
1000
0001
0010
0001
0100
0010
1000
0001
,
0010
0100
1000
0001
1000
0100
0010
0100
1000
0000
0000
0010
0000
0000
0100
0000
,
1001
0000
1100
0000
0101
0000
1001
0000
0001
0010
0100
1000
0001
0010
0100
1000
,
0001
1000
0100
1000
0010
1000
0100
1000
0001
1000
0010
1000
0001
1000
0010
1000
,
0100
0000
0010
0001
0100
0000
0010
1000
0100
0000
0000
0000
1001
0000
0000
0000
,
0001
0010
0100
0010
0001
1000
0100
1000
0010
0100
0001
0010
0001
1000
0001
0100
,
0001
1000
0100
0010
0100
1000
0010
0100
0001
0010
0001
1000
0010
0100
0001
0010
,
0001
1000
0100
1000
0010
1000
0010
0100
0001
0010
0001
1000
0100
0010
0100
1000
,
0010
0100
0010
0100
0001
0010
0100
1000
0001
0001
0000
0000
1000
1000
0000
0000
,
0001
0100
0010
1000
0001
1000
0100
1000
0001
0010
0001
1000
0100
0010
0001
0100
,
0001
1000
0010
0100
0001
0010
0001
0100
0010
0100
0001
1000
0010
0100
0001
0010
,
0100
1000
0100
1000
0001
0010
0001
0010
0100
1000
0001
0010
0100
1000
0010
0100
,
0010
1000
0001
0010
0100
0010
0001
1000
0001
0000
0000
0000
1000
0010
0100
0001
,
1000
0010
1000
0010
0100
0001
0100
0001
0010
0001
0010
0001
1000
0100
1000
0100
,
1000
0000
0001
0010
0001
0000
1000
0100
1000
0000
0000
0000
1001
0000
0000
0000
,
0001
0100
0001
0100
0010
1000
0010
1000
0100
1000
0100
1000
0001
0010
0100
0010
,
0001
0000
1000
0100
1000
0000
0001
0010
0001
0000
0000
0000
0000
0000
1000
0010
,
0100
0001
0010
0001
1000
0001
0100
0001
1000
0100
1000
0010
1000
0001
1000
0100
,
0010
0100
1000
0010
0100
0001
0010
0001
1000
0001
0100
0001
0010
0001
0100
0001
,
2000
0000
0000
0000
,
3000
0000
0010
1010
0000
0000
0000
0110
0100
0101
0000
0000
,
0000
0011
0110
1100
1000
0010
0110
0101
1001
1100
0100
0010
,
0000
0000
0010
0011
0000
0000
0101
0100
0010
1010
1000
0100
,
0110
0011
1001
1100
0011
0110
1100
0011
0110
2002
3003
0000
,
0202
0000
0000
0303
0000
0000
0000
0000
0100
0000
0000
0000
0110
0000
0000
0000
0010
0000
0000
0000
1000
0000
0000
0000
1100
0000
0000
0000
0110
0000
0000
0000
0011
0000
0000
0000
1001
0000
0000
0000
1000
0000
0000
0000
0010
0000
0000
0000
,
0110
1010
0101
0011
0001
1000
1100
0110
1100
1010
0010
0100
,
0000
0000
0100
0110
0010
1000
1010
0101
0011
0110
0100
1000
,
1001
0001
0100
0110
0010
1000
1100
0100
0010
1001
0000
0000
,
0000
0000
0000
0000
1000
0010
0100
0001
0010
0001
0100
0010
1000
0001
0010
0001
,
1000
0001
1000
0100
1000
0000
0010
1000
0001
0000
0100
0001
0010
0000
0100
0000
,
0010
0000
0001
0000
1000
0010
1000
0010
0100
0001
0100
0001
0010
0001
0010
0001
,
1000
0100
1000
0100
0010
0000
0001
0010
0100
0000
1000
0100
0010
0000
0001
0000
,
1000
0000
0001
0000
0010
0001
0010
0001
1000
0100
1000
0100
1000
0010
1000
0010
,
0100
0010
1000
0001
0100
0001
0100
0001
1000
0100
1000
0100
1000
0001
1000
0001
,
1000
0100
0010
0001
1000
0010
1000
0010
0100
0001
0100
0001
1000
0100
1000
0100
,
0010
0001
0100
0001
1000
0001
1000
0001
1000
0010
0100
0001
0010
0001
1000
0010
,
0100
0010
1000
0100
0010
0100
1000
0001
0010
0100
0010
0001
0100
0010
1000
0001
,
1000
0010
0100
0001
1000
0000
0100
1000
0010
0000
0100
0001
0010
0000
0100
0000
,
1000
0000
0010
0000
0100
0010
0100
0010
1000
0001
1000
0001
0010
0001
0010
0001
,
1000
0100
1000
0100
0010
0000
0100
0010
0001
0000
0100
0010
1000
0000
0100
0000
,
0010
0000
0100
0000
1000
0100
1000
0100
0010
0100
0010
0100
1000
0001
1000
0001
,
1000
0010
0100
0001
0100
0010
0100
0010
1000
0010
1000
0010
0100
0001
0100
0001
,
0100
0001
0100
0010
1000
0100
1000
0100
0010
0001
0010
0001
0100
0001
1000
0001
,
0100
0001
0010
0001
1000
0000
0010
1000
0001
0010
0001
1000
0100
0000
0000
0110
,
0000
0000
1001
0000
1000
0100
0010
0001
1000
0100
0010
0001
1000
0010
0100
0001
,
1000
0010
0100
0001
1000
0000
0010
1000
0010
0000
0100
0001
0100
0000
0001
0000
,
0010
0100
1100
0000
0000
0000
1111
0000
,
0000
0000
0001
0010
0001
0100
0010
1000
0010
0100
0001
0010
0001
1000
0100
1000
,
0001
0010
0100
1000
0100
0010
0001
0100
0010
0100
0001
1000
0010
0100
0001
0010
,
0001
0100
0010
1000
0100
0000
0010
0001
0100
0000
0010
1000
0010
0100
0001
0010
,
0001
1000
0100
1000
0001
0000
0000
0000
0100
0000
0000
0000
0010
0000
1000
0010
,
0100
0010
1000
0001
0010
0001
0100
0010
1000
0100
1000
0001
0010
0100
0010
0001
,
1000
0100
0010
0100
1000
0100
1000
0010
0100
0001
1000
0010
0100
0001
0010
0001
,
1000
0100
0010
0001
1000
0000
0010
0000
0101
0000
1000
0000
0011
0000
0010
0001
,
1000
0000
0001
0000
1100
0000
0001
0000
0101
0000
0010
0000
1010
0000
0100
0010
,
1000
0000
0100
0000
1001
0000
0010
0000
0101
0000
1000
0000
0011
0000
0001
1000
,
0010
0100
1010
0001
0011
0100
1100
0010
,
0001
0100
0010
1000
0001
0000
0100
0000
0110
0000
0010
0000
1000
0010
0100
0001
,
1000
0000
0100
0000
0110
0000
0010
0000
0001
0000
1000
0000
0010
1000
0001
0100
,
0001
1000
0010
0100
0001
0010
0001
1000
0100
0010
0001
1000
0010
0000
0000
0110
,
0000
0000
0101
0000
1001
0000
0001
1000
0010
0100
0001
1000
0001
0010
0100
0010
,
0001
0000
0000
1000
0000
0000
0100
0000
0000
0010
0000
0000
0001
0000
0000
0000
0000
0000
0000
0000
0000
0100
0000
0000
0101
0000
0000
0000
0001
0000
0000
0000
0000
1000
0000
0000
1100
0000
0000
0000
0000
0000
0000
0000
0000
0100
0000
0000
,
1000
0000
0000
0000
0000
0000
0000
0000
0000
0000
0000
0000
0110
0000
0000
0000
0000
0000
0000
0000
0000
0010
0000
0000
0011
0000
0000
0000
0001
0000
0000
0000
0000
0100
0000
0000
1010
0000
0000
0000
0000
0000
0000
0000
0000
0010
0000
0000
,
M11M
0000
1000
0010
0100
0001
0010
0001
1000
0001
0100
0001
1000
0001
0010
0001
,
0100
0010
1000
0100
1000
0010
0100
0010
1000
0100
0010
0100
1000
0001
0010
0001
,
1000
0100
1000
0001
0010
0100
1000
0100
0010
0000
0001
0000
0100
0000
0010
0000
,
1000
0000
0001
0000
0100
0010
1000
0001
0010
0001
0100
0010
1000
0100
1000
0010
,
0100
0010
1000
0100
0010
0100
1000
0010
0100
0001
0010
0001
1000
0010
0100
0010
,
0100
0001
1000
0001
1000
0010
0100
0002
2000
0000
0000
0000
0000
0000
0000
0000
,
3003
0000
0000
0000
0001
1000
0001
1000
0001
0000
0000
0000
0000
0000
0000
0000
;

//---------------dance-single - ----------------
#NOTES:
     dance-single:
     :
     Hard:
     11:
     1.000,1.000,1.000,0.126,1.000,1774.000,277.000,28.000,0.000,3.000:




1001
0000
0110
0000
1001
0000
1100
1001
,
1100
1001
1100
1001
1100
0000
0000
0000
,
1100
0000
0000
1001
0110
1001
1001
0000
0000
1010
0101
1010
,
0101
0000
0000
0011
0011
0110
1100
1001
1001
0000
0000
1100
,
1100
0000
0000
0110
1001
0110
0110
0000
0000
1010
0101
0011
,
1100
0000
0000
1010
1001
1100
0110
0011
0011
0000
0000
0110
,
1001
0000
0000
0110
1001
1100
0011
0000
0000
1000
0110
0001
,
0110
1000
0110
0001
0110
1000
0220
0000
0000
0330
0000
0000
,
1100
0000
0000
0011
0000
1100
1100
0000
0110
0110
0000
0000
,
1000
0000
0000
0000
0000
0000
0000
0000
0000
0000
0000
0000
0000
0000
0000
0000
1100
0000
0000
0000
0000
0000
0000
0000
0000
0000
0000
0000
0000
0000
0000
0000
0010
0000
0000
0000
0000
0000
0000
0000
0000
0000
0000
0000
0000
0000
0000
0000
0011
0000
0000
0000
0000
0000
0000
0000
0000
0000
0000
0000
0000
0000
0000
0000
1000
0000
0000
0000
0000
0000
0000
0000
0000
0000
0000
0000
0000
0000
0000
0000
0110
0000
0000
0000
0000
0000
0000
0000
0000
0000
0000
0000
0000
0000
0000
0000
0110
0000
0000
0000
0000
0000
0000
0000
0000
0000
0000
0000
0000
0000
0000
0000
0000
0000
0000
0000
0000
0000
0000
0000
0000
0000
0000
0000
0000
0000
0000
0000
0000
0000
0000
0000
0000
0000
0000
0000
0000
0000
0000
0000
0000
0000
0000
0000
0000
0000
0000
0000
0000
0000
0000
0000
0000
0000
0000
0000
0000
0000
0000
0000
0000
0000
0000
0000
0000
0000
0000
0000
1000
0000
0000
0000
0000
0000
0001
0000
0000
0000
0000
0000
1000
0000
0000
0000
0000
0000
0001
0000
0000
0000
0000
0000
,
0110
0000
1001
0000
0110
0000
1100
1100
,
0010
0100
0010
0100
1000
0001
1000
0001
0010
0100
0010
0100
1000
0001
1000
0001
,
0110
0000
1001
0000
0110
0000
1100
1100
,
1000
0100
1000
0100
0010
0001
0010
0001
1000
0001
1000
0000
0001
1000
0001
1000
,
0110
0000
1001
0000
0110
0000
1100
0011
,
0110
0000
0011
0000
0110
0000
1100
0110
,
0011
0110
1100
0110
0011
0110
1100
0110
,
0010
0001
0010
0001
1000
0100
1000
0100
1000
0010
1000
0010
0100
0001
0100
0001
,
2002
0000
0000
3003
0010
0001
0010
0001
1000
0100
1000
0100
0010
0100
0010
0100
,
1000
0100
0001
0100
1000
0010
0100
0010
1000
0010
0001
0010
1000
0001
0100
0001
,
1000
0100
0010
0001
0010
0100
1000
0001
1000
0010
0100
0010
1000
0001
0010
1000
,
0010
0001
0100
0010
0100
0010
1000
0001
0100
0001
0010
0100
0010
1000
0010
0001
,
0100
1000
0100
0010
1000
0100
0001
0100
1000
0100
0010
0100
0001
0010
0001
0100
,
1000
0100
0001
1000
0001
0100
0010
0100
0001
0010
0100
1000
0010
1000
0100
1000
,
0001
0010
0001
1000
0100
0010
0100
1000
0001
0100
0010
0100
1000
0100
0001
0010
,
0100
0001
0100
1000
0010
0100
0010
1000
0001
0010
0100
1000
0010
0100
0010
1000
,
0100
0001
0100
1000
0010
0100
0001
0010
0100
1000
0010
1000
0100
1000
0001
0010
,
1000
0100
0010
0100
1000
0001
0100
0010
0100
0001
0010
0100
1000
0100
0010
0001
,
0100
0010
1000
0100
0010
0100
1000
0001
0100
0010
0100
0001
1000
0100
0010
0100
,
1000
0010
0100
0010
1000
0001
0010
0001
0100
0010
1000
0100
1000
0001
0100
0010
,
0100
0001
0010
0100
0010
1000
0010
0001
0100
0010
1000
0100
1000
0001
0100
0010
,
0100
0001
0010
0100
0010
0001
1000
0100
0010
0001
0100
0010
0100
0001
0100
0010
,
1000
0010
0100
0001
1000
0100
0010
0001
0100
0010
0100
0001
0010
0100
1000
0010
,
0100
0010
0100
0001
0010
0100
1000
0010
0100
0010
1000
0001
0100
0010
0100
0001
,
1000
0100
0010
0001
1000
0100
0010
0001
0100
0010
0100
0010
0100
0010
0100
0010
,
0110
0000
1000
0100
0001
0000
1000
0100
0001
0100
1000
0010
0001
0010
1000
0100
,
0001
1000
0100
0001
0100
1000
0100
0010
0002
0000
0000
0003
2002
0000
3003
0000
,
1100
0000
0000
0000
1001
0110
1001
0000
0000
0000
1100
1100
,
0011
0011
1100
1100
0011
0011
0110
0000
0000
0000
0000
0001
,
1000
0000
0000
1000
1100
1000
1100
0000
0000
1000
1001
1000
,
1001
1000
1001
1000
1001
1000
1001
0000
0000
1100
0000
0001
,
1001
0000
0000
0000
1000
1000
1000
0000
0000
0010
1001
0010
,
1001
0010
1001
0010
1001
0010
1001
0000
0000
0000
0000
1001
,
1001
0000
0000
0100
0010
0100
0010
0000
0000
1000
1000
0100
,
0100
0010
0010
0001
0001
1000
1000
0000
0000
1000
1000
1000
,
1001
0000
0000
0000
0000
0000
0000
0000
0000
0000
0000
0000
0100
0000
0000
0000
0100
0000
0000
0000
0100
0000
0000
0000
0110
0000
0000
0000
0000
0000
0000
0000
0000
0000
0000
0000
0010
0000
0000
0100
0000
0000
0010
0000
0000
0100
0000
0000
,
1001
0000
0110
0000
1001
0000
0101
1010
,
0101
1010
0110
1001
0110
1001
0110
0000
,
1100
0000
0011
0000
1001
0000
1100
1100
,
0011
0000
0011
0000
1100
0000
1100
0000
0022
0000
0000
0000
0133
0010
0100
0010
,
1001
0000
0110
0000
1001
0000
1001
1100
,
0011
0000
1100
0000
0110
0000
0011
0110
,
1100
0110
0011
0110
1100
0110
0011
0110
,
1100
0000
1000
0001
1000
0001
0010
0100
0010
0100
1000
0001
0010
0001
1000
0000
,
1001
0000
1000
0001
0100
0010
1000
0001
0010
0000
0001
0010
0001
1000
0100
1000
,
0001
0010
1000
0010
0001
0100
0010
0100
0001
0100
1000
0100
0001
1000
0010
1000
,
0001
0010
0100
1000
0100
0010
0001
1000
0001
0100
0010
0100
0001
1000
0100
0001
,
0100
1000
0010
0100
0010
0100
0001
1000
0010
1000
0100
0010
0100
0001
0100
1000
,
0010
0001
0010
0100
0001
0010
1000
0010
0001
0010
0100
0010
1000
0100
1000
0010
,
0001
0010
1000
0001
1000
0010
0100
0010
1000
0100
0010
0001
0100
0001
0010
0001
,
1000
0100
1000
0001
0010
0100
0010
0001
1000
0010
0100
0010
0001
0010
1000
0100
,
0010
1000
0010
0001
0100
0010
0100
0001
1000
0100
0010
0001
0100
0010
0100
0001
,
0010
1000
0010
0001
0100
0010
1000
0100
0010
0001
0100
0001
0010
0001
1000
0100
,
0001
0010
0100
0010
0001
1000
0010
0100
0010
1000
0100
0010
0001
0010
0100
1000
,
0010
0100
0001
0010
0100
0010
0001
1000
0010
0100
0010
1000
0001
0010
0100
0010
,
0001
0100
0010
0100
0001
1000
0100
1000
0010
0100
0001
0010
0001
1000
0010
0100
,
0010
1000
0100
0010
0100
0001
0100
1000
0010
0100
0001
0010
0001
1000
0010
0100
,
0010
1000
0100
0010
0100
1000
0001
0010
0100
1000
0010
0100
0010
1000
0010
0100
,
0001
0100
0010
1000
0001
0010
0100
1000
0010
0100
0010
1000
0100
0010
0001
0100
,
0010
0100
0010
1000
0100
0010
0001
0100
0010
0100
0001
1000
0010
0100
0010
1000
,
0001
0010
0100
1000
0001
0010
0100
1000
0010
0100
0010
0100
0010
0100
0010
0100
,
0110
0000
1000
0100
0001
0000
0001
0010
0100
1000
0001
0010
0100
1000
0010
0100
,
0001
1000
0010
0100
0001
1000
0100
0010
0002
0000
0000
0003
1001
0000
0000
0000
,
1000
0100
1000
0100
0010
0001
0010
0001
1000
0001
1000
0001
0100
0010
0100
0010
,
1000
0100
1000
0100
0010
0100
0010
0100
1000
0010
1000
0010
0100
0001
0100
0001
,
1000
0001
1000
0001
0100
0010
0100
0010
0100
0001
0100
0001
0010
0100
0010
0100
,
1000
0010
1000
0100
1000
0001
0100
0000
1100
0011
0000
0000
0110
1001
0000
0000
,
0001
0010
0001
0010
0100
1000
0100
1000
0001
1000
0001
1000
0010
0100
0010
0100
,
0001
0010
0001
0010
0100
0010
0100
0010
0001
0100
0001
0100
0010
1000
0010
1000
,
0001
1000
0001
1000
0010
0100
0010
0100
0010
1000
0010
1000
0100
0010
0100
0010
,
0001
0100
0001
0010
0001
1000
0010
0000
0011
1100
0000
0000
1100
0011
1100
0000
,
1000
0000
0000
0100
0000
0000
0010
0000
0000
0001
0000
0000
1000
0000
0000
0100
0000
0000
0010
0000
0000
0001
0000
0000
1000
0000
0000
0100
0000
0000
0010
0000
0000
0001
0000
0000
1000
0000
0000
0100
0000
0000
0010
0000
0000
0001
0000
0000
1000
0000
0000
0100
0000
0000
0010
0000
0000
0001
0000
0000
1000
0000
0000
0001
,
0000
1000
0000
0000
0110
0000
0000
0000
1001
0000
0000
0000
1001
0000
0000
0000
0110
0000
0000
0000
0000
0000
0000
0000
0000
0000
0000
0000
0000
0000
0000
0000
,
0001
0000
0000
0010
0000
0000
0100
0000
0000
1000
0000
0000
0001
0000
0000
0010
0000
0000
0100
0000
0000
1000
0000
0000
0001
0000
0000
0010
0000
0000
0100
0000
0000
1000
0000
0000
0001
0000
0000
0010
0000
0000
0100
0000
0000
1000
0000
0000
0001
0000
0000
0010
0000
0000
0100
0000
0000
1000
0000
0000
0001
0000
0000
0100
,
0000
0010
0000
0000
1100
0000
0000
0000
0011
0000
0000
0000
0011
0000
0000
0000
0110
0000
0000
0000
0000
0000
0000
0000
0000
0000
0000
0000
0000
0000
0000
0000
,
1000
0000
0000
0001
0000
0000
1000
0000
0000
0001
0000
0000
1000
0000
0000
0001
0000
0000
1000
0000
0000
0001
0000
0000
0100
0000
0000
0010
0000
0000
0100
0000
0000
0010
0000
0000
0100
0000
0000
0010
0000
0000
0100
0000
0000
0010
0000
0000
1000
0000
0000
0100
0000
0000
1000
0000
0000
0100
0000
0000
1000
0000
0000
0100
,
0000
0000
1000
0000
0000
0100
0000
0000
0010
0000
0000
0001
0000
0000
0010
0000
0000
0001
0000
0000
0010
0000
0000
0001
0000
0000
0010
0000
0000
0001
0000
0000
1000
0000
0000
0100
0000
0000
0010
0000
0000
0001
0000
0000
1000
0000
0000
0100
0000
0000
0010
0000
0000
0001
0000
0000
1000
0000
0000
0100
0000
0000
0010
0000
,
2002
0000
0000
0000
0000
0000
0000
0000
0000
0000
0000
0000
0000
0000
0000
0000
0000
0000
0000
0000
0000
0000
0000
0000
0000
0000
0000
0000
0000
0000
0000
3003
,
0110
0000
0000
1100
1100
0011
0011
0000
0000
0110
1001
1100
,
0011
0000
0000
1100
1100
0110
0011
1001
1001
0000
0000
0110
,
0110
0000
0000
0110
1001
0110
0110
0000
1100
1100
0011
0011
,
0101
0101
0110
0110
1001
1001
0220
0000
0330
2002
0000
3113
,
0110
0000
0000
1100
0011
1100
0011
0000
1100
1100
0101
0101
,
0110
0110
1001
1001
0110
1001
0220
0000
0000
0000
0330
1001
,
1001
0000
0000
1100
0000
0011
0022
0000
1133
2200
0000
3300
,
1001
0000
0000
0000
0000
0000
0000
0000
0000
0000
0000
0000
0000
0000
0000
0000
1001
0000
0000
0000
0000
0000
0000
0000
0000
0000
0000
0000
0000
0000
0000
0000
0110
0000
0000
0000
0000
0000
0000
0000
0000
0000
0000
0000
0000
0000
0000
0000
0110
0000
0000
0000
0000
0000
0000
0000
0000
0000
0000
0000
0000
0000
0000
0000
1001
0000
0000
0000
0000
0000
0000
0000
0000
0000
0000
0000
0000
0000
0000
0000
0110
0000
0000
0000
0000
0000
0000
0000
0000
0000
0000
0000
0000
0000
0000
0000
1001
0000
0000
0000
0000
0000
0100
0000
0000
0000
0000
0000
0010
0000
0000
0000
0000
0000
0100
0000
0000
0000
0000
0000
0010
0000
0000
0000
0000
0000
1000
0000
0000
0000
0000
0000
0001
0000
0000
0000
0000
0000
1000
0000
0000
0000
0000
0000
0001
0000
0000
0000
0000
0000
0010
0000
0000
0000
0000
0000
0100
0000
0000
0000
0000
0000
0010
0000
0000
0000
0000
0000
0100
0000
0000
0000
0000
0000
1000
0000
0000
0000
0000
0000
0001
0000
0000
0000
0000
0000
1000
0000
0000
0000
0000
0000
,
0001
0010
1000
0010
0001
0100
0010
0100
0001
0100
1000
0100
0001
1000
0010
1000
,
0001
0010
0100
1000
0100
0010
0001
1000
0001
0100
0010
0100
0001
1000
0100
0001
,
0100
1000
0010
0100
0010
0100
0001
1000
0010
1000
0100
0010
0100
0001
0100
1000
,
0010
0001
0010
0100
0001
0010
1000
0010
0001
0010
0100
0010
1000
0100
1000
0010
,
0001
0010
1000
0001
1000
0010
0100
0010
1000
0100
0010
0001
0100
0001
0010
0001
,
1000
0100
1000
0001
0010
0100
0010
0001
1000
0010
0100
0010
0001
0010
1000
0100
,
0010
1000
0010
0001
0100
0010
0100
0001
1000
0100
0010
0001
0100
0010
0100
0001
,
0010
1000
0010
0001
0100
0010
1000
0100
0010
0001
0100
0001
0010
0001
1000
0100
,
0001
0010
0100
0010
0001
1000
0010
0100
0010
1000
0100
0010
0001
0010
0100
1000
,
0010
0100
0001
0010
0100
0010
0001
1000
0010
0100
0010
1000
0001
0010
0100
0010
,
0001
0100
0010
0100
0001
1000
0100
1000
0010
0100
0001
0010
0001
1000
0010
0100
,
0010
1000
0100
0010
0100
0001
0100
1000
0010
0100
0001
0010
0001
1000
0010
0100
,
0010
1000
0100
0010
0100
1000
0001
0010
0100
1000
0010
0100
0010
1000
0010
0100
,
0001
0100
0010
1000
0001
0010
0100
1000
0010
0100
0010
1000
0100
0010
0001
0100
,
0010
0100
0010
1000
0100
0010
0001
0100
0010
0100
0001
1000
0010
0100
0010
1000
,
0001
0010
0100
1000
0001
0010
0100
1000
0010
0100
0010
0100
0010
0100
0010
0100
,
1000
0100
1000
0010
0100
0010
0001
0010
0100
1000
0001
0010
0100
1000
0010
0001
,
0010
1000
0100
0010
0100
0010
0100
0010
1000
0001
1000
0001
1000
0001
1000
0001
,
1000
0010
0100
0001
0010
0100
1000
0010
0100
0010
1000
0100
0010
0001
0100
0010
,
1000
0100
0010
0100
1000
0001
0100
0010
0100
0001
0010
0100
1000
0010
0100
0001
,
0010
0100
0010
0001
0010
0100
1000
0100
0001
0010
1000
0010
0100
0001
1000
0010
,
0100
0010
1000
0001
1000
0010
0100
0010
1000
0100
0010
1000
0100
0010
0001
1000
,
0100
0010
0001
0010
0001
1000
0100
1000
0010
0100
0010
0100
1000
0001
1000
0001
,
1000
0100
1000
0100
1000
0100
0010
0001
0010
0001
1000
0100
0010
0001
0010
0100
,
0010
0100
1000
0100
0010
0100
1000
0100
0010
0100
1000
0100
0010
0100
1000
0100
,
0001
0100
0010
0100
0001
0100
0010
0100
0001
0100
0010
0100
0001
0100
0010
0100
,
1000
0100
0001
0100
1000
0100
0001
0100
1000
0100
0001
0100
1000
0100
0001
0100
,
0001
0010
1000
0010
0001
0010
1000
0010
0001
0010
1000
0010
0001
0010
1000
0010
,
0100
1000
0010
1000
0100
1000
0010
1000
0100
1000
0010
1000
0100
1000
0010
1000
,
0001
0100
0010
0100
0001
0100
0010
0100
0001
0100
0010
0100
0001
0100
0010
0100
,
0010
1000
0001
1000
0010
0001
1000
0001
1000
0100
0010
0100
0001
0010
0100
0010
,
0001
1000
0100
0010
0001
0100
0010
1000
0100
0010
0001
0100
0010
1000
0100
0010
,
1001
0000
0000
0000
0000
0000
0000
0000
0000
1100
0000
0000
0000
0011
0000
0000
0000
1100
0000
0000
0000
1001
0000
0000
0000
0220
0000
0000
0000
0000
0000
0000
0330
1001
0000
0000
0000
2002
0000
0000
0000
3003
0000
0000
0000
0000
0000
0000
,
0000
1010
0000
0000
0000
0000
0000
0000
0000
0101
0000
0000
0000
0101
0000
0000
0000
1010
0000
0000
0000
0110
0000
0000
0000
0101
0000
0000
0000
0000
0000
0000
0000
1100
0000
0000
0110
0000
0000
0011
0000
0000
0110
0000
0000
1100
0000
0000
,
1000
0100
1000
0100
1000
0100
1000
0100
0010
0001
0010
0001
0010
0001
0010
0001
,
1000
0010
1000
0010
0100
0001
0010
0100
1000
0001
0100
0010
1000
0100
0010
0001
,
0110
0000
0110
0000
1001
0000
1001
0000
0110
0000
0110
0000
0001
1000
0001
1000
,
0001
1000
0100
0010
0100
1000
0001
0100
0010
0100
0001
0010
0001
0100
0010
1000
,
0100
0010
0001
0010
0100
0010
1000
0100
0010
0001
0100
0010
1000
0100
0010
0001
,
0220
0000
0000
0000
0000
0000
0000
0000
0000
0000
0000
0330
0001
1000
0001
1000
,
1001
0000
0000
0000
;
