#TITLE:Liquid Moon;
#SUBTITLE:;
#ARTIST:Inspector K;
#TITLETRANSLIT:;
#SUBTITLETRANSLIT:;
#ARTISTTRANSLIT:;
#CREDIT:;
#BANNER:Liquid Moon-banner.png;
#BACKGROUND:Liquid Moon-bg.png;
#LYRICSPATH:;
#CDTITLE:;
#MUSIC:Liquid Moon.ogg;
#OFFSET:-0.007;
#SAMPLESTART:29.960;
#SAMPLELENGTH:11.960;
#SELECTABLE:YES;
#DISPLAYBPM:160.000;
#BPMS:0.000=160.087;
#STOPS:;
#BGCHANGES:-10000.000=songbackground=1.000=0=0=1,
0.000=Liquid Moon-bg.png=1.000=0=0=1,
16.000=675_JumpBack.mpg=1.000=0=0=1,
48.000=736_JumpBack.mpg=1.000=0=0=1,
80.000=EV01448N.mpg=1.000=0=0=1,
112.000=738_JumpBack.mpg=1.000=0=0=1,
144.000=jb_105.mpg=1.000=0=0=1,
157.000=jb_105.mpg=1.000=0=0=1,
159.000=jb_105.mpg=1.000=0=0=1,
160.000=675_JumpBack.mpg=1.000=0=0=1,
192.000=736_JumpBack.mpg=1.000=0=0=1,
224.000=EV01448N.mpg=1.000=0=0=1,
256.000=691_JumpBack.mpg=1.000=0=0=1,
288.000=Liquid Moon-bg.png=1.000=0=0=1,
99999=-nosongbg-=1.000=0=0=0 // don't automatically add -songbackground-
;
// cache tags:
#FIRSTBEAT:12.000;
#LASTBEAT:292.000;
#SONGFILENAME:Songs/In The Groove 2 (Official)/Liquid Moon/Liquid Moon.sm;
#HASMUSIC:0;
#HASBANNER:1;
#MUSICLENGTH:100.000;
// end cache tags

//---------------dance-single - M. Emirzian----------------
#NOTES:
     dance-single:
     M. Emirzian:
     Easy:
     2:
     0.154,0.216,0.100,0.020,0.000,96.000,10.000,2.000,0.000,0.000:









0000
0000
0000
0000
,
0000
0000
0000
0000
,
0000
0000
0000
0000
,
1000
0000
0001
0000
,
0100
0000
0000
0000
,
0010
0000
0000
0000
,
1000
0000
0000
0000
,
0100
0000
0010
0001
,
0010
0000
0000
0000
,
0100
0000
0000
0000
,
1000
0000
0000
0000
,
0001
0000
0000
0000
,
0100
0000
0000
0000
,
0010
0000
1000
0100
,
1000
0000
0000
0000
,
0001
0000
0000
0000
,
0010
0000
0000
0000
,
0100
0000
0000
0000
,
1000
0000
0000
0000
,
0001
1000
0001
0000
,
1001
0000
0000
0000
,
0010
0000
0000
0000
,
1001
0000
0000
0000
,
0100
0000
0000
0000
,
1010
0000
0000
0000
,
0001
0000
0000
0000
,
1100
0000
0000
0000
,
0010
0000
0000
0000
,
1000
0000
0001
0000
,
0010
0000
0100
0000
,
1000
0000
0001
0000
,
1000
0000
0010
0000
,
0100
0000
0001
0000
,
0010
0000
0100
0000
,
1000
0000
0001
0000
,
1000
0000
0001
0000
,
2002
0000
0000
0000
,
0000
0000
0000
0000
,
0000
0000
0000
3003
,
0000
0000
0000
0000
,
1000
0000
0000
0000
,
0001
0000
0000
0000
,
0010
0000
0000
0000
,
0100
0000
0100
1000
,
0100
0000
0000
0000
,
0010
0000
0000
0000
,
0001
0000
0000
0000
,
0100
0000
0010
1000
,
0010
0000
0000
0000
,
0100
0000
0000
0000
,
0001
0000
0000
0000
,
1000
0000
0001
1000
,
0001
0000
0000
0000
,
0010
0000
0000
0000
,
0100
0000
0000
0000
,
1000
0000
0000
0000
,
0001
0000
0000
0000
,
1100
0000
0000
0000
,
0010
0000
0000
0000
,
0101
0000
0000
0000
,
1000
0000
0000
0000
,
0110
0000
0000
0000
,
0001
0000
0000
0000
,
1001
0000
0000
0000
,
1000
0000
0100
0000
,
0010
0000
0001
0000
,
0100
0000
0010
0000
,
1000
0000
0001
0000
,
0010
0000
0100
0000
,
0010
0000
0001
0000
,
1000
0000
0010
0000
,
0100
0000
0001
0000
,
1001
0000
0000
0000
;

//---------------dance-single - M. Emirzian----------------
#NOTES:
     dance-single:
     M. Emirzian:
     Medium:
     6:
     0.466,0.511,0.260,0.040,0.000,296.000,26.000,4.000,0.000,0.000:









0000
0000
0000
0000
,
0000
0000
0000
0000
,
0000
0000
0000
0000
,
1000
1100
0000
0000
0011
0000
1000
0000
,
0001
0000
0100
0001
0000
0000
1000
0000
,
0010
0000
0100
0001
0000
0000
1000
0000
,
0100
0000
0010
0001
0000
0000
1000
0000
,
0010
0000
0100
0001
0100
0000
1001
0000
,
0100
0000
0010
0001
0000
0000
0100
0000
,
0010
0000
1000
0001
0000
0000
1000
0000
,
0100
0000
0010
0001
0000
0000
0100
0000
,
0010
0000
1000
0100
1000
0000
0110
0000
,
0001
0000
0100
0010
0000
0000
1000
0000
,
0100
0000
0010
0001
0000
0000
1000
0000
,
0010
0000
0100
0001
0000
0000
0100
0000
,
0010
0000
1000
0001
1000
0000
1100
0000
,
0001
0000
0010
0100
0000
0000
1000
0000
,
0010
0000
0100
0001
0000
0000
0010
0000
,
0100
0000
1000
0001
0000
0000
0100
0000
,
0010
1000
0010
0100
0001
1000
0100
0000
,
0010
0001
1000
0010
0000
0100
0001
0000
,
1001
0000
0000
0000
,
0100
0010
0001
0100
0000
0010
1000
0000
,
1100
0000
0000
0000
,
0010
0001
0100
0010
0000
1000
0001
0000
,
0110
0000
0000
0000
,
1000
0010
0100
0001
0000
0010
0100
0000
,
1100
0000
0000
0000
,
0001
0100
0001
0000
1000
0100
1000
0000
,
0000
0010
0100
0001
1000
0000
1100
0000
,
0010
0001
0010
0000
0100
1000
0100
0000
,
0000
1000
0001
0100
0010
0000
1010
0000
,
0001
0010
0100
0000
0010
0100
1000
0000
,
0000
0001
0100
0010
1000
0000
1100
0000
,
0001
0010
0001
0000
0100
0010
0100
0000
,
0000
0001
1000
0100
0010
0000
0011
0000
,
2002
0000
0000
0000
,
0000
0000
0000
0000
,
0000
0000
0000
3003
,
1000
0010
1000
0000
0010
1000
0010
0000
,
0100
0000
0001
0010
0000
0000
0100
0000
,
1000
0000
0010
0100
0000
0000
0001
0000
,
1000
0000
0100
0010
0000
0000
0100
0000
,
1000
0000
0001
1000
0001
0000
1100
0000
,
0001
0000
0010
0100
0000
0000
1000
0000
,
0010
0000
0100
0001
0000
0000
1000
0000
,
0100
0000
0010
0001
0000
0000
0010
0000
,
0100
0000
1000
0010
1000
0000
0101
0000
,
0010
0000
1000
0100
0000
0000
0010
0000
,
0001
0000
1000
0010
0000
0000
0100
0000
,
0010
0000
1000
0001
0000
0000
0010
0000
,
0100
0000
1000
0100
1000
0000
0011
0000
,
0100
0000
1000
0001
0000
0000
0100
0000
,
0010
0000
1000
0100
0000
0000
0010
0000
,
0001
0000
0100
0010
0000
0000
1000
0000
,
0100
0010
0001
1000
0010
0100
0001
0000
,
0010
0100
1000
0001
0000
0100
0010
0000
,
1001
0000
0000
0000
,
1000
0100
0010
0001
0000
0100
0010
0000
,
1010
0000
0000
0000
,
0001
0010
0100
1000
0000
0010
0100
0000
,
1001
0000
0000
0000
,
0010
0001
0100
0010
0000
1000
0100
0000
,
0011
0000
0000
0000
,
1000
0010
1000
0000
0001
0010
0001
0000
,
0000
1000
0010
0100
0001
0000
1001
0000
,
0100
0010
0001
0000
0010
0100
1000
0000
,
0000
0001
0100
0010
1000
0000
1100
0000
,
0010
0001
0010
0000
0100
1000
0100
0000
,
0000
0010
0001
0100
0010
0000
1001
0000
,
0010
0100
1000
0000
0100
0010
0001
0000
,
0000
0100
0010
1000
0100
0000
0011
0000
,
2002
0000
0000
0000
,
3003
0000
0000
0000
;

//---------------dance-single - K. Ward----------------
#NOTES:
     dance-single:
     K. Ward:
     Hard:
     8:
     0.613,0.767,0.350,0.350,0.165,359.000,35.000,35.000,12.000,2.000:

0000
0000
0000
0000
,
0000
0000
0000
0000
,
0000
0000
0000
0000
,
1100
0000
1100
0000
0000
0001
0010
0000
0001
0000
0100
0000
0110
0000
0000
0000
,
1000
0000
0100
1000
0000
0100
1000
0000
0010
0000
0100
0000
0001
0000
0010
0000
,
0001
0000
0010
0001
0000
0010
0001
0000
0100
0000
0010
0000
1000
0000
0100
0000
,
1000
0000
0010
0100
0000
0010
0100
0000
0001
0000
0010
0000
0001
0000
0010
0000
,
0001
0000
0100
0010
0000
0100
0010
0000
1000
0000
0100
0000
1000
0000
0100
0000
,
1000
0010
0100
0200
0000
0310
2000
0100
,
3200
1000
1300
0020
0000
0130
0200
0001
,
0301
0010
0010
0002
0000
0103
0100
0100
,
0010
1000
0010
0100
0001
0000
0011
0000
,
0001
0000
0100
0010
0000
1000
0100
0000
1100
0000
0000
0000
1100
0000
0000
0000
,
1000
0000
0010
0100
0000
0001
0010
0000
0011
0000
0011
0000
0011
0000
0000
0000
,
0001
0000
0100
0010
0000
0100
0010
0000
1100
0000
0000
0000
1100
0000
0000
0000
,
1000
0000
0010
0100
0000
0010
0100
0000
0011
0000
0011
0000
0011
0000
0000
0000
,
0001
0100
0010
0100
0000
0100
0020
0000
,
0130
0010
1000
0100
0000
0100
2000
0010
,
3010
0100
0100
0002
0000
0023
0001
0031
,
0100
0000
0010
0000
1000
0000
0100
0000
1000
0000
0010
0000
1000
0001
1000
0001
,
1000
0010
1000
0100
0000
0100
0010
0001
,
0200
1000
1300
0000
,
0010
0100
0001
0100
0000
0100
0010
1000
,
0020
0001
0031
0000
,
1000
0000
0100
0000
1000
0000
0010
0000
0000
0000
0010
0000
0000
0000
0100
0010
,
1000
0000
1100
0000
,
0001
0000
0010
0000
0001
0000
0100
0000
0000
0000
0100
0000
0000
0000
0010
0100
,
0001
0000
0011
0110
,
2000
0000
0000
0000
3010
0100
0001
0020
,
0000
0000
0000
0000
0032
0000
0200
0003
,
0020
0000
0300
0000
0000
1030
0100
0020
,
0000
0001
0032
0203
,
0302
0000
0000
0000
0003
0100
1000
0200
,
0000
0000
0320
2030
,
3200
0000
0000
0000
0300
1000
0020
0200
,
0030
0001
0300
0001
2000
0000
3001
0000
,
1001
0000
0000
0000
,
0000
0000
0000
0000
,
0000
0000
0000
0000
,
1000
0010
0000
0100
0010
0000
0000
0000
1000
0010
0000
0100
0010
0000
0000
0000
,
1100
0000
0000
0011
0000
0MM0
0000
M00M
,
0000
0MM0
0000
0011
1100
0000
0101
0000
,
1010
0000
0000
0110
0000
0MM0
0000
M00M
,
0000
0000
0MM0
0000
0000
0000
0000
0000
1000
0100
1000
0000
0010
0000
0100
0001
,
0010
0000
0001
0100
0000
0010
0000
0000
,
0000
0000
1000
0000
0000
0010
0000
0000
,
0000
0000
0100
0000
0000
0001
0000
0000
,
0000
0000
0000
0000
1000
0000
0000
0001
0000
0000
0100
0000
0001
0000
1000
0100
,
1000
0000
0010
0000
0100
0000
0001
0010
0000
0000
0011
0000
0000
0000
0000
0000
,
0001
0000
0000
0100
0100
0000
0001
0000
,
0001
0000
1000
0000
0010
0000
1000
0010
0000
0000
1100
0000
0000
0000
0000
0000
,
1000
0000
0000
0001
0001
0000
1000
0000
,
0010
1000
1000
0010
0000
0010
0100
0001
,
0001
1000
1000
0010
0000
0010
0100
0000
,
0001
0010
0001
1000
,
0001
0100
0001
1000
,
1000
0010
1000
0100
0000
0100
0010
0001
,
2000
0000
0200
0000
0001
3300
0000
0000
,
0010
0100
0001
0100
0000
0100
0010
1000
,
0200
0000
2000
0000
0001
3300
0000
0000
,
1000
0000
0100
0000
1000
0000
0010
0000
0000
0000
0010
0000
0000
0000
0100
0010
,
1000
0000
1001
0000
,
0001
0000
0010
0000
0001
0000
0100
0000
0000
0000
0100
0000
0000
0000
0010
0100
,
0001
0000
0110
0110
,
1000
0100
0001
0100
1000
0010
0100
0010
,
0001
0010
0100
1000
0100
0001
0010
0001
,
1000
0100
1000
0001
0010
0100
1000
0200
,
0000
0310
0000
0001
2000
0000
0000
0000
,
3001
0101
0010
1010
,
0001
0101
1000
0000
,
1000
0101
0001
1010
,
0001
0010
0100
1000
1000
0100
0010
0000
,
0002
0000
0000
0000
,
0003
0000
0000
0000
;

//---------------dance-single - C. Foy----------------
#NOTES:
     dance-single:
     C. Foy:
     Challenge:
     9:
     0.773,0.913,0.600,0.690,0.245,412.000,60.000,69.000,60.000,7.000:



0000
0000
0000
0000
,
0000
0000
0000
0000
,
0000
0000
0000
0000
,
0101
0000
1100
0000
0000
0010
0100
0000
0001
0000
0110
0000
1001
0000
0000
0000
,
0011
0000
0001
0000
1000
0000
0100
0010
0100
0000
1000
0000
0010
0100
0001
0010
,
0001
0000
0100
1000
0000
0000
0100
0000
0001
0000
1100
0000
0110
0000
0000
0000
,
1000
0000
1000
0000
0100
0000
0010
0001
0000
0000
0100
0000
1000
0100
0001
0010
,
0001
0000
1000
0010
0000
0100
0001
0000
0010
0000
0100
0000
1001
0000
0000
0000
,
0000
1000
0100
0200
1000
1000
0010
0310
,
0100
1000
0001
0100
0020
0100
0100
0001
,
0130
0010
1000
0200
1000
0010
0001
0310
,
0100
0000
1000
0000
0010
0000
0001
0000
0020
0000
1000
0000
0230
0000
0000
0300
,
0101
0000
1100
0000
0101
0000
0010
1000
0000
0000
1010
0000
0000
0000
0000
0000
,
0000
0000
0001
0000
0001
0100
0010
0000
0000
0000
0010
1000
0001
0100
0010
0000
,
1100
0000
0101
0000
1100
0000
0001
0100
0000
0000
0101
0000
0000
0000
0000
0000
,
0000
0000
1000
0000
0010
0100
0001
0000
0000
0000
0010
0001
1000
0010
0100
0000
,
0010
0000
0010
0000
0010
0000
1000
0100
0000
0000
1100
0000
0000
0000
0000
0000
,
0000
0000
1000
0000
0010
0100
0001
0000
0000
0000
0001
1000
0010
0100
0001
0000
,
0010
0000
0010
0000
0010
0000
0001
1000
0000
0000
1001
0000
0000
0000
0000
0000
,
0000
0000
0010
0000
1000
0000
0100
0000
1000
0000
0010
0000
0100
0001
0010
0100
,
1000
0010
0100
0010
0000
0010
1000
0200
,
2000
0001
3301
1100
,
0100
1000
0010
0100
0000
0100
0001
0200
,
0002
1000
1303
0101
,
0001
0000
0100
0000
1000
0000
0100
0000
0000
0000
0001
0000
0000
0000
0001
2000
,
0002
0000
0000
0000
0010
3003
1001
0000
,
1000
0000
0100
0000
0001
0000
0100
0000
0000
0000
1000
0000
0000
0000
0010
0100
,
0001
0000
0000
0000
0011
0100
1001
0000
,
2000
0000
0200
3000
0002
0300
0003
0000
0002
0000
0200
0003
2000
0300
3000
0000
,
2000
0000
0000
0000
0000
0000
0020
0000
0000
3000
0000
0000
0001
0000
0000
0030
0000
0000
2000
0000
0000
0000
0000
0000
0001
0000
0000
0000
0000
0000
0000
0000
0000
0000
0000
0000
3010
0000
0000
0000
0000
0000
0000
0000
0MM0
0000
0000
0000
,
0002
0000
0020
0003
2000
0030
0002
0000
3000
0000
2000
0003
0200
3000
0002
0300
,
0003
0000
0000
0000
0000
0000
0002
0000
0000
0000
0000
0000
0200
0000
0000
0003
0000
0000
2000
0000
0000
0300
0000
0000
0001
0000
0000
3000
0000
0000
0000
0000
0000
0000
0000
0000
1001
0000
0000
0000
0000
0000
0000
0000
M00M
0000
0000
0000
,
2000
0000
0200
3000
0002
0300
2000
0003
0000
0000
3020
0000
0200
0030
2000
0300
,
0002
3000
0200
0003
0010
0300
1000
0000
0100
0000
0000
0000
1001
0000
0000
0000
,
0002
0000
0020
0003
2000
0030
0020
3000
0000
0000
0002
0030
0200
0003
2000
0300
,
0000
0000
0002
3000
2000
0003
0002
3000
0020
0003
0000
0000
0100
0000
0030
0000
,
1001
0000
1000
1000
0000
0000
0101
0000
,
0000
0000
0010
0010
0000
0000
1100
0000
,
0000
0000
0001
0001
0000
0000
0100
0000
,
0010
1000
0000
1000
0100
0000
0000
0000
0010
0001
0000
0001
0100
0000
0000
0000
,
1010
0000
0000
0101
0000
MM1M
0000
0000
,
0000
0000
M1MM
0000
0000
MM1M
0000
M1M1
,
0000
0000
1MMM
0000
0000
1M1M
0000
0000
,
0000
0000
0000
0000
MMM1
0000
0000
0000
0010
0001
0100
0000
0010
0000
1000
0100
,
0010
0000
MMM1
0100
0000
1M1M
0000
0000
,
0000
0000
M1MM
0000
0000
1M1M
0000
0000
,
0000
0000
MM11
0000
0000
2M2M
0000
3030
,
0000
0000
0000
0000
M1MM
0000
0000
M1M1
0000
0000
0010
0000
0100
0000
0001
1000
,
0001
0000
1100
0000
0101
0000
0100
0001
0000
0000
1010
0000
0000
0000
0000
0000
,
0000
0000
MM1M
0000
0000
M1MM
0000
0000
,
1100
0000
0101
0000
0101
0000
0001
0010
0000
0000
MM11
0000
0000
0000
0000
0000
,
0000
0000
0000
0000
M1M1
0000
0000
0000
0010
1000
0100
0000
0000
0000
0100
1000
,
0100
0000
0100
0000
0100
0000
0100
0020
0000
0000
0130
0000
0000
0000
0000
0000
,
0000
0000
1MM1
0000
0000
M11M
0000
1001
,
2000
0000
0020
3000
0002
0030
2000
0003
,
0200
3000
0002
0300
0020
0003
2000
0030
,
0010
3000
0001
0000
1000
0000
0100
0000
0000
0000
0100
0000
0010
0000
0001
0000
,
2000
0000
0002
0000
0010
3003
1001
0000
,
0010
0100
0001
0100
0000
0100
0010
1000
,
0002
0000
2000
0000
0010
3003
1001
0000
,
1000
0000
0100
0000
1000
0000
0010
0000
0000
0000
0010
0000
0000
0000
0100
0010
,
1000
0000
1001
0000
0110
1001
0110
0000
,
0001
0000
0010
0000
0001
0000
0100
0000
0000
0000
0100
0000
0000
0000
0010
1000
,
0100
0000
0110
0000
1001
0001
0011
0000
,
1000
0100
0001
0100
1000
0010
0001
0010
,
0100
1000
0100
0001
0010
0100
0020
0000
,
0130
0010
0100
1000
0010
0001
0010
0100
,
1000
1000
0100
0001
0010
0110
1001
0000
,
1000
0000
0000
0001
0100
0000
0000
0000
0100
0000
0000
0010
1000
0000
0000
0000
,
1000
0000
0000
0001
0100
0000
0000
0000
0020
0000
0100
0000
0100
0000
0000
0000
,
0130
0000
0000
0001
0100
0000
0000
0000
0100
0000
0000
0010
1000
0000
0000
0000
,
0001
0001
0010
0100
0010
0100
0100
0010
,
2002
0000
0000
0000
0000
0000
0000
3003
,
MMMM
0000
0000
0000
;

//---------------dance-double - M. Emirzian----------------
#NOTES:
     dance-double:
     M. Emirzian:
     Easy:
     2:
     0.154,0.216,0.100,0.020,0.000,96.000,10.000,2.000,0.000,0.000:









00000000
00000000
00000000
00000000
,
00000000
00000000
00000000
00000000
,
00000000
00000000
00000000
00000000
,
10000000
00000000
00010000
00000000
,
01000000
00000000
00000000
00000000
,
00100000
00000000
00000000
00000000
,
10000000
00000000
00000000
00000000
,
01000000
00000000
00100000
00001000
,
00010000
00000000
00000000
00000000
,
00000010
00000000
00000000
00000000
,
00001000
00000000
00000000
00000000
,
00000100
00000000
00000000
00000000
,
00000010
00000000
00000000
00000000
,
00000001
00000000
00000100
00000010
,
00001000
00000000
00000000
00000000
,
00000100
00000000
00000000
00000000
,
00010000
00000000
00000000
00000000
,
00001000
00000000
00000000
00000000
,
01000000
00000000
00000000
00000000
,
00100000
10000000
00100000
00000000
,
10010000
00000000
00000000
00000000
,
00001000
00000000
00000000
00000000
,
00011000
00000000
00000000
00000000
,
00000010
00000000
00000000
00000000
,
00000101
00000000
00000000
00000000
,
00001000
00000000
00000000
00000000
,
00010100
00000000
00000000
00000000
,
00001000
00000000
00000000
00000000
,
00010000
00000000
00001000
00000000
,
01000000
00000000
00010000
00000000
,
00100000
00000000
01000000
00000000
,
10000000
00000000
00100000
00000000
,
01000000
00000000
00001000
00000000
,
00010000
00000000
00000100
00000000
,
00001000
00000000
00000010
00000000
,
00000100
00000000
00000001
00000000
,
00002002
00000000
00000000
00000000
,
00000000
00000000
00000000
00000000
,
00000000
00000000
00000000
00003003
,
00000000
00000000
00000000
00000000
,
00000010
00000000
00000000
00000000
,
00000100
00000000
00000000
00000000
,
00001000
00000000
00000000
00000000
,
00000001
00000000
00000100
00000010
,
00001000
00000000
00000000
00000000
,
00000100
00000000
00000000
00000000
,
00010000
00000000
00000000
00000000
,
00001000
00000000
01000000
00010000
,
10000000
00000000
00000000
00000000
,
01000000
00000000
00000000
00000000
,
00100000
00000000
00000000
00000000
,
00010000
00000000
01000000
00001000
,
00010000
00000000
00000000
00000000
,
00000100
00000000
00000000
00000000
,
00000010
00000000
00000000
00000000
,
00000001
00000000
00000000
00000000
,
00000100
00000000
00000000
00000000
,
00000110
00000000
00000000
00000000
,
00010000
00000000
00000000
00000000
,
01001000
00000000
00000000
00000000
,
00010000
00000000
00000000
00000000
,
00101000
00000000
00000000
00000000
,
00010000
00000000
00000000
00000000
,
11000000
00000000
00000000
00000000
,
01000000
00000000
00100000
00000000
,
00010000
00000000
01000000
00000000
,
00001000
00000000
00010000
00000000
,
00000100
00000000
00001000
00000000
,
00000010
00000000
00000100
00000000
,
00000001
00000000
00000010
00000000
,
00000100
00000000
00001000
00000000
,
00000010
00000000
00010000
00000000
,
00011000
00000000
00000000
00000000
;

//---------------dance-double - M. Emirzian----------------
#NOTES:
     dance-double:
     M. Emirzian:
     Medium:
     6:
     0.463,0.511,0.260,0.040,0.000,294.000,26.000,4.000,0.000,0.000:









00000000
00000000
00000000
00000000
,
00000000
00000000
00000000
00000000
,
00000000
00000000
00000000
00000000
,
00001000
00011000
00000000
00000000
01010000
00000000
10000000
00000000
,
01000000
00000000
00100000
00010000
00000000
00000000
01000000
00000000
,
00100000
00000000
10000000
01000000
00000000
00000000
00100000
00000000
,
00010000
00000000
01000000
00001000
00000000
00000000
00010000
00000000
,
00000100
00000000
00001000
00000010
00001000
00000000
00001001
00000000
,
00000010
00000000
00000100
00000001
00000000
00000000
00000010
00000000
,
00000100
00000000
00001000
00000001
00000000
00000000
00000100
00000000
,
00001000
00000000
00010000
00001000
00000000
00000000
00010000
00000000
,
00001000
00000000
01000000
00010000
01000000
00000000
10010000
00000000
,
01000000
00000000
00100000
00010000
00000000
00000000
01000000
00000000
,
00100000
00000000
10000000
01000000
00000000
00000000
00100000
00000000
,
00010000
00000000
01000000
00001000
00000000
00000000
00010000
00000000
,
00000100
00000000
00001000
00000001
00001000
00000000
00001100
00000000
,
00000010
00000000
00000100
00000001
00000000
00000000
00000010
00000000
,
00000100
00000000
00001000
00000001
00000000
00000000
00000100
00000000
,
00000010
00000000
00010000
00001000
00000000
00000000
00010000
00000000
,
00001000
01000000
00010000
00000000
01000000
00100000
10000000
00000000
,
01000000
00100000
00010000
01000000
00000000
00001000
00010000
00000000
,
00010010
00000000
00000000
00000000
,
00000001
00000010
00000100
00001000
00000000
00000001
00000100
00000000
,
00001010
00000000
00000000
00000000
,
00100000
00001000
00010000
00001000
00000000
01000000
00010000
00000000
,
10010000
00000000
00000000
00000000
,
01000000
00100000
00010000
01000000
00000000
00001000
00010000
00000000
,
00010100
00000000
00000000
00000000
,
00000001
00000100
00000001
00000000
00000100
00000010
00000100
00000000
,
00000000
00000010
00001000
00000100
00010000
00000000
00011000
00000000
,
00001000
01000000
00001000
00000000
01000000
00010000
01000000
00000000
,
00000000
00100000
10000000
01000000
00100000
00000000
00110000
00000000
,
01000000
10000000
01000000
00000000
00100000
00001000
00100000
00000000
,
00000000
00001000
00010000
00000100
00001000
00000000
00001010
00000000
,
00000100
00000001
00000100
00000000
00000010
00001000
00000010
00000000
,
00000000
00000100
00000001
00000010
00000100
00000000
00001100
00000000
,
00022000
00000000
00000000
00000000
,
00000000
00000000
00000000
00000000
,
00000000
00000000
00000000
00033000
,
00010000
00001000
01000000
00000000
00010000
01000000
00100000
00000000
,
10000000
00000000
01000000
00100000
00000000
00000000
00010000
00000000
,
01000000
00000000
00001000
00010000
00000000
00000000
00000100
00000000
,
00001000
00000000
00000010
00000100
00000000
00000000
00000001
00000000
,
00000010
00000000
00000100
00001000
00000100
00000000
00001001
00000000
,
00000010
00000000
00000100
00001000
00000000
00000000
00000100
00000000
,
00010000
00000000
00001000
01000000
00000000
00000000
00010000
00000000
,
00100000
00000000
01000000
10000000
00000000
00000000
00010000
00000000
,
01000000
00000000
00100000
10000000
00100000
00000000
01010000
00000000
,
00100000
00000000
01000000
00001000
00000000
00000000
00010000
00000000
,
00000100
00000000
00001000
00000010
00000000
00000000
00000100
00000000
,
00000001
00000000
00000010
00000100
00000000
00000000
00001000
00000000
,
00000001
00000000
00000100
00000010
00000100
00000000
00001001
00000000
,
00000100
00000000
00010000
00001000
00000000
00000000
00000100
00000000
,
00001000
00000000
00010000
00001000
00000000
00000000
01000000
00000000
,
00010000
00000000
00100000
01000000
00000000
00000000
10000000
00000000
,
00100000
01000000
00001000
00000000
00010000
00000100
00001000
00000000
,
00000010
00000100
00000001
00000010
00000000
00000100
00001000
00000000
,
00001001
00000000
00000000
00000000
,
00000010
00000100
00001000
00010000
00000000
00001000
01000000
00000000
,
01010000
00000000
00000000
00000000
,
10000000
01000000
00010000
00001000
00000000
01000000
00001000
00000000
,
00011000
00000000
00000000
00000000
,
00000100
00010000
00001000
00000100
00000000
00000001
00000010
00000000
,
00001100
00000000
00000000
00000000
,
00000001
00000100
00000001
00000000
00001000
00000100
00001000
00000000
,
00000000
00000010
00010000
00001000
01000000
00000000
01010000
00000000
,
00100000
10000000
00100000
00000000
01000000
00001000
01000000
00000000
,
00000000
00010000
00100000
00001000
00010000
00000000
00010010
00000000
,
00000100
00001000
00000100
00000000
00010000
00001000
00010000
00000000
,
00000000
00000100
00001000
00000010
00000100
00000000
00000101
00000000
,
00000010
00000100
00001000
00000000
00000010
00010000
00001000
00000000
,
00000000
01000000
00010000
00100000
01000000
00000000
10010000
00000000
,
02200000
00000000
00000000
00000000
,
03300000
00000000
00000000
00000000
;

//---------------dance-double - M. Emirzian----------------
#NOTES:
     dance-double:
     M. Emirzian:
     Hard:
     9:
     0.714,0.730,0.280,0.040,0.135,468.000,28.000,4.000,0.000,0.000:









00000000
00000000
00000000
00000000
,
00000000
00000000
00000000
00000000
,
00000000
00000000
00000000
00000000
,
00100000
00000000
10010000
00000000
00000000
01010000
00000000
00000000
01001000
00000000
00000000
00000000
00011000
00000000
00010000
00000000
,
00000100
00000000
00000010
00000000
00000001
00000000
00000010
00000100
00000000
00000000
00001000
00000000
00000001
00000000
00000100
00000000
,
00000010
00000100
00000001
00001000
00000100
00010000
00001000
00000100
,
00001000
00000000
00010000
00000000
00100000
00000000
01000000
00010000
00000000
00000000
00100000
00000000
01000000
00000000
00100000
00000000
,
00010000
01000000
00100000
10000000
01000000
00100000
00110000
00000000
,
01000000
00000000
10000000
00000000
00100000
00000000
00010000
00100000
00000000
00000000
10000000
00000000
01000000
00000000
00100000
00000000
,
00001000
00010000
00000100
00000010
00000001
00000100
00000001
00000010
,
00000100
00000000
00001000
00000000
00000010
00000000
00000100
00000001
00000000
00000000
00001000
00000000
00000001
00000000
00000100
00000000
,
00001000
00010000
00000100
00010000
00001000
00000100
00000101
00000000
,
00000010
00000000
00000100
00000000
00001000
00000000
00010000
00001000
00000000
00000000
00000010
00000000
00001000
00000000
00010000
00000000
,
01000000
10000000
00010000
01000000
00100000
10000000
01000000
00100000
,
01000000
00000000
10000000
00000000
00100000
00000000
01000000
00010000
00000000
00000000
00100000
00000000
00010000
00000000
01000000
00000000
,
00100000
00010000
00001000
00010000
00000100
00001000
00000110
00000000
,
00000001
00000000
00000010
00000000
00000100
00000000
00001000
00000001
00000000
00000000
00001000
00000000
00000010
00000000
00000100
00000000
,
00000010
00001000
00000100
00000010
00000001
00000100
00001000
00010000
,
00100000
00000000
00010000
00000000
00001000
00000000
01000000
00100000
00000000
00000000
10000000
00000000
01000000
00000000
00100000
00000000
,
00010000
00000000
01000000
00100000
01000000
00000000
00010000
00000000
10000000
00000000
01000000
00100000
00010000
00100000
00001000
00000000
,
00010000
00000010
00010000
00000100
00000000
00000010
00000100
00001000
,
00000001
00000000
00000100
00000010
00001000
00000100
00001000
00000000
,
00000001
00000100
00001000
00010000
00000000
00001000
00010000
01000000
,
10000000
00000000
00010000
01000000
00100000
01000000
00010000
00000000
,
00100000
00000000
10000000
00000000
00100000
00000000
00010000
00000000
00000000
00000000
10000000
00000000
00000000
00000000
00100000
01000000
,
00010000
00000000
00100000
00001000
00010000
00000100
00001000
00000000
,
00000001
00000000
00000010
00000000
00000100
00000000
00001000
00000000
00000000
00000000
00000001
00000000
00000000
00000000
00000100
00000010
,
00000100
00000000
00000100
00000001
00000010
00000100
00000010
00000000
,
00000001
00000100
00001000
00010000
00100000
10000000
00100000
01000000
,
00000000
00010000
10000000
01000000
00100000
00010000
01000000
00000000
,
10000000
01000000
00010000
10000000
00100000
00010000
00001000
00000010
,
00000000
00000001
00000100
00000010
00000100
00000001
00001000
00000000
,
00000001
00000010
00000100
00010000
00001000
00000100
00000001
00000010
,
00000000
00000100
00010000
00001000
01000000
00100000
10000000
00000000
,
00010000
00100000
01000000
10000000
00000000
10000000
00100000
01000000
,
00000000
00100000
00010000
00001000
00000010
00000001
00000100
00000000
,
00002002
00000000
00000000
00000000
,
00000000
00000000
00000000
00000000
,
00000000
00000000
00000000
00003003
,
00001000
00000100
00000000
00001000
00000001
00000000
00001000
00000000
00000100
00010000
00000000
00001000
01000000
00000000
00000000
00000000
,
00010000
00000000
00100000
00000000
01000000
00000000
10000000
00010000
00000000
00000000
01000000
00000000
00100000
00000000
10000000
00000000
,
01000000
00100000
00001000
00010000
00001000
01000000
00010000
00100000
,
10000000
00000000
00100000
00000000
00010000
00000000
10000000
01000000
00000000
00000000
00100000
00000000
00001000
00000000
00010000
00000000
,
00000100
00000010
00000001
00001000
00000001
00000100
00001001
00000000
,
00000010
00000000
00001100
00000000
00000001
00000100
00001010
00000000
,
00010000
00000000
00010100
00000000
00001000
00010000
01001000
00000000
,
00100000
00000000
01010000
00000000
00100000
01000000
10010000
00000000
,
00100000
00000000
00101000
00000000
01000000
01100000
11000000
00000000
,
10000000
00000000
00100000
00000000
01000000
00000000
00010000
00100000
00000000
00000000
01000000
00000000
10000000
00000000
00001000
00000000
,
01000000
00100000
01000000
00010000
10000000
01000000
00010000
00001000
,
00010000
00000000
00000100
00000000
00001000
00000000
00000001
00000100
00000000
00000000
00001000
00000000
00000100
00000000
00000001
00000000
,
00000010
00001000
00010000
00000100
00000010
00000001
00000101
00000000
,
00000010
00000000
00001100
00000000
00000010
00010000
00011000
00000000
,
01000000
00000000
00110000
00000000
01000000
11000000
10010000
00000000
,
01000000
00000000
01001000
00000000
00010000
00011000
00010010
00000000
,
00001000
00000000
00010000
00000100
00001000
00000000
00000010
00000000
00000100
00000000
00000010
00001000
00000010
00010000
00001000
00000000
,
00010000
00001000
00000100
00000001
00000000
00000010
00000100
00010000
,
00000100
00000000
00000010
00000001
00000100
00000010
00000100
00000000
,
00000001
00000100
00001000
00010000
00000000
00001000
00010000
01000000
,
10000000
00000000
00010000
01000000
00100000
01000000
00010000
00000000
,
10000000
00000000
01000000
00000000
00010000
00000000
00001000
00000000
00000000
00000000
01000000
00000000
00000000
00000000
00100000
01000000
,
00010000
00000000
10000000
01000000
00010000
00001000
00010000
00000000
,
00000100
00000000
00000010
00000000
00000100
00000000
00001000
00000000
00000000
00000000
00000001
00000000
00000000
00000000
00000100
00000010
,
00001000
00000000
00000100
00000010
00000001
00000100
00000010
00000000
,
00000100
00000001
00000100
00001000
00010000
00000100
00010000
00001000
,
00000000
01000000
00100000
00010000
00001000
00100000
01000000
00000000
,
10000000
00100000
01000000
00100000
10000000
01000000
00010000
00001000
,
00000000
00010000
01000000
10000000
00100000
10000000
01000000
00000000
,
00100000
00001000
00010000
00000100
00000010
00000100
00001000
00000001
,
00000000
00000100
00000010
00000100
00000001
00001000
00000100
00000000
,
00010000
00000100
00000010
00000100
00001000
00000001
00000100
00001000
,
00000000
00010000
00001000
01000000
00100000
01000000
00010000
00000000
,
22000000
00000000
00000000
00000000
,
33000000
00000000
00000000
00000000
;

//---------------dance-double - M. Emirzian----------------
#NOTES:
     dance-double:
     M. Emirzian:
     Challenge:
     11:
     0.716,0.803,0.400,0.380,0.175,423.000,40.000,38.000,0.000,34.000:









00000000
00000000
00000000
00000000
,
00000000
00000000
00000000
00000000
,
00000000
00000000
00000000
00000000
,
00100000
00000000
01001000
00000000
00000000
01000100
00000000
00000000
00011000
00000000
00000000
00000000
00000010
00000000
00001000
00000000
,
00000100
00000000
00000010
00000000
00000001
00000100
00000010
00001000
00000000
00000000
00002002
00000000
00000000
00000000
00000000
00000000
,
00000100
00000000
00000010
00003003
00000000
00000000
00001000
00000000
00000010
00000000
00010000
00000000
00000100
00000000
00000000
00000000
,
00010000
00000000
00001000
00000000
01000000
00100000
01000000
00010000
00000000
00000000
20020000
00000000
00000000
00000000
00000000
00000000
,
00100000
00000000
01000000
30030000
00000000
00000000
10000000
00000000
00010000
00000000
01000000
00000000
10000000
00000000
00000000
00000000
,
01000000
00000000
00010000
10000000
00000000
01000000
00100000
00001000
,
00010000
00000000
01000000
00010000
00000010
00000000
00000101
00000000
,
00000001
00000000
00000100
00001000
00000000
00100000
10000000
00100000
,
00010000
00000000
10000000
00100000
01010000
00000000
01001000
00000000
,
00001000
00000000
00010000
00000000
00000100
00010000
00000010
00000100
00000000
00000000
00000202
00000000
00000000
00000000
00000000
00000000
,
00000010
00000000
00001000
00000303
00000000
00000000
00000001
00000000
00000010
00000000
00000100
00000000
00010000
00000000
00000000
00000000
,
00000010
00000000
00000100
00000000
00001000
00010000
00000100
00010000
00000000
00000000
02002000
00000000
00000000
00000000
00000000
00000000
,
00100000
00000000
00010000
03003000
00000000
00000000
01000000
00000000
00010000
00000000
10000000
00000000
01000000
00000000
00000000
00000000
,
00010000
00000000
10000000
01000000
00000000
00010000
00000010
00000001
,
00000010
00000000
00000100
00001000
00010000
00000000
00000110
00000000
,
00000001
00000000
00000010
00001000
00000000
00010000
00001000
01000000
,
00010000
01000000
00100000
10000000
01000000
00100000
00010000
00000000
10000000
00100000
01000000
00001000
00010000
00000100
00001000
00000010
,
00000100
00000001
00000010
00000100
00000000
00001000
00000001
00000100
,
00000010
00000000
00000000
00000000
00002200
00000000
00000000
00000000
00000001
00000000
00000000
00000000
00010010
00003300
00000000
00000000
,
00000100
00010000
00100000
10000000
00000000
01000000
00100000
00010000
,
01000000
00000000
00000000
00000000
02002000
00000000
00000000
00000000
00100000
00000000
00000000
00000000
10010000
03003000
00000000
00000000
,
01000000
00000000
00010000
00000000
00100000
00000000
01000000
00000000
00000000
00000000
10000000
00000000
00000000
00000000
00100000
01000000
,
00010000
00000000
00000000
00000000
00022000
00000000
00000000
00000000
00100000
00000000
00000000
00000000
00100010
00033000
00000000
00000000
,
00001000
00000000
00010000
00000000
00000010
00000000
00000100
00000000
00000000
00000000
00000001
00000000
00000000
00000000
00001000
00000100
,
00000010
00000000
00000000
00000000
00002200
00000000
00000000
00000000
00010000
00000000
00000000
00000000
00010010
00003300
00000000
00000000
,
00000100
00001000
00000001
00010000
00100000
00010000
00001000
00000100
,
00000000
00001000
00100000
01000000
00100000
00000100
00001000
00000000
,
00000001
00000010
00000100
01000000
00100000
01000000
00000100
00000010
,
00000000
00000001
00010000
00001000
10000000
00100000
01000000
00000000
,
00010000
01000000
00100000
01000000
00000100
00000010
00000100
00010000
,
00000000
00100000
00010000
00000100
00000001
00000100
00001000
00000000
,
00000001
00000100
00001000
01000000
00000000
10000000
01000000
00001000
,
00000000
01000000
00100000
00010000
00000100
00000010
00000001
00000000
,
00002002
00000000
00000000
00000000
,
00000000
00000000
00000000
00000000
,
00000000
00000000
00000000
00000000
,
00000110
00003003
00000000
00000000
00020020
00000000
00000000
00000000
00001100
00030030
00000000
00000000
00010000
00000000
00000000
00000000
,
00010000
00000000
00001000
00000000
01000000
00010000
10000000
01000000
00000000
00000000
02020000
00000000
00000000
00000000
00000000
00000000
,
00100000
03031000
00000000
10000000
01000000
00100000
00010000
00000000
,
01000000
00000000
00001000
00000000
00010000
00000010
00001000
00000010
00000000
00000000
00000202
00000000
00000000
00000000
00000000
00000000
,
00001000
00000000
00000010
00000303
00000000
00000000
00000001
00000000
00001000
00000000
00000100
00000000
00010000
00000000
00000000
00000000
,
00001000
00000000
01000000
00100000
00000000
10000000
00100000
01000000
,
00001000
00000000
00000010
00001000
00010000
00000000
00010100
00000000
,
00000010
00000000
00001000
00000100
00000000
00000001
00000100
00001000
,
00000010
00000000
00010000
00001000
00001001
00000000
00000110
00000000
,
00000001
00000000
00000100
00000000
00000010
00001000
00000100
00010000
00000000
00000000
02002000
00000000
00000000
00000000
00000000
00000000
,
00100000
00000000
00010000
03003000
00000000
00000000
00100000
00000000
00010000
00000000
01000000
00000000
10000000
00000000
00000000
00000000
,
01000000
00000000
00010000
00000000
10000000
01000000
00100000
00010000
00000000
00000000
02020000
00000000
00000000
00000000
00000000
00000000
,
00100000
00000000
00001000
03030000
00000000
00000000
01000000
00000000
00001000
00000000
00010000
00000000
00000100
00000000
00000000
00000000
,
00000010
00000000
00000001
00000100
00000000
00000010
00001000
00000100
,
00010000
00000000
00001000
00000100
00000001
00000000
00001100
00000000
,
00000010
00000000
00010000
00100000
00000000
10000000
01000000
00100000
,
00010000
10000000
00100000
01000000
00010000
10000000
01000000
00000000
00100000
00010000
01000000
00001000
00010000
00000100
00001000
00000010
,
00000100
00000001
00001000
00000100
00000000
00000001
00000100
00010000
,
00001000
00000000
00000000
00000000
00002020
00000000
00000000
00000000
00010000
00000000
00000000
00000000
00010100
00003030
00000000
00000000
,
00001000
00000100
01000000
00100000
00000000
01000000
00001000
00010000
,
01000000
00000000
00000000
00000000
02020000
00000000
00000000
00000000
00100000
00000000
00000000
00000000
00101000
03030000
00000000
00000000
,
00100000
00000000
01000000
00000000
10000000
00000000
00010000
00000000
00000000
00000000
01000000
00000000
00000000
00000000
00100000
01000000
,
00010000
00000000
00000000
00000000
00022000
00000000
00000000
00000000
01000000
00000000
00000000
00000000
01000100
00033000
00000000
00000000
,
00010000
00000000
00001000
00000000
00000100
00000000
00000001
00000000
00000000
00000000
00001000
00000000
00000000
00000000
00000100
00000010
,
00000001
00000000
00000000
00000000
00002200
00000000
00000000
00000000
00010000
00000000
00000000
00000000
00000011
00003300
00000000
00000000
,
00001000
00000001
00000100
00001000
00100000
01000000
00100000
00001000
,
00000000
00000100
00000010
00010000
00100000
00010000
00001000
00000000
,
01000000
00100000
01000000
00000100
00000010
00001000
00010000
00000100
,
00000000
00000001
00000100
00010000
10000000
01000000
00010000
00000000
,
10000000
01000000
00010000
00000001
00000100
00001000
01000000
10000000
,
00000000
01000000
00001000
00000100
00000010
00000100
00000001
00000000
,
00000010
00000100
00010000
00100000
01000000
00100000
00010000
00000100
,
00000000
00001000
00000010
01000000
00001000
00100000
01000000
00000000
,
20020000
00000000
00000000
00000000
,
30030000
00000000
00000000
00000000
;

//---------------lights-cabinet - ----------------
#NOTES:
     lights-cabinet:
     :
     Easy:
     1:
     1.000,1.000,1.000,0.000,0.170,500.000,386.000,0.000,0.000,295.000:



00000000
00000000
00000000
00000000
,
00000000
00000000
00000000
00000000
,
00000000
00000000
00000000
00000000
,
11001111
00000000
11001111
00000000
00000000
00010000
00101111
00000000
00011111
00000000
01000000
00000000
01101111
00000000
00000000
00000000
,
10000011
00000000
01000011
10000000
00000011
01000000
10000000
00000000
00100011
00000000
01000000
00000000
00010011
00000000
00100000
00000000
,
00010011
00000000
00100000
00010000
00000011
00100000
00010000
00000000
01000011
00000000
00100000
00000000
10000011
00000000
01000011
00000000
,
10000011
00000000
00100000
01000000
00000011
00100000
01000000
00000000
00010011
00000000
00100000
00000000
00010011
00000000
00100000
00000000
,
00010011
00000000
01000011
00100000
00000000
01000000
00100011
00000000
10000011
00000000
01000000
00000000
10000011
00000000
01000000
00000000
,
10000011
00100011
01000011
01000011
00000000
00100011
10000011
01000000
,
01000011
10000011
10000011
00100011
00000000
01000011
01000011
00010000
,
00010011
00100000
00100011
00010011
00000000
01000011
01000011
01000011
,
10010011
00000000
01100011
00000000
00110011
00000011
11000011
00000000
,
10010011
00000000
01000000
00100000
00000011
10000000
01000000
00000000
11000011
00000000
00000000
00000000
11000011
00000000
00000000
00000000
,
10000011
00000000
00100011
01000000
00000000
00010000
00100011
00000000
00110011
00000000
11000000
00000000
00110011
00000000
00000000
00000000
,
00010011
00000000
01000000
00100000
00000011
01000000
00100000
00000000
11000011
00000000
00000000
00000000
11000011
00000000
00000000
00000000
,
10000011
00000000
00100011
01000000
00000000
00100000
01000011
00000000
00110011
00000000
00110000
00000000
00110011
00000000
00000000
00000000
,
00010011
01000011
00100011
01000011
00000000
01000011
00100011
00000011
,
01000011
00100000
10000011
01000000
00000011
01000000
10000000
00100000
,
00100011
01000011
01000011
00010011
00000000
00100011
00010011
00010011
,
01000011
00000000
00100000
00000000
10000011
00000000
01000000
00000000
10000011
00000000
00100000
00000000
10000011
00010000
10000000
00010000
,
10001011
00100100
10001011
01000111
00001000
01000111
00101000
00010111
,
01001011
00000000
10010000
01100011
10010011
00000000
01100011
00000000
,
00101011
01000111
00011011
01000111
00001000
01000111
00101000
10000111
,
00101011
00000000
10010011
01100000
10010011
00000011
10010011
00000000
,
10001011
00000000
01000111
00000000
10001011
00000000
00100111
00000000
00001000
00000000
00100111
00000000
00001000
00000000
01000111
00100000
,
10001011
00000000
11000011
00000000
00110011
00000011
00110011
00000000
,
10011011
00000000
00100111
00000000
00011011
00000000
01000111
00000000
00001000
00000000
01000111
00000000
00001000
00000000
00100111
01000000
,
10011011
00000000
00000011
00000000
00110011
00000011
01100011
00000000
,
10001011
00100100
01001011
00010100
10001011
00100100
01001011
00010100
,
11001011
00010000
01000011
00100000
10000011
00100011
10000011
00010000
,
01001011
00100100
10001011
00100100
01001011
10010100
00101011
00010100
,
10001011
00100011
01000011
00000011
01100011
00000000
11110011
00000000
,
00011011
01000100
00101011
01000100
00011011
00100100
10011011
01100100
,
00001011
01100011
00000011
01100011
11110011
00000000
11110011
00000000
,
10001011
00010100
01001011
00100100
10001011
00010100
01001011
00100100
,
10001011
01100011
00000011
10010011
01100011
00000000
01010011
00000000
,
11111011
00000100
11001000
00110100
00001000
00000100
10111000
00000000
,
00001000
00000000
00000100
00001000
11000100
00000000
00111000
00000000
00000100
00000000
00001000
00000000
11110100
00000000
00000000
00000000
,
00001000
00000000
00000100
00000000
11001000
00000000
00110100
00000000
00001000
00000000
00000100
00000000
11111000
00000000
00000100
00001000
,
10010100
01100000
00001000
00000000
01100100
00000000
00001000
00000000
10010100
01101000
00000100
00001000
10010100
00000000
00000000
00000000
,
10000011
01000000
00000000
00110011
10000000
01000000
00110000
00000000
,
00010000
01000000
00000000
00110011
11000011
00000000
01010011
00000000
,
10100011
00010000
00000000
01100011
00000000
11000000
00010000
11000000
,
00010000
00000000
00100000
00000000
01000000
00000000
00010011
00000000
10000011
01000000
10000000
00000000
00100011
00000000
01000000
00010000
,
00100011
00000000
00010011
01000011
00000000
01100011
00000000
00000011
,
00000011
00000000
11110011
00000000
00000011
01100000
00000011
00000000
,
00000011
00000000
11000011
00110011
00000000
00110011
00000000
00000011
,
00000011
00000000
00000000
00000000
10100011
00000000
00000000
00010000
00000011
00000000
01000011
00000000
00010011
00000000
10000011
01000000
,
10000011
00000000
00100000
00000000
01000000
00000000
00010011
00100000
00000000
00000000
00110000
00000000
00000011
00000000
00000000
00000000
,
00010011
00000011
00000011
01000000
01000011
00000000
00010011
00000000
,
00010011
00000000
10000011
00000000
00100011
00000000
10000011
00100000
00000000
00000000
11000000
00000000
00000011
00000000
00000000
00000000
,
10000011
00000011
00000011
00010000
00010011
00000000
10000011
00000000
,
10000011
00100011
10000011
00100011
01000000
00010011
01000011
00100011
,
10000011
01000000
10000000
00010011
01000000
00010011
01100011
00000000
,
00010011
01000011
00100011
10000011
00100000
01000011
00010011
00000000
,
00010011
00000000
01000011
00000000
10010011
00000011
01100011
00000011
,
10011011
00000100
10001011
01000100
00000011
01000000
00100011
00010000
,
10000011
00000000
01000000
00000011
00010011
00000000
11100011
00000000
,
00101011
01000100
00011011
01000100
00001011
01000100
00101011
10000100
,
01001011
00000000
10000000
00000011
00110011
00000000
11110011
00000000
,
10001011
00000000
01000100
00000000
10001011
00000000
00100100
00000000
00001011
00000000
00100100
00000000
00001011
00000000
01000100
00100000
,
10001011
00000000
01100000
00000011
10010011
00000000
10010011
00000000
,
01011011
00000000
00100100
00000000
00011011
00000000
01000100
00000000
00001011
00000000
01000100
00000000
00001011
00000000
00100100
01000000
,
00011011
00000000
11000000
00000011
11000011
00000000
00110011
00000000
,
10001011
01000111
00011011
01000111
10001000
00100111
01001011
00100111
,
00011000
01000011
10000000
01000011
10000011
00000000
00110011
00000000
,
10001011
00100111
01001011
00010111
10001000
00100111
01001000
00010111
,
10001011
00010011
01000011
00010011
11000011
00000000
11110011
00000000
,
10001011
00100111
01001011
00010111
01001000
00100111
01001000
00100111
,
10001011
00100000
00010011
01000000
10010011
00000011
10010011
00000000
,
10001011
00010111
00101011
10000111
00011000
01000111
10101000
11000111
,
00001011
00110000
00000011
11000000
00000011
00111111
01101111
00000000
,
11111111
00000000
00000000
00000000
;

//---------------dance-single - K. Ward----------------
#NOTES:
     dance-single:
     K. Ward:
     Beginner:
     1:
     0.087,0.180,0.010,0.000,0.000,60.000,1.000,0.000,0.000,0.000:







0000
0000
0000
0000
,
0000
0000
0000
0000
,
0000
0000
0000
0000
,
1000
0000
0000
0000
,
0001
0000
0000
0000
,
0000
0000
0000
0000
,
0001
0000
0000
0000
,
0000
0000
0000
0000
,
0100
0000
0000
0000
,
0000
0000
0000
0000
,
0100
0000
0000
0000
,
0000
0000
0010
0000
,
1000
0000
0000
0000
,
0000
0000
0000
0000
,
1000
0000
0000
0000
,
0000
0000
0000
0000
,
0001
0000
0000
0000
,
0000
0000
0000
0000
,
0001
0000
0000
0000
,
1000
0000
0000
0000
,
0001
0000
0000
0000
,
0010
0000
0000
0000
,
0100
0000
0000
0000
,
0010
0000
0000
0000
,
0001
0000
0000
0000
,
1000
0000
0000
0000
,
0001
0000
0000
0000
,
0010
0000
0000
0000
,
0001
0000
0000
0000
,
0001
0000
0000
0000
,
1000
0000
0000
0000
,
1000
0000
0000
0000
,
0001
0000
0000
0000
,
0001
0000
0000
0000
,
1000
0000
0000
0000
,
1000
0000
0001
0000
,
0001
0000
0000
0000
,
0000
0000
0000
0000
,
0000
0000
0000
0000
,
0000
0000
0000
0000
,
1000
0000
0000
0000
,
0000
0000
0000
0000
,
1000
0000
0000
0000
,
0000
0000
0000
0000
,
0001
0000
0000
0000
,
0000
0000
0000
0000
,
0001
0000
0000
0000
,
0000
0000
0000
0000
,
0100
0000
0000
0000
,
0000
0000
0000
0000
,
0100
0000
0000
0000
,
0000
0000
0000
0000
,
0001
0000
0000
0000
,
0000
0000
0000
0000
,
0001
0000
0000
0000
,
0000
0000
0000
0000
,
1000
0000
0001
0000
,
1000
0000
0000
0000
,
1000
0000
0001
0000
,
1000
0000
0000
0000
,
0001
0000
0000
0000
,
0001
0000
0000
0000
,
1000
0000
0000
0000
,
1000
0000
0000
0000
,
0001
0000
0001
0000
,
0001
0000
0000
0000
,
1000
0000
1000
0000
,
1000
0000
0000
0000
,
0001
0000
0001
0000
,
0001
0000
0000
0000
,
1000
0000
0000
0000
,
1000
0000
0001
0000
,
1001
0000
0000
0000
;
