#TITLE:Boss On Parade;
#SUBTITLE:(DJ Sharpnel Remix);
#ARTIST:DJ Technorch;
#TITLETRANSLIT:;
#SUBTITLETRANSLIT:;
#ARTISTTRANSLIT:;
#CREDIT:;
#BANNER:boss on bn.png;
#BACKGROUND:boss on bg.png;
#LYRICSPATH:;
#CDTITLE:;
#MUSIC:Boss On Parade (DJ Sharpnel Remix).ogg;
#OFFSET:-0.269;
#SAMPLESTART:51.627;
#SAMPLELENGTH:17.859;
#SELECTABLE:YES;
#BPMS:0.000=215.000;
#STOPS:;
#BGCHANGES:;
// cache tags:
#FIRSTBEAT:24.000;
#LASTBEAT:1288.000;
#SONGFILENAME:Songs/SHARPNELSTREAMZ v2/Boss On Parade/Boss On Parade (DJ Sharpnel Remix.sm;
#HASMUSIC:1;
#HASBANNER:1;
#MUSICLENGTH:360.000;
// end cache tags

//---------------dance-single - 16+ (Aoreo)----------------
#NOTES:
     dance-single:
     16+ (Aoreo):
     Challenge:
     16:
     1.000,1.000,0.058,0.172,1.000,3102.000,21.000,62.000,169.000,0.000:
0000
0000
0000
0000
,
0000
0000
0000
0000
,
0000
0000
0000
0000
,
0000
0000
0000
0000
,
0000
0000
0000
0000
,
0000
0000
0000
0000
,
1001
0001
1000
0100
0010
0000
0001
1000
,
0010
0000
0000
0000
0010
0000
0000
0000
1000
0000
1000
0000
0001
0000
1000
0100
,
0010
0000
0100
0000
1000
0000
0000
0000
0010
0000
1000
0001
1000
0000
0001
0100
,
0010
0000
0100
0000
0001
0000
1000
0000
0100
0000
1000
0001
0010
0000
0100
1000
,
0001
0001
0000
1000
0100
0100
1000
0000
,
0010
0000
0000
0000
0110
0000
0000
0000
0100
0000
0001
0000
0010
0000
0100
1000
,
0001
0000
0100
0000
0010
0000
0000
0000
0100
0000
0001
1000
0100
0000
1000
0000
,
0001
0100
0010
0100
0100
0000
0001
0000
,
1001
0000
1000
0000
0100
0000
1000
0100
1000
0001
0010
0000
0100
0000
1000
0001
,
0100
0010
0100
0000
0001
0000
0010
0100
1000
0000
0001
0000
0100
0000
0001
1000
,
0001
0100
0001
0000
0100
0000
0001
0010
0100
0000
1000
0000
0010
0000
0100
0010
,
1000
0001
1000
0000
0001
0000
1000
0100
1000
0001
0100
0010
0100
0001
1000
0001
,
0010
0000
0100
0000
1000
0000
0100
1000
0001
0000
1000
0000
0010
0000
0100
0001
,
1000
0100
0010
0000
0100
0000
1000
0010
0100
0000
0001
0000
0100
0000
0001
1000
,
0001
0010
0100
0000
1000
0000
0001
0100
0010
0000
0100
0000
0001
0000
1000
0001
,
0200
0000
0000
0000
0000
0000
0000
0000
0302
0003
0000
0000
0000
0000
0000
0000
0002
0003
0000
0000
0000
0000
0000
0000
0000
0000
0000
0000
0000
0000
0000
0000
,
1001
0000
1000
0000
0010
0000
0100
0001
0100
0000
0001
0000
0010
0000
0100
1000
,
0001
1000
0010
0000
0100
0000
0001
1000
0100
0000
1000
0000
0001
0000
0100
0010
,
0100
0001
1000
0000
0001
0000
0010
0100
1000
0000
0001
0000
1000
0000
0010
1000
,
0001
0100
0001
0000
1000
0000
0100
0000
0010
0100
1000
0001
0100
0010
0100
0001
,
1000
0000
0001
0000
0100
0000
0010
1000
0001
0000
1000
0000
0010
0000
0100
0001
,
1000
0001
0010
0000
0100
0000
1000
0001
0100
0000
0010
0000
1000
0000
0010
0100
,
0001
1000
0001
0000
0010
0000
0100
1000
0001
0000
0100
0000
0010
0000
1000
0010
,
1000
0001
0100
0000
0001
0000
1000
0001
0010
0100
1000
0000
0001
0000
1000
0000
,
1100
0000
0100
0000
0010
0000
0001
1000
0001
0000
0100
0000
0010
0000
1000
0100
,
1000
0001
0100
0000
0010
0000
0100
0001
1000
0000
0001
0000
0010
0000
0100
1000
,
0001
1000
0010
0000
0100
0000
0001
1000
0100
0000
1000
0000
0001
0000
0100
0010
,
0100
0001
1000
0000
0001
0000
1000
0100
1000
0001
0100
0010
0100
0001
1000
0100
,
1000
0001
0100
0001
0100
0010
1000
0001
0100
0001
1000
0100
0010
0100
1000
0001
,
0010
0001
1000
0010
0100
0010
1000
0001
0100
0001
1000
0100
1000
0001
0010
0100
,
1000
0001
0100
0001
1000
0010
0100
0010
1000
0001
1000
0010
0100
0010
1000
0001
,
1000
0100
0010
0001
1000
0001
0100
0010
1000
0001
0100
0010
0100
0001
1000
0100
,
2000
3000
0000
0000
0000
0000
0000
0000
,
0002
0003
0000
0000
0000
0000
0000
0000
0000
0000
0000
0000
0000
0000
0000
0000
0000
0000
0000
0000
0000
0000
0000
0000
0000
0000
0000
0000
0000
0000
0000
0000
,
2000
3000
0000
0000
0000
0000
0000
0000
0000
0000
0000
0000
0000
0000
0000
0000
0000
0000
0000
0000
0000
0000
0000
0000
0000
0000
0000
0000
0000
0000
0000
0000
,
00M2
0000
0000
0000
0000
0000
0003
0000
0000
0000
0000
0000
0000
0000
0000
0000
0000
0000
0000
0000
0000
0000
0000
0000
0M00
0000
0000
0000
0000
0000
0000
0000
0000
0000
0000
0000
0000
0000
0000
0000
0000
0000
0000
0000
0000
0000
0000
0000
00M0
0000
0000
0000
0000
0000
0000
0000
0000
0000
0000
0000
0000
0000
0000
0000
0000
0000
0000
0000
0000
0000
0000
0000
0M00
0000
0000
0000
0000
0000
0000
0000
0000
0000
0000
0000
0000
0000
0000
0000
0000
0000
0000
0000
0000
0000
0000
0000
00M0
0000
0000
0000
0000
0000
0000
0000
0000
0000
0000
0000
0000
0000
0000
0000
0M00
0000
0000
0000
0000
0000
0000
0000
0000
0000
0000
0000
0000
0000
0000
0000
00M0
0000
0000
0000
0000
0000
0000
0000
0000
0000
0000
0000
0000
0000
0000
0000
0M00
0000
0000
0000
0000
0000
0000
0000
0000
0000
0000
0000
0000
0000
0000
0000
00M0
0000
0000
0000
0000
0000
0000
0000
0000
0000
0000
0000
0000
0000
0000
0000
0M00
0000
0000
0000
0000
0000
0000
0000
0000
0000
0000
0000
0000
0000
0000
0000
,
20M0
0000
0000
0000
0000
0000
3000
0000
0000
0000
0000
0000
0M00
0000
0000
0000
0000
0000
0000
0000
0000
0000
0000
0000
00M0
0000
0000
0000
0000
0000
0000
0000
0000
0000
0000
0000
0M00
0000
0000
0000
0000
0000
0000
0000
0000
0000
0000
0000
00M0
0000
0000
0000
0000
0000
0000
0000
0000
0000
0000
0000
0M00
0000
0000
0000
0000
0000
0000
0000
0000
0000
0000
0000
00M0
0000
0000
0000
0000
0000
0000
0000
0M00
0000
0000
0000
0000
0000
0000
0000
00M0
0000
0000
0000
0000
0000
0000
0000
0M02
0000
0000
0000
0000
0000
0003
0000
00M0
0000
0000
0000
0000
0000
0000
0000
0M00
0000
0000
0000
0000
0000
0000
0000
00M0
0000
0000
0000
0000
0000
0000
0000
0M00
0000
0000
0000
0000
0000
0000
0000
00M0
0000
0000
0000
0000
0000
0000
0000
0M00
0000
0000
0000
0000
0000
0000
0000
00M0
0000
0000
0000
0000
0000
0000
0000
0M00
0000
0000
0000
0000
0000
0000
0000
00M0
0000
0000
0000
0000
0000
0000
0000
0M00
0000
0000
0000
0000
0000
0000
0000
00M0
0000
0000
0000
0000
0000
0000
0000
,
2M00
0000
0000
0000
0000
0000
30M0
0000
0000
0000
0000
0000
0M00
0000
0000
0000
0000
0000
00M0
0000
0000
0000
0000
0000
0M00
0000
0000
0000
0000
0000
00M0
0000
0000
0000
0000
0000
0M00
0000
0000
0000
0000
0000
00M0
0000
0000
0000
0000
0000
0M02
0000
0000
0000
0000
0000
00M3
0000
0000
0000
0000
0000
0M00
0000
0000
0000
0000
0000
00M0
0000
0000
0000
0000
0000
0M00
0000
0000
0000
0000
0000
00M0
0000
0000
0000
0000
0000
0MM0
0000
0000
0000
0000
0000
0M00
0000
0000
0000
0000
0000
20M0
0000
0000
0000
0M00
0000
3000
0000
00M0
0000
0000
0000
0M00
0000
0000
0000
00M0
0000
0000
0000
0M00
0000
0000
0000
00M0
0000
0000
0000
0M00
0000
0000
0000
00M0
0000
0000
0000
0M00
0000
0000
0000
00M0
0000
0000
0000
0M00
0000
0000
0000
00M2
0000
0000
0000
0M00
0000
0003
0000
00M0
0000
0000
0000
0M00
0000
0000
0000
00M0
0000
0000
0000
0M00
0000
0000
0000
00M0
0000
0000
0000
0M00
0000
0000
0000
00M0
0000
0000
0000
0M00
0000
0000
0000
00M0
0000
0000
0000
0M00
0000
0000
0000
,
1001
0000
0000
0000
,
0001
0100
0010
0000
0100
0001
0010
0000
,
0100
0000
1000
0000
0001
0000
0100
0000
0001
0100
0001
1000
0100
0000
0010
0000
,
0100
0000
1000
0000
0001
0000
0100
0000
0010
1000
0010
0100
0001
0000
1000
0100
,
1000
0000
0100
0000
0010
0000
0001
0000
1000
0010
1000
0001
0100
0000
0001
0000
,
1000
0000
0001
0000
0010
0000
0100
0000
1000
0100
1000
0100
0010
0000
0010
0000
,
0001
0000
1000
0000
0010
0000
0100
0000
0001
1000
0100
0010
0001
0000
1000
0000
,
0100
0000
0010
0000
0001
0000
1000
0000
0100
1000
0001
1000
0010
0000
0100
0001
,
0100
0000
0001
0000
0010
0000
0100
0000
1000
0001
0100
0010
0100
0000
0001
0000
,
1001
0000
1000
0000
0001
0000
0100
0001
0000
1000
0010
0100
0001
1000
0100
0010
,
0001
0000
1000
0000
0010
0000
0100
0000
0010
1000
0010
0100
0001
0000
1000
0000
,
0100
0010
0100
1000
0020
0130
0020
1030
,
0001
0000
0010
0000
0100
0000
1000
0000
0001
0100
0001
1000
0010
0000
0100
0000
,
0001
0000
0010
0000
0100
0000
1000
0000
0001
0100
0001
1000
0100
0000
0100
0000
,
0010
0000
0001
0000
1000
0000
0010
0000
1000
0001
0100
0001
1000
0000
0001
0000
,
0010
0100
1000
0001
0200
0310
0200
0301
,
0010
0000
0100
0000
1000
0000
0001
0000
1000
0100
1000
0100
0010
0000
0001
0000
,
0100
0000
0010
0000
0100
0000
0001
1000
0000
0000
0000
0000
0001
0000
0000
0000
,
1001
0000
1000
0000
0100
0000
0010
0000
0100
1000
0001
1000
0010
0000
0100
0000
,
0010
0000
1000
0000
0001
0000
0010
0000
0100
1000
0001
1000
0010
0000
1000
0100
,
1000
0000
0001
0000
0100
0000
0010
0000
0100
0001
1000
0001
0010
0000
0100
0000
,
1000
0000
0001
0000
0100
0000
0001
0000
1000
0100
0010
0001
1000
0000
1000
0000
,
0001
0000
0100
0000
0001
0000
1000
0000
0001
0100
0001
1000
0100
0000
0010
0000
,
0100
0000
1000
0000
0010
0000
0100
0000
0001
1000
0001
0010
0100
0000
1000
0100
,
1000
0000
0001
0000
0100
0000
0010
0000
1000
0001
1000
0100
0010
0000
0001
0000
,
1001
0000
1000
0000
0100
0000
0010
0001
0000
0010
0100
1000
0001
1000
0001
0100
,
0010
0000
1000
0000
0010
0000
0100
0000
0001
1000
0001
0010
0100
0000
1000
0000
,
0010
0100
0001
1000
0200
0310
0200
1300
,
0010
0000
0100
0000
0010
0000
1000
0000
0001
0010
0100
1000
0001
0000
0100
0000
,
0010
0000
1000
0000
0001
0000
1000
0000
0100
0010
0100
1000
0001
0000
1000
0000
,
0001
0100
0001
1000
0010
0100
0010
1000
0001
0100
0001
1000
0100
1000
0001
0010
,
0100
1000
0001
1000
0010
0100
0010
1000
0001
1000
0001
0010
0100
1000
0001
0100
,
0010
0100
0001
1000
0100
0010
0001
1000
0100
0010
0100
1000
0001
0100
0010
0100
,
0001
0000
1000
0000
0100
0000
1000
0001
0000
0000
0000
0000
2000
3000
0000
0000
,
0001
0100
0001
1000
0100
0010
0001
1000
0001
0000
1000
0000
0010
0000
0100
0000
,
0001
1000
0001
0010
0100
1000
0001
1000
0010
0000
0100
0000
0001
0000
1000
0000
,
0100
0010
0001
1000
0001
0100
0010
0100
0001
0000
1000
0000
0100
0000
0010
0000
,
0100
0000
1000
0001
1000
0000
0010
0000
0100
0001
0100
0010
1000
0000
0001
0000
,
1000
0100
0010
0100
1000
0001
1000
0010
0100
0000
0001
0000
1000
0000
0010
0000
,
0100
0001
1000
0001
0010
0100
1000
0001
1000
0000
0010
0000
0100
0000
0001
0000
,
1000
0001
0010
0100
1000
0001
1000
0010
0100
0000
0001
0000
1000
0000
0100
0000
,
1000
0000
0000
0000
,
1001
0000
0001
0000
0100
0000
0001
0000
0010
0000
0100
0000
1000
0000
0001
0100
,
0010
0000
0100
0000
0001
0000
0010
0000
0100
0000
1000
0000
0001
0000
1000
0100
,
1000
0000
0010
0000
0100
0000
0001
0000
1000
0000
0100
0000
0010
0000
0100
1000
,
0001
0000
0100
0000
0010
0000
0100
0000
0001
0000
1000
0000
0001
0010
0100
1000
,
0001
0000
0100
0000
0010
0000
1000
0000
1000
0000
0001
0000
0010
0000
0100
1000
,
0001
0000
0100
0000
0010
0000
0100
0000
0001
0000
1000
0000
0100
0000
0010
0001
,
1000
0001
0100
0010
0100
0001
1000
0001
,
0000
0000
0000
0000
0000
0000
0000
0000
0000
0000
0000
0000
1000
0000
0001
0010
,
0100
0000
1000
0001
0100
0000
0010
1000
,
0100
0000
0010
0001
1000
0000
0010
0100
,
0001
0001
0010
0000
0100
0000
1000
0000
,
0001
0000
0100
0000
0010
0000
0000
0000
1000
0100
1000
0001
0100
0000
0010
0000
,
0100
0000
0000
0000
0001
0000
1000
0000
0100
0000
0000
0000
0010
0000
0100
1000
,
0001
0000
0100
0010
1000
0000
0001
0100
,
0010
0000
1000
0100
0010
0000
0100
1000
0010
0000
0100
0001
0010
0000
0100
1000
,
0010
1000
0100
0000
1000
0001
0100
0100
,
0001
0000
1000
0100
1000
0000
0001
0000
0100
0001
1000
0001
0010
0100
1000
0001
,
1000
0000
0010
0100
0010
0000
1000
0000
0001
0100
0001
1000
0100
0010
0001
1000
,
0001
0000
1000
0100
1000
0000
0001
0000
0100
0001
1000
0001
0010
0100
1000
0001
,
1000
0000
0001
0100
0001
0000
1000
0000
0100
0010
0001
1000
0001
0100
0010
0100
,
0001
0000
1000
0001
1000
0000
0010
0000
0100
0001
1000
0001
0010
0100
1000
0001
,
1000
0000
0010
0100
0010
0000
1000
0000
0100
1000
0001
1000
0010
0100
0001
1000
,
0001
0000
1000
0100
0010
0000
0001
1000
0001
0100
0010
0100
0001
1000
0001
0100
,
0000
0000
0000
0000
0000
0000
0001
0001
,
1000
0000
0100
0010
0001
0000
1000
0000
0010
0100
0010
1000
0001
0010
0100
1000
,
0001
0000
0100
0010
0100
0000
0001
0000
1000
0100
1000
0001
0100
0010
0100
0001
,
1000
0000
0100
0010
0001
0000
1000
0000
0001
0100
0001
1000
0010
0100
0010
1000
,
0001
0000
1000
0100
0010
0000
0001
0000
1000
0100
1000
0001
1000
0010
0100
0010
,
1000
0000
0001
0100
0010
0000
0100
0000
0001
1000
0001
0010
0100
1000
0001
1000
,
0010
0000
0100
0001
1000
0000
0001
0000
0010
0100
1000
0001
1000
0010
0100
0001
,
1000
0000
0100
1000
0001
0000
1000
0000
0010
0100
0010
1000
0001
0100
0001
1000
,
0002
0003
0000
0000
0000
0000
0000
0000
0000
0000
0000
0000
0000
0000
0000
0000
,
1000
0100
1000
0001
0100
0010
0100
0001
,
1000
0100
1000
0000
0001
0000
0100
0000
0010
0000
0100
0000
0001
0000
1000
0000
,
0010
0100
0010
0000
0100
0000
0001
0000
0010
0000
0100
0000
1000
0000
0001
0000
,
1000
0100
0010
0000
0001
0000
0100
0000
0010
0000
0100
0000
0001
1000
0001
0010
,
0100
1000
0001
0000
1000
0000
0100
0000
1000
0000
0001
0000
0100
0000
0010
0000
,
1000
0001
1000
0000
0010
0000
0100
0000
0001
0000
1000
0000
0100
0000
0010
0000
,
0100
1000
0001
0000
0100
0000
0010
1000
0010
0000
0100
0000
0001
1000
0001
0000
,
0010
0100
1000
0000
0000
0000
1000
0000
0000
0000
1000
0000
0000
0000
1000
0000
,
0001
0100
0010
0000
0100
0000
0001
1000
0001
0000
1000
0000
0100
0010
0100
0000
,
1000
0001
0100
0000
0010
0000
0100
0000
0001
0000
1000
0000
0100
0000
0010
0000
,
0001
1000
0010
0000
0100
0000
0010
1000
0001
0000
0100
0000
0001
0010
0100
0000
,
1000
0001
1000
0000
0010
0000
0100
0000
0010
0000
1000
0000
0001
0100
0001
1000
,
0100
0010
0001
0000
1000
0000
0010
0100
0010
0000
1000
0000
0001
0100
0001
0000
,
1000
0100
0010
0000
0001
0000
1000
0000
0100
0000
1000
0000
0001
0000
0100
0000
,
0010
1000
0001
0000
1000
0000
0100
0000
0010
0000
0100
0000
1000
0000
0001
0000
,
1000
0001
0100
0000
0010
0000
0000
0000
0100
0000
0001
0000
0010
0000
0000
0000
,
0100
0000
1000
0000
0001
0000
0100
0000
0001
0100
0001
1000
0100
0000
0010
0000
,
0100
0000
1000
0000
0001
0000
0100
0000
0010
1000
0010
0100
0001
0000
1000
0100
,
1000
0000
0100
0000
0010
0000
0001
0000
1000
0010
1000
0001
0100
0000
0001
0000
,
1000
0000
0001
0000
0010
0000
0100
0000
1000
0100
1000
0100
0010
0000
0010
0000
,
0001
0000
1000
0000
0010
0000
0100
0000
0001
1000
0100
0010
0001
0000
1000
0000
,
0100
0000
0010
0000
0001
0000
1000
0000
0100
1000
0001
1000
0010
0000
0100
0001
,
0100
0000
0001
0000
0010
0000
0100
0000
1000
0001
0100
0010
0100
0000
0001
0000
,
1001
0000
1000
0000
0001
0000
0100
0001
0000
1000
0010
0100
0001
1000
0100
0010
,
0001
0000
1000
0000
0010
0000
0100
0000
0010
1000
0010
0100
0001
0000
1000
0000
,
0100
0010
0100
1000
0020
0130
0020
1030
,
0001
0000
0010
0000
0100
0000
1000
0000
0001
0100
0001
1000
0010
0000
0100
0000
,
0001
0000
0010
0000
0100
0000
1000
0000
0001
0100
0001
1000
0100
0000
0100
0000
,
0010
0000
0001
0000
1000
0000
0010
0000
1000
0001
0100
0001
1000
0010
1000
0001
,
0100
0010
0100
0001
1000
0100
1000
0001
1000
0100
0010
0001
1000
0100
1000
0001
,
0100
0010
0100
0001
1000
0001
0010
0100
1000
0001
0100
0001
1000
0010
0100
0001
,
1000
0000
0100
0000
1000
0000
0001
0100
0000
0000
0000
0000
0002
0000
0003
0000
,
1001
1000
0100
1000
,
0000
0010
0000
0000
0100
0000
0100
0001
,
1000
0000
0000
1000
0400
0300
1000
0000
,
0000
0000
0001
0000
0200
0300
0020
0030
,
1001
1000
0100
0010
,
0000
0001
1000
0000
,
1001
0001
0100
0001
,
1000
0100
1000
0000
0001
0000
0010
0000
,
0110
0100
1000
0001
,
0000
0100
0000
0000
0020
0000
0000
0030
,
0100
0000
0000
0100
0004
0003
1000
0000
,
0000
0000
0001
0000
0200
0300
0020
0030
,
1001
1000
0100
0010
,
0000
0001
2000
3000
,
0000
0000
0000
0000
,
0002
0003
0020
0030
0200
0300
2000
3000
,
10M1
0000
0000
0000
0000
0000
0M00
0000
0000
00M0
0000
0000
0M00
0000
0000
00M0
0000
0000
0M00
0000
00M0
0000
0M00
0000
,
00M0
0000
0000
0000
0M00
0000
0000
0000
00M0
0000
0000
0000
0M00
0000
0000
00M0
0000
0000
0M00
0000
0000
00M0
0000
0000
0M00
0000
0000
00M0
0000
0000
0M00
0000
0000
00M0
0000
0000
0M00
0000
0000
00M0
0000
0000
0M00
0000
00M0
0000
0M00
0000
,
00M0
0000
0000
0000
0000
0000
0000
0000
0M00
0000
0000
0000
0000
0000
0000
0000
00M0
0000
0000
0000
0000
0000
0000
0000
0M00
0000
0000
0000
0000
0000
0000
0000
00M0
0000
0000
0000
0000
0000
0000
0000
0M00
0000
0000
0000
0000
0000
0000
0000
00M0
0000
0000
0000
0000
0000
0000
0000
0M00
0000
0000
0000
0000
0000
0000
0000
00M0
0000
0000
0000
0000
0000
0000
0000
0M00
0000
0000
0000
0000
0000
0000
0000
00M0
0000
0000
0000
0000
0000
0000
0000
0M00
0000
0000
0000
0000
0000
0000
0000
00M0
0000
0000
0000
0000
0000
0M00
0000
0000
0000
0000
0000
00M0
0000
0000
0000
0000
0000
0M00
0000
0000
0000
0000
0000
00M0
0000
0000
0000
0000
0000
0M00
0000
0000
0000
0000
0000
00M0
0000
0000
0000
0000
0000
0M00
0000
0000
0000
0000
0000
00M0
0000
0000
0000
0000
0000
0M00
0000
0000
0000
0000
0000
00M0
0000
0000
0000
0000
0000
0M00
0000
0000
0000
0000
0000
00M0
0000
0000
0000
0000
0000
0M00
0000
0000
0000
0000
0000
00M0
0000
0000
0000
0000
0000
0M00
0000
0000
0000
0000
0000
,
00M0
0000
0000
0000
0000
0000
0M00
0000
0000
0000
0000
0000
00M0
0000
0000
0000
0000
0000
0M00
0000
0000
0000
0000
0000
00M0
0000
0000
0000
0000
0000
0M00
0000
0000
0000
0000
0000
00M0
0000
0000
0000
0000
0000
0M00
0000
0000
0000
0000
0000
00M0
0000
0000
0000
0000
0000
0M00
0000
0000
0000
0000
0000
00M0
0000
0000
0000
0000
0000
0M00
0000
0000
0000
0000
0000
00M0
0000
0000
0000
0000
0000
0M00
0000
0000
0000
0000
0000
00M0
0000
0000
0000
0000
0000
0M00
0000
0000
0000
0000
0000
00M0
0000
0000
0000
0M00
0000
0000
0000
00M0
0000
0000
0000
0M00
0000
0000
0000
00M0
0000
0000
0000
0M00
0000
0000
0000
00M0
0000
0000
0000
0M00
0000
0000
0000
00M0
0000
0000
0000
0M00
0000
0000
0000
00M0
0000
0000
0000
0M00
0000
0000
0000
00M0
0000
0000
0M00
0000
0000
00M0
0000
0000
0M00
0000
0000
00M0
0000
0000
0M00
0000
0000
00M0
0000
0000
0M00
0000
0000
00M0
0000
0000
0M00
0000
0000
00M0
0000
0000
0M00
0000
0000
00M0
0000
0000
0M00
0000
0000
00M0
0000
0000
0M00
0000
0000
,
0004
0003
0000
0000
0000
0000
0000
0000
4000
3000
0000
0000
0000
0000
0000
0000
0400
0300
0000
0000
0000
0000
0000
0000
0040
0030
0000
0000
0000
0000
0000
0000
,
0004
0003
0000
0000
0000
0000
0000
0000
0400
0300
0000
0000
0000
0000
0000
0000
0040
0030
0000
0000
0000
0000
0000
0000
4000
3000
0000
0000
0000
0000
0000
0000
,
0004
0003
0000
0000
0000
0000
0000
0000
0040
0030
0000
0000
0000
0000
0000
0000
0400
0300
0000
0000
0000
0000
0000
0000
4000
3000
0000
0000
0000
0000
0000
0000
,
0001
0000
0100
0000
0010
0000
0000
0000
0100
0000
0001
0000
0020
0030
0000
0000
,
0100
0000
1000
0000
0001
0000
0100
0000
0010
0000
0000
0000
1000
0000
0100
1000
,
0001
0000
0100
0001
1000
0000
0001
0000
0010
0000
0100
0000
1000
0000
0001
0100
,
0001
0000
1000
0000
0100
0000
0010
0000
0000
0000
0100
0000
1000
0100
1000
0000
,
0001
0000
0100
0000
0010
0000
0100
0000
0001
1000
0001
0000
0100
0000
0000
0000
,
0010
0000
0100
0000
0010
0000
1000
0001
2000
0000
3010
0000
0100
0000
0001
0010
,
0100
0000
1000
0000
0001
0000
1000
0100
1000
0000
0001
0000
0100
0000
0010
1000
,
0010
0000
1000
0000
0100
0000
0010
0000
0001
0000
1000
0000
0100
0000
1000
0001
,
0100
0000
0001
0010
0100
0000
1000
0000
1010
0000
0000
0000
0020
0000
0000
0000
,
0130
0000
0001
0000
0010
0000
0100
1000
0001
0000
0000
0000
1000
0000
0010
0100
,
0010
0000
0100
0001
1000
0000
0001
0000
0010
0000
0100
0000
1000
0000
0001
0100
,
0010
0000
0100
0000
0001
0000
1000
0100
0010
0000
0100
0000
1000
0000
0001
0100
,
0001
0000
1000
0000
0100
0000
0010
0000
0100
1000
0001
0000
0100
0000
0000
0000
,
0010
0000
0100
0000
0010
0000
1000
0001
0100
0000
0001
0000
0010
0000
0100
1000
,
0001
0000
0100
0010
0100
0000
0001
0000
1000
0000
0100
0000
1000
0000
0010
0100
,
0001
0000
1000
0000
0100
0000
0010
0100
1000
0000
0001
0000
0100
0000
0000
0000
,
0101
0000
0002
0003
0000
0000
4000
0000
,
3001
0000
0100
0000
0001
0000
0010
0000
0100
1000
0001
0000
0100
0000
0010
0100
,
0010
0000
1000
0100
0010
0000
0001
0000
1000
0000
0001
0000
0100
0000
0010
1000
,
0010
0000
0100
0000
0001
0000
0010
0000
0100
0000
1000
0000
0010
0000
0100
0001
,
1000
0000
0001
0000
0010
0000
0100
0000
1000
0001
1000
0000
0010
0000
0000
0000
,
0100
0000
0001
0000
1000
0000
0001
0000
0010
0100
1000
0000
0001
0000
1000
0100
,
1000
0000
0001
0100
0010
0000
0100
0000
0001
0000
1000
0000
0100
0000
1000
0001
,
0100
0000
0010
0000
0100
0000
0001
0010
0100
0000
1000
0000
0001
0000
1000
0010
,
0100
0000
0001
0010
0100
0000
1000
0010
0200
0000
0300
0000
0004
0000
0000
0000
,
1003
0000
0010
0000
1000
0000
0100
0000
0010
0001
1000
0000
0010
0000
0100
0010
,
0100
0000
0001
0010
0100
0000
1000
0000
0001
0000
1000
0000
0010
0000
0100
0001
,
0100
0000
0010
0000
1000
0000
0100
0000
0010
0000
0001
0000
0100
0000
0010
1000
,
0001
0000
1000
0000
0100
0000
0010
0000
0001
1000
0001
0000
0100
0000
0000
0000
,
0010
0000
1000
0000
0001
0000
1000
0000
0100
0010
0001
0000
1000
0000
0001
0100
,
0001
1000
0010
0100
0010
1000
0001
0100
0001
1000
0010
0100
0010
1000
0001
0100
,
0001
1000
0100
0010
0100
1000
0001
0010
0100
1000
0001
0100
0010
0100
0001
1000
,
0100
1000
0001
0100
0010
0100
0001
1000
0010
1000
0001
1000
0100
0010
0001
1000
,
0002
0003
0000
0000
0000
0000
0000
0000
,
2000
3200
0320
0032
0203
0320
2030
3002
,
0103
0000
0000
0000
0100
0000
0000
0000
0001
0000
0010
0000
0100
1000
0001
0000
,
1000
0100
1000
0000
0001
0000
0100
0000
0010
0000
1000
0100
1000
0001
0100
0000
,
0001
0000
0010
0100
1000
0000
0001
0100
0001
1000
0010
0000
0100
0000
0001
0000
,
1000
0100
1000
0100
0010
0001
1000
0001
0100
0000
0010
0000
0100
0001
1000
0000
,
0001
0100
0001
0000
1000
0100
1000
0000
0001
0000
0100
0000
0010
1000
0010
0000
,
0100
0001
1000
0000
0001
0000
0010
0000
0100
0000
1000
0001
1000
0010
0100
0000
,
0001
0000
0100
0000
0010
0000
1000
0100
1000
0001
0100
0000
0001
1000
0001
0000
,
1000
0100
1000
0001
0100
0010
0100
0001
1000
0000
0001
0000
0010
0100
1000
0000
,
0001
0100
0001
0000
1000
0010
1000
0000
0010
0000
0100
0000
0001
1000
0001
0000
,
0010
0100
1000
0000
0001
0000
0100
0000
0010
0000
1000
0001
0010
0100
1000
0000
,
0001
0000
0100
0010
0100
0000
0001
0010
0100
1000
0001
0000
1000
0000
0010
0000
,
1000
0100
1000
0001
0010
0100
1000
0001
0100
0000
0010
0000
1000
0001
1000
0000
,
0010
0100
0010
0000
1000
0001
1000
0000
0001
0000
0010
0000
0100
1000
0001
0000
,
1000
0010
1000
0000
0001
0000
0100
0001
1000
0010
0100
0000
0001
1000
0001
0000
,
1000
0000
0010
0000
0100
0000
0001
1000
0001
0010
0100
0000
1000
0000
0001
0000
,
2000
0000
3200
0000
0320
0000
0230
0000
0300
0000
2000
3000
0004
0003
0000
0000
,
1000
0010
1000
0000
0001
0100
0001
0000
1000
0000
0100
0000
0010
0001
1000
0000
,
0001
0010
0001
0000
1000
0000
0010
0000
0100
0000
0001
0010
0001
1000
0010
0000
,
1000
0000
0100
0010
0001
0000
1000
0010
1000
0001
0100
0000
0010
0000
1000
0000
,
0001
0010
0001
0010
0100
1000
0001
1000
0010
0000
0100
0000
0010
1000
0001
0000
,
1000
0010
1000
0000
0001
0010
0001
0000
1000
0000
0010
0000
0100
0001
0100
0000
,
0010
1000
0001
0000
1000
0000
0100
0000
0010
0000
0001
1000
0001
0100
0010
0000
,
1000
0000
0010
0000
0100
0000
0001
0010
0001
1000
0010
0000
1000
0001
1000
0000
,
0001
0010
0001
1000
0010
0100
0010
1000
0001
0000
1000
0000
0100
0010
0001
0000
,
1000
0010
1000
0000
0001
0100
0001
0000
0100
0000
0010
0000
1000
0001
1000
0000
,
0100
0010
0001
0000
1000
0000
0010
0000
0100
0000
0001
1000
0100
0010
0001
0000
,
1000
0000
0010
0100
0010
0000
1000
0100
0010
0001
1000
0000
0001
0000
0100
0000
,
0001
0010
0001
1000
0100
0010
0001
1000
0010
0000
0100
0000
0001
1000
0001
0000
,
0100
0010
0100
0000
0001
1000
0001
0000
1000
0000
0100
0000
0010
0001
1000
0000
,
0001
0100
0001
0000
1000
0000
0010
1000
0001
0100
0010
0000
1000
0001
1000
0000
,
0001
0000
0100
0000
0010
0000
1000
0001
1000
0100
0010
0000
0001
0000
1000
0000
,
0002
2003
3200
0320
0032
0203
0320
2030
,
3002
0003
0000
0000
0000
0000
0000
0000
0000
0000
0000
0000
0000
0000
0000
0000
,
0000
0000
0000
0000
,
0000
0000
0000
0000
,
0000
0000
0000
0000
,
1000
0001
0100
0010
1000
0001
1000
0100
0010
0100
1000
0001
0100
0001
1000
0010
,
0100
0010
1000
0001
0100
0001
1000
0100
0010
0001
1000
0100
1000
0001
0100
0010
,
0100
0001
1000
0001
0010
0100
1000
0001
1000
0001
0100
0010
0100
0001
1000
0100
,
1000
0001
0010
0100
0010
0001
1000
0100
1000
0001
1000
0010
0100
0010
1000
0001
,
0100
0001
1000
0001
0010
0100
1000
0001
1000
0010
0100
0010
1000
0001
0100
0010
,
1000
0001
1000
0100
0010
0100
1000
0001
1000
0010
0100
0010
1000
0001
1000
0100
,
1000
0001
0100
0010
0100
0001
1000
0100
0010
0001
1000
0001
0100
0010
0100
0001
,
1000
0000
0001
0100
0010
0100
0001
0000
1000
0000
0100
0010
0001
0000
0000
0000
,
1000
0100
1000
0001
0100
0010
0100
0001
1000
0001
0010
0100
1000
0001
1000
0100
,
1000
0001
0100
0010
0100
0001
1000
0001
0100
0010
0100
0001
1000
0100
0010
0100
,
1000
0001
0010
0001
1000
0100
1000
0001
0100
0010
0100
0001
1000
0001
0100
0001
,
1000
0010
0100
0010
1000
0001
1000
0100
0010
0001
1000
0001
0100
0010
0100
0001
,
1000
0001
0010
0100
1000
0001
1000
0010
0100
0010
1000
0001
0100
0001
1000
0100
,
1000
0001
0010
0100
1000
0001
1000
0010
0100
0010
1000
0001
0100
0001
1000
0001
,
0010
0100
1000
0001
0100
0010
0100
0001
1000
0100
0010
0001
1000
0100
1000
0001
,
0100
0000
0001
1000
0001
0010
0100
0000
1000
0000
0001
0100
0010
0000
0000
0000
,
1000
0010
0100
0010
1000
0001
0010
0100
1000
0001
0100
0001
1000
0010
0100
0010
,
1000
0001
0100
0010
0100
0001
1000
0100
1000
0001
0010
0100
1000
0001
1000
0010
,
0100
0001
1000
0001
0100
0001
1000
0010
1000
0001
1000
0100
0010
0001
1000
0010
,
0100
0010
1000
0001
1000
0010
0100
0010
1000
0001
0010
0100
1000
0001
1000
0010
,
0100
0010
1000
0001
0100
0001
1000
0001
0010
0100
1000
0001
1000
0100
1000
0001
,
0100
0010
0100
0001
1000
0100
1000
0001
0010
0100
0010
0001
1000
0100
1000
0001
,
0100
0010
0100
0001
1000
0001
0010
0100
1000
0001
0100
0010
0100
0001
1000
0001
,
0100
0001
0010
0100
1000
0000
1000
0000
,
0001
0100
0001
1000
0100
0010
0100
1000
0001
1000
0010
0100
0001
1000
0001
0010
,
0100
1000
0001
0100
0001
1000
0010
0100
0010
1000
0001
1000
0100
0010
0100
1000
,
0001
0100
0001
1000
0100
0010
0100
1000
0001
1000
0010
0100
0001
1000
0100
1000
,
0001
0010
0100
0010
0001
1000
0001
0100
0010
1000
0001
0100
0001
1000
0100
0010
,
0100
1000
0001
1000
0010
0100
0001
0100
0001
1000
0100
0010
0100
1000
0001
1000
,
0100
1000
0100
0010
0001
1000
0100
1000
0001
0100
0010
0100
0001
1000
0010
0100
,
0010
1000
0001
1000
0100
0010
0100
1000
0001
1000
0010
0100
0001
1000
0100
1000
,
0001
0000
1000
0001
0100
0010
1000
0000
0001
0000
1000
0100
1000
0000
0000
0000
,
0000
0000
0000
0000
,
0000
0000
0000
0000
,
0000
0000
0000
0000
,
0000
0000
0000
0000
,
0000
0000
0000
0000
,
0000
0000
0000
0000
,
0000
0000
0000
0000
,
0000
0000
0000
0000
,
0001
0100
0001
1000
0010
0100
0010
1000
0001
0010
0100
1000
0001
1000
0100
1000
,
0001
0100
0001
1000
0010
0100
0010
1000
0001
0100
0001
1000
0100
0010
0100
1000
,
0001
0100
0010
0100
0001
1000
0001
0010
0100
1000
0001
0100
0001
1000
0010
0100
,
0010
1000
0001
1000
0100
1000
0001
0100
0010
0100
0001
1000
0001
0100
0010
0100
,
0001
1000
0001
0010
0100
1000
0001
0100
0010
0100
0001
1000
0100
0010
0100
1000
,
0001
0100
0010
0100
0001
1000
0001
0100
0010
0100
0001
1000
0100
1000
0001
0100
,
0010
0100
0001
1000
0100
0010
0100
1000
0001
0010
0001
1000
0001
0100
0010
0100
,
0001
0000
1000
0100
1000
0001
0100
0000
0001
0000
0010
0100
1000
0000
0000
0000
,
0001
0100
0010
0100
0001
1000
0001
0010
0100
1000
0001
0100
0001
1000
0010
0100
,
0010
1000
0001
0010
0100
1000
0001
1000
0100
1000
0001
0100
0010
0100
0001
1000
,
0100
1000
0001
0100
0010
0100
0001
1000
0001
0010
0100
1000
0001
0100
0010
0100
,
0001
1000
0100
0010
0001
1000
0100
1000
0001
0100
0010
0100
0001
1000
0001
0010
,
0100
1000
0001
0100
0001
1000
0010
0100
0010
1000
0001
1000
0100
0010
0100
1000
,
0001
1000
0010
0100
0010
1000
0001
1000
0100
1000
0001
0100
0010
0100
0001
1000
,
0001
0010
0100
0010
0001
1000
0100
0010
0001
1000
0001
0100
0010
0100
0001
1000
,
0001
0000
1000
0100
0010
0100
1000
0000
0001
0000
0100
0010
1000
0000
0000
0000
,
0001
0100
0010
0100
0001
0010
0100
1000
0001
0100
0010
0100
0001
0010
0100
1000
,
0001
0100
0010
0100
0001
0010
0100
1000
0001
0100
0010
0100
0001
0010
0100
1000
,
0001
1000
0100
0010
0100
1000
0010
1000
0100
0010
0100
1000
0010
1000
0100
0010
,
0100
1000
0010
0100
0010
1000
0100
0010
0100
1000
0010
1000
0100
0010
0100
1000
,
0001
0100
0010
1000
0010
0100
0001
1000
0100
0010
0001
1000
0100
1000
0001
0100
,
0010
0100
0001
1000
0001
0010
0100
1000
0001
0100
0010
0100
0001
1000
0100
0010
,
0001
1000
0001
0100
0010
0100
0001
1000
0001
0010
0100
1000
0001
0100
0001
1000
,
0001
0000
0100
0001
1000
0001
0010
0000
0100
0000
1000
0001
0100
0000
0000
0000
,
0001
1000
0100
1000
0010
0100
0001
0100
0001
1000
0100
1000
0010
0100
0001
0100
,
0001
1000
0100
1000
0010
0100
0001
0100
0001
1000
0100
1000
0010
0100
0001
1000
,
0001
0100
0010
0100
0001
0010
0100
1000
0001
0100
0010
0100
0001
0010
0100
1000
,
0001
0100
0010
0100
0001
0010
0100
1000
0001
0100
0010
0100
0001
0010
0100
1000
,
0010
0100
0001
0010
0100
1000
0001
0100
0010
0100
0001
0010
0100
1000
0010
0100
,
0010
1000
0001
0010
0001
0100
0010
1000
0100
1000
0001
0100
0010
0100
0001
0010
,
0100
1000
0010
0100
0001
1000
0100
1000
0010
0100
0001
0010
0001
0100
0010
1000
,
0001
0000
1000
0100
0010
0001
1000
0000
0001
0000
0100
0001
0100
0000
0000
0000
,
0000
0000
0000
0000
,
0000
0000
0000
0000
,
0000
0000
0000
0000
,
0000
0000
0000
0000
,
0000
0000
0000
0000
,
0000
0000
0000
0000
,
M000
0000
0000
0000
;
