#TITLE:Prepare For War;
#SUBTITLE:Sonic Firestorm;
#ARTIST:Dragonforce;
#TITLETRANSLIT:;
#SUBTITLETRANSLIT:;
#ARTISTTRANSLIT:;
#CREDIT:;
#BANNER:pfwbn.png;
#BACKGROUND:pfwbg.png;
#LYRICSPATH:;
#CDTITLE:t.png;
#MUSIC:Dragonforce- Prepare For War.mp3;
#OFFSET:-2.305;
#SAMPLESTART:69.740;
#SAMPLELENGTH:9.900;
#SELECTABLE:YES;
#BPMS:0.000=200.000,564.000=144.020,816.000=200.000;
#STOPS:;
#BGCHANGES:;
// cache tags:
#FIRSTBEAT:0.000;
#LASTBEAT:1140.500;
#SONGFILENAME:Songs/CMDKDF Pack/Prepare For War/Prepare For War.sm;
#HASMUSIC:1;
#HASBANNER:1;
#MUSICLENGTH:375.384;
// end cache tags

//---------------dance-single - ----------------
#NOTES:
     dance-single:
     :
     Hard:
     12:
     1.000,1.000,1.000,0.434,1.000,2660.000,534.000,163.000,0.000,2.000:

1001
0001
0100
0010
1000
0010
0100
0000
,
0101
1000
0100
1000
0010
0001
0010
0000
,
1010
0010
0100
0001
1000
0001
1000
0010
,
0101
0001
0100
0001
0100
0000
1010
0010
1000
0010
1000
0100
0010
0001
0010
0000
,
1100
0010
0001
0100
0001
0010
0100
1000
0100
0010
0001
0100
0001
0010
0100
1000
,
0110
0010
0001
0100
0010
1000
0100
1000
0010
0100
0001
0010
0001
0100
0010
1000
,
0101
0100
0010
1000
0100
1000
0010
0100
0001
0100
0010
1000
0100
1000
0010
0100
,
1001
0100
0010
0001
0010
0100
1000
0010
1000
0100
0010
0001
0100
0010
1000
0100
,
0022
0000
0000
0000
0000
0033
1100
0000
1100
0000
1100
0000
1010
0000
1100
0000
,
2002
0000
0000
0000
0000
3003
0101
0000
0101
0000
0101
0000
0011
0000
1100
0000
,
0220
0000
0000
0000
0000
0330
0101
0000
0101
0000
0101
0000
0110
0000
0101
0000
,
2002
3003
0110
1001
0000
2200
0000
3300
,
2020
0000
0000
0000
0000
3030
0110
0000
0110
0000
0110
0000
1010
0000
0110
0000
,
0202
0000
0000
0000
0000
0303
1100
0000
1100
0000
1100
0000
0011
0000
1100
0000
,
2002
0000
0000
0000
0000
3003
0101
0000
0110
0000
1010
0000
0101
0000
1100
0000
,
0100
0010
0001
0100
0010
1000
0001
0100
0010
1000
0001
0100
0001
0010
0100
1000
,
2200
0000
0000
0000
0000
3300
1100
0000
1100
0000
1100
0000
0101
0000
1100
0000
,
0220
0000
0000
0000
0000
0330
0011
0000
0011
0000
0011
0000
1010
0000
0011
0000
,
2002
0000
0000
0000
0000
3003
0101
0000
0101
0000
0101
0000
0011
0000
0101
0000
,
0010
1000
0100
0000
0101
0000
0001
0100
0010
0000
0110
0000
2020
0000
0000
3030
,
0202
0000
0000
0000
0000
0303
0011
0000
0011
0000
0011
0000
1100
0000
0011
0000
,
2020
0000
0000
0000
0000
3030
0110
0000
0110
0000
0110
0000
0011
0000
0110
0000
,
2002
0000
0000
0000
0000
3003
1001
0000
0100
0010
0001
0000
0010
0000
0100
0000
,
1000
0010
0100
0001
1000
0010
0100
0001
0010
0001
0100
0001
1000
0100
1000
0010
,
0100
0000
0100
0000
0010
0000
1000
0000
0001
0100
0010
0100
0010
1000
0001
0010
,
0110
0001
0001
0100
0010
0101
0010
0101
,
1001
0000
0010
0000
0010
0000
1000
0000
1000
0100
0010
0001
0100
0010
1000
0010
,
0101
0001
0100
0010
1000
0100
0010
0001
0100
0001
0010
0100
1100
0010
0001
0100
,
1001
0000
0100
0000
0001
0100
0001
0000
0010
0000
0100
1000
0001
0100
0010
1000
,
0001
0110
1100
0011
0101
0110
0000
0011
,
1001
0000
0010
0000
0100
0000
1000
0000
1100
0000
0100
0010
0001
0100
0010
1000
,
0100
0010
0001
0100
0010
1000
0001
0100
0010
0100
0001
0010
0100
1000
0010
0100
,
0101
0000
0001
0000
0011
0000
0001
0000
0101
0000
0001
0100
0010
1000
0100
0010
,
0101
0001
0011
0001
1001
1010
0000
0110
,
1100
0000
1000
0000
1001
0000
1000
0000
1100
0000
0010
0001
0100
0010
1000
0100
,
1000
0100
0010
0001
0010
0001
0100
0010
1000
0100
0010
0001
0100
0010
1000
0100
,
0010
0001
0100
0010
1000
0100
1000
0010
0100
0001
0010
0001
1000
0010
0100
0001
,
0010
0100
1000
0010
0100
0001
1000
0001
0020
0000
0000
0000
0000
0000
0000
0000
,
1031
0001
0100
0010
1000
0100
0010
0001
0200
0000
0310
1000
0002
0000
0000
0000
,
0203
0000
0310
1000
0100
1000
0010
0100
0010
0001
0010
0100
2100
0000
0000
3000
,
0101
0000
0101
0000
0010
0000
0100
0001
0100
0000
1000
0000
0100
0000
0000
0000
,
1000
0100
1000
0000
0010
0000
1000
0100
1000
0000
0001
0000
0101
0000
0000
0000
,
0001
0010
0001
0000
1000
0000
0001
0010
0001
0000
0010
0000
1001
0000
0000
0000
,
0001
0100
0001
0000
0010
0000
0001
0000
0101
0000
1000
0000
0101
0000
0000
0000
,
0010
1000
0010
0000
0100
0000
0010
1000
0010
0000
0100
0000
0101
0000
0000
0000
,
0001
0010
0001
0000
1000
0000
0001
0010
0001
0000
0100
0000
1010
0000
0100
0000
,
0101
0001
0010
0000
0011
0000
1000
0001
0101
0000
0010
0000
0101
0000
0000
0000
,
1000
0001
0100
0001
0010
0001
0100
0001
1000
0100
1000
0010
1000
0001
0100
0010
,
0100
0001
0100
0000
1000
0000
0100
0001
0100
0000
0010
0000
0011
0000
0100
0000
,
0100
1000
0100
0000
0010
0000
0100
1000
0100
0000
0001
0000
0101
0000
0010
0000
,
0010
1000
0010
0000
0100
0000
0010
1000
0010
0000
0001
0000
1100
0000
0100
0000
,
0100
0010
0001
0000
0100
0010
1000
0001
0100
0001
0100
0010
2000
0000
0000
3000
,
0001
0100
0001
0000
1000
0000
0001
0100
0001
0000
0010
0000
0011
0000
0100
0000
,
1000
0001
1000
0000
0010
0000
1000
0001
1000
0000
0100
0000
0011
0000
0100
0000
,
1000
0100
0010
0000
0001
0100
0010
0100
0010
1000
0001
0100
0001
0010
0100
1000
,
0100
0000
0010
0001
0100
0010
1000
0001
0100
0001
0010
0100
1000
0001
0010
0001
,
0110
0000
1000
0000
0001
0100
0001
0000
0101
0000
0010
0000
1000
0100
1000
0000
,
0110
0000
0001
0000
0010
0100
0010
0000
0101
0000
0010
0000
1000
0100
1000
0000
,
0011
0000
0100
0000
0010
1000
0010
0000
0101
0000
0010
0000
0001
0010
0001
0000
,
0110
0000
1000
0000
0010
0100
0010
0000
0101
0000
0010
0000
1000
0010
1000
0000
,
1001
0000
0100
0000
0010
0001
0010
0000
0101
0000
0010
0000
1000
0100
1000
0000
,
0011
0000
0010
0000
0100
1000
0100
0000
0110
0000
0010
0000
1000
0010
1000
0000
,
0101
0000
0010
0000
0100
1000
0100
0000
0011
0000
0100
0000
0001
1000
0001
0000
,
0100
0001
0010
0100
1000
0010
0100
0001
0100
0010
1000
0100
0010
0001
0100
0010
,
2000
3000
0000
0000
0000
0000
0000
0000
0000
0000
0000
0000
0000
0000
0000
0000
0000
0000
0000
0000
0000
0000
0000
0000
0000
0000
0000
0000
0000
0000
0000
0000
,
0000
0000
0000
0000
,
0110
0011
0110
1100
1010
0101
1010
1100
,
0011
0101
1001
0011
1100
1010
0101
0110
,
1001
0001
0101
1010
0010
0101
0110
0101
,
0011
1000
0011
1100
0100
0011
0110
1100
,
1001
0100
0001
0010
0100
1000
0010
1000
0100
0010
0001
1000
0010
0100
0001
0010
,
0001
0100
0010
1000
0001
0010
0100
0010
0001
1000
0010
0100
0001
0010
0100
1000
,
1001
0001
0101
0001
1001
0001
0011
0101
,
1001
1000
1010
1000
1100
1000
1001
0110
,
0011
0010
0110
0010
0011
0010
0110
1100
,
0101
0001
0011
0001
0101
0001
1001
0001
,
0101
0100
0110
0010
1010
1000
1100
0010
,
0011
0100
1100
0001
0101
0010
1010
0001
,
0011
0000
0010
0001
0100
0010
1000
0100
1000
0010
0100
0001
0010
0001
1000
0010
,
0100
0000
0000
0000
,
1100
0100
0010
0001
0100
0010
1010
0100
0001
0010
0001
0100
,
0101
0010
0100
1000
0100
0010
0011
0001
0100
0010
1000
0001
,
2002
0000
0000
0000
0000
3003
0101
0000
0101
0000
0101
0000
0011
0000
0101
0000
,
2200
0000
0000
0000
0000
3300
0110
0000
0110
0000
0110
0000
0011
0000
0110
0000
,
2020
0000
0000
0000
0000
3030
0101
0000
0101
0000
0101
0000
1100
0000
0101
0000
,
0220
0000
0330
0000
1100
0000
0022
0033
0000
0000
0022
0000
0000
0000
0000
0033
,
0220
0000
0000
0000
0000
0330
0011
0000
0011
0000
0011
0000
1100
0000
0011
0000
,
0100
0010
1000
0000
0100
0000
0110
0000
0110
0000
0110
0000
0101
0000
0110
0000
,
0010
1000
0100
0000
1100
0000
1100
0000
0110
0000
0101
0000
1100
0000
0101
0000
,
0001
0100
0010
1000
0100
0010
0001
0100
0001
0010
0001
1000
0100
1000
0010
0100
,
0202
0000
0000
0000
0000
0303
0011
0000
0011
0000
0011
0000
0101
0000
0011
0000
,
2200
0000
0000
0000
0000
3300
0110
0000
0110
0000
0110
0000
1100
0000
1001
0000
,
0202
0000
0000
0000
0000
0303
1010
0000
1010
0000
1010
0000
0101
0000
1010
0000
,
0011
0000
0000
0011
0000
0000
0100
0000
0000
0011
0000
0000
0011
0000
0000
1010
0000
0000
0220
0000
0000
0000
0330
0000
,
0202
0000
0000
0000
0000
0303
0110
0000
0110
0000
0110
0000
1100
0000
0110
0000
,
2002
0000
0000
0000
0000
3003
0101
0000
0101
0000
0101
0000
1010
0000
0101
0000
,
2200
0000
0000
0000
0000
3300
0110
0000
0110
0000
0100
0010
0001
0000
0010
0000
,
0100
1000
0010
0100
0001
0100
0010
1000
0100
0010
0001
0100
0001
1000
0100
0010
,
0022
0000
0000
0000
0000
0000
0000
0000
0000
0000
0000
0000
0000
0000
0000
0033
,
1001
0100
0010
0001
0100
0010
1100
0100
0001
0010
0100
1000
,
0011
0010
0100
1000
0010
0100
0202
0000
0000
0000
0000
0303
,
0001
0100
0001
0000
0101
0000
0001
0100
0001
0000
0010
0000
0010
0000
0000
0000
,
1000
0100
1000
0000
1100
0000
1000
0100
1000
0000
0010
0000
0010
0000
0000
0000
,
0100
0010
0100
0000
0110
0000
0100
0010
0100
0000
0010
0000
0010
0000
0000
0000
,
1000
0001
1000
0000
1001
0000
1000
0001
1000
0000
0001
0000
0001
0000
0000
0000
,
0010
1000
0001
0000
1001
0000
0001
1000
0100
0000
0100
0000
0100
0000
0000
0000
,
0010
0001
0100
0000
0101
0000
0100
0010
1000
0000
1000
0000
1000
0000
0000
0000
,
1000
0010
0100
0000
0101
0000
0001
0000
0010
0100
1000
0000
0010
0000
0100
0000
,
0001
0100
0010
1000
0100
1000
0010
0100
0001
1000
0100
0010
0001
0100
0001
0010
,
0100
1000
0100
0000
1100
0000
1000
0100
1000
0000
0100
0000
0001
0000
0000
0000
,
0001
0010
0001
0000
0011
0000
0010
0001
0010
0000
0010
0000
0001
0000
0000
0000
,
0001
0100
0001
0000
0101
0000
0100
0001
0100
0000
0100
0000
1000
0000
1000
0000
,
0010
1000
0100
0010
0001
0100
0001
0010
0100
1000
0100
0010
0002
0000
0000
0003
,
0100
0010
0100
0000
1100
0000
0010
0100
0010
0000
0011
0000
1100
0000
0000
0000
,
1000
0001
1000
0000
0011
0000
0001
1000
0001
0000
0110
0000
1100
0000
0100
0000
,
1000
0100
0010
0001
0100
0001
0010
0100
1000
0010
0100
0001
0100
0010
1000
0001
,
0010
0100
1000
0010
0100
0001
1000
0100
0010
0100
0010
0001
1000
0010
0100
0001
,
1100
0000
0010
0000
0001
1000
0001
0000
0101
0000
0010
0000
1000
0100
1000
0000
,
0110
0000
0001
0000
1000
0010
1000
0000
1100
0000
0100
0000
0001
0010
0001
0000
,
0011
0000
1000
0000
0100
0010
0100
0000
0011
0000
0010
0000
0010
1000
0010
0000
,
0101
0000
0010
0000
1000
0010
1000
0000
1100
0000
0010
0000
0001
0010
0001
0000
,
1010
0000
0101
0000
0010
1000
0010
0000
1100
0000
0011
0000
1000
0100
1000
0000
,
0011
0000
0101
0000
0010
1000
0010
0000
1010
0000
1100
0000
0010
0001
0010
0000
,
1001
0000
0110
0000
0100
0010
0001
0000
0110
0000
1001
0000
0010
0100
0001
0000
,
0001
0100
0010
1000
0001
0010
0100
1000
0010
0100
0001
1000
0100
1000
0010
0100
,
0001
0000
0000
0000
,
0000
0000
0000
0000
,
1010
0101
0011
1001
1100
0110
1100
1010
,
0101
0011
0110
1001
1010
0101
0011
0110
,
1001
0100
0011
1100
0100
0110
0011
0110
,
1010
0100
0101
0110
1000
1100
0110
0011
,
0110
0010
0001
0100
0010
1000
0001
0010
0100
0010
0001
0100
0010
1000
0001
0100
,
0010
0100
0001
1000
0100
0010
0001
1000
0010
0100
0010
1000
0001
0100
0001
0010
,
1100
1000
1001
1000
1010
1000
1001
1000
,
1001
0001
0101
0001
0011
0001
0101
0001
,
0011
0010
0110
0010
0011
0010
0110
0100
,
1100
0100
0110
0100
1100
1000
1001
0001
,
0101
0001
0011
0010
0110
0100
1100
1000
,
1010
0010
0110
0100
0101
0010
0101
0010
,
1100
0100
0010
0001
0100
0001
0101
0010
0100
0001
1000
0100
1010
1000
0010
0100
,
1001
0000
0000
0000
0000
0000
0000
0000
0000
0000
0000
0000
0000
0000
0000
0000
0000
0000
0000
0000
1000
0000
0000
0000
0000
0000
0000
0100
0000
0000
0010
0000
,
0002
0000
0000
0000
,
0000
0000
0000
0000
0000
2003
0000
3000
,
0110
0000
0000
0000
0001
0000
1000
0000
0000
0000
1000
0000
0010
0000
0100
0001
,
0110
1100
1001
0110
1010
0011
0110
0000
,
1002
0000
0000
0000
0000
0000
0000
0000
0000
0000
0000
0000
0000
0000
0000
0000
0000
0000
0000
0000
0000
0000
0000
0000
0000
0000
0000
0000
0000
0000
0000
0000
0000
0000
0003
0000
0001
0000
0000
0010
0000
0000
0100
0000
0000
0000
0000
0000
,
0020
0000
0000
0000
0000
0000
0100
0000
0000
0000
0000
0000
0000
0000
0000
0000
0000
0000
0100
0000
0000
0000
0000
0000
0000
0000
0000
0000
0000
0000
0100
0000
0000
0000
0030
0000
0100
0000
0000
1000
0000
0000
0100
0000
0000
1000
0000
0000
,
0002
0000
0000
0000
0000
0003
0010
0000
0010
0100
0010
0000
0010
0001
1000
0100
,
1100
0000
0100
0000
0110
0000
0010
0001
1100
0000
0010
0000
0100
0001
0100
0000
,
1010
0000
0010
0101
0000
0100
1010
0100
,
0001
0000
0011
1000
0000
0100
0110
0100
,
1000
0000
1010
0100
0000
0100
0011
0100
,
0001
0110
0000
0010
1001
0000
0002
0000
,
1003
0000
0011
1000
0000
1000
0011
1000
,
0010
0000
0101
1000
0000
1000
0101
1000
,
0010
0000
0110
0010
0000
0010
0110
0010
,
0001
0000
0000
0000
0000
0000
0000
0000
0000
0000
0000
0000
0000
0000
0000
0000
0000
0000
0000
0000
0000
0000
0000
0000
0001
0000
0000
0000
0000
0000
0000
0000
0000
0000
0000
0000
0010
0000
0000
0000
0000
0000
0000
0000
0000
0000
0000
0000
0100
0000
0000
0000
0000
0000
0000
0000
0000
1000
0000
0000
0000
0000
0000
0000
0000
0000
0000
0000
0000
0010
0000
0000
0000
0000
0000
0000
0000
0000
0000
0000
0000
0100
0000
0000
0000
0000
0000
0000
0000
0000
0000
0000
0000
0001
0000
0000
0000
0000
0000
0000
0000
0000
0000
0000
0010
0000
0000
0000
0000
0000
0000
0000
0000
0000
0000
0000
0000
0100
0000
0000
0000
0000
0000
0000
0000
0000
0001
0000
0000
0000
0000
0000
0000
0000
0000
0000
0000
0000
0000
0000
0000
0100
0000
0000
0000
0000
0000
0000
0000
0000
0010
0000
0000
0000
0000
0000
0000
0000
0000
0000
0000
0000
1000
0000
0000
0000
0000
0000
0000
0000
0000
0000
0000
0000
0000
0000
0000
0100
0000
0000
0000
0000
0000
0000
0000
0000
0000
0000
0000
0000
0000
0000
,
0011
0100
1000
0000
0000
0100
1000
0001
,
0100
0001
0010
1000
0000
1000
0011
1000
,
0101
0010
0010
0001
0000
0010
0001
0010
,
0110
0000
1000
0100
0010
0001
0000
0000
0100
0000
0001
0100
0010
1000
0000
0000
,
0101
0010
1000
0000
0000
0100
0001
0010
,
0001
0000
0010
0000
1000
0000
0001
0000
0000
0000
0001
0100
0010
0000
0010
0000
,
0101
1000
1000
0000
0000
1000
0001
1000
,
0100
0000
0000
0011
0000
0000
0000
0000
0000
0001
0100
0010
1000
0000
0000
1000
0100
0010
0001
0000
0000
0000
0000
0000
,
1002
0000
0000
0000
0000
0000
0000
0000
0000
0000
0000
0000
0000
0003
1000
0100
,
0020
0000
0000
0130
0000
1000
0000
0001
,
0100
0001
0200
0000
0000
0000
0000
0000
0000
0000
0000
0000
0000
0000
0310
0001
,
1100
0100
0010
0011
0001
0100
0101
0100
0010
1010
1000
0001
,
0120
0000
0000
0000
0000
2030
0000
3001
,
0100
0000
0000
0010
0000
0000
0001
0000
0010
0000
0100
0000
1000
0000
0000
0000
0000
0000
0100
0000
0000
0000
0000
0000
0000
0000
0000
0000
0000
0000
0001
0000
0010
0000
0100
0000
1000
0000
0000
0000
0000
0000
0000
0000
0000
0000
0000
0000
,
1001
0000
0000
0000
0000
0000
0002
0000
0000
0000
0000
0000
0003
0000
0000
0000
0000
0000
0200
0000
0000
0000
0000
0000
0310
0000
0000
0000
0000
0000
0000
0000
2000
0000
0000
0000
0000
0000
3000
0000
0000
0000
1000
0000
0000
0100
0000
0000
,
1000
0000
1000
0000
0010
0200
0000
0000
0000
0000
0000
0000
0000
0000
0000
0300
,
0011
0101
0011
1001
1100
0110
1100
0101
,
1010
0101
1010
0011
0101
0101
1100
0101
,
0101
1010
0011
1100
0100
0100
0001
0100
,
1000
0000
0010
0000
0100
0000
1000
0100
0010
0000
0002
0000
0000
0000
0000
0003
,
0100
0010
1000
0001
0100
0001
0010
0100
1000
0010
0100
0001
0100
0010
1000
0001
0010
0001
0100
0010
1000
0001
0100
0010
,
0100
0001
0010
0100
1000
0001
0100
0010
0100
0001
1000
0010
0100
0001
0010
0001
1000
0010
0100
0001
1000
0100
1000
0010
,
0100
0001
0100
0010
1000
0001
0010
0100
0010
0001
1000
0010
0100
0001
0010
0001
0100
0010
1000
0100
1000
0010
0100
0001
,
0020
0000
0000
0230
0000
0000
2300
0000
0000
3200
0000
0000
0310
0000
0010
0100
,
0100
0000
0000
1000
0000
0000
0010
0000
0100
0000
0000
0001
0000
0000
0010
0100
,
0020
0000
0000
0000
0000
0000
0000
0000
0000
0030
0001
0100
0010
0000
0100
0000
,
0001
0000
0000
1000
0000
0000
0100
0000
0010
0000
0000
0100
0000
0000
0010
0000
,
2000
0000
0000
0000
0000
0000
0000
3000
,
0100
0000
0001
0100
0010
0000
0100
0010
1000
0000
0001
0000
1000
0100
1000
0000
,
0010
0001
0100
0010
1000
0100
1000
0010
0100
0001
0010
0001
0100
0010
1000
0001
0100
0001
2000
0000
0000
0000
0000
3000
,
0100
0010
0001
0100
0010
1000
0001
0100
0001
0010
0100
1000
0100
0010
0001
0100
0001
0010
0100
1000
0001
0100
0010
1000
,
0100
0000
0010
0000
0001
0000
0100
0000
0010
0000
1000
0000
0001
0000
0010
0000
0100
0000
1000
0000
0000
0010
0000
0000
0100
0000
0000
0001
0000
0000
0100
0000
0000
0010
0000
0000
1000
0000
0000
0100
0000
0000
1000
0000
0000
0010
0000
0000
,
0200
0000
0000
0000
0000
0000
0000
0000
0000
0000
0000
0000
0000
0000
0310
0100
,
0002
0000
0000
0000
0000
1003
0000
0100
,
0020
0000
0000
0000
0130
0000
0002
0000
0000
0000
0000
0000
0000
0000
1003
0100
,
2000
0000
0000
0000
0000
0000
0000
0000
0000
0000
0000
0000
0000
0000
0000
0000
0000
0000
3100
0000
0010
0000
0001
0000
0100
0000
0000
0010
0000
0000
1000
0000
0000
0001
0000
0000
0100
0000
0000
0010
0000
0000
0100
0000
0000
0000
0000
0000
,
0002
0000
0000
2003
0000
0000
3200
0000
0020
0300
0000
0000
0000
0000
0000
0030
,
0002
0000
0000
0023
0000
0000
0230
0000
0320
0000
0000
0230
0000
0000
2300
0000
,
3001
0100
0001
0010
0100
1000
0010
0100
0001
1000
0100
1000
0010
0100
0001
0010
0100
1000
0001
0100
0010
0100
0001
0010
,
0100
1000
0100
0010
0001
1000
0010
0100
0001
1000
0100
1000
0010
0100
0001
0010
0001
0100
0010
1000
0100
1000
0001
0100
,
0020
0000
0000
0000
,
0000
0000
0000
0000
0000
0000
0000
0000
0000
0000
0000
0030
0000
0000
0000
0000
0000
0000
0000
0000
0000
0000
0000
0000
,
1002
0000
0000
0000
0000
0000
0000
0000
0000
0000
0000
0000
0000
0000
0103
0010
,
0101
0101
0000
1010
1010
0000
0110
0000
,
2002
0000
0000
0000
0000
0000
0000
0000
0000
0000
0000
0000
0000
3003
0100
0010
,
0001
0000
0100
0000
0010
0100
0010
0000
0001
0100
0001
0000
0010
0000
0100
0000
,
2200
0000
0000
0000
0000
0000
0000
0000
0000
0000
0000
0000
0000
0000
0000
3300
,
1010
1001
1100
0011
1001
0101
0110
1010
,
1001
0000
0101
0000
0010
1000
0001
0100
0001
0010
0100
1000
0010
0100
0001
0100
,
0010
1000
0010
1000
0010
1000
0010
1000
0100
1000
0100
1000
0100
0010
0100
0010
,
0001
0010
0001
0010
0001
0010
0001
0100
0001
0100
0001
0100
0010
0100
0010
0100
,
0002
0000
0000
0000
0000
0000
0103
0000
0000
0020
0000
0000
0000
0000
0030
0010
0000
0000
0100
0000
0000
0010
0000
0000
,
2200
0000
0000
0000
0000
3300
0010
0000
0000
0022
0000
0000
0000
0000
0000
0000
0000
0000
0000
0000
0000
0000
0033
0000
,
0001
0100
0010
1000
0001
0100
0001
0010
0001
0100
0010
1000
0001
0100
0010
0100
,
0001
1000
0010
0100
0010
1000
0001
0010
0001
1000
0010
0100
0002
0000
0000
0000
,
1003
0100
0010
0001
0100
0010
1000
0001
0100
0010
0100
0001
0010
0100
1000
0100
,
1000
0010
0100
0001
0100
0010
1000
0001
0100
0010
0100
0001
0010
0100
1000
0100
,
1000
0100
1000
0010
0100
0001
1000
0010
1000
0100
0010
0001
0100
0010
1000
0010
,
1000
0100
1000
0001
0100
0010
1000
0010
1000
0100
0010
0001
1000
0010
1000
0001
,
0200
0000
0000
0000
0000
0300
0020
0000
0000
0000
0000
2030
0000
0000
3000
0000
,
0002
0003
0000
0000
0010
0000
0002
0003
0000
0000
0200
0300
0000
0000
0000
0000
,
0010
1000
0001
0100
0010
0100
0001
0010
0001
0100
0010
1000
0001
0010
0001
0100
,
0020
0000
0000
0000
0000
0000
0000
0000
0130
0000
0000
0000
0002
0000
0000
0000
0000
0000
0000
0000
0013
0000
0000
0000
0200
0000
0000
0000
0000
0000
0000
0300
,
0011
0000
0000
0101
0000
0000
2020
3030
0000
0000
1100
0000
0110
0000
0011
0000
,
0220
0330
0000
0000
1001
0000
0000
0022
0033
0000
2200
3300
0011
0000
0110
0000
,
0001
0010
0001
0010
0001
0010
0001
0010
0001
0010
0001
0010
0001
0010
0001
0010
,
0001
1000
0001
1000
0001
1000
0001
1000
0001
1000
0001
1000
0001
1000
0001
1000
,
0100
0000
0000
1000
0000
0000
0100
0000
0000
1000
0000
0000
0100
0000
0000
1000
0000
0000
0100
0000
0000
0000
1000
0000
0000
0000
0100
0000
0000
0000
0010
0000
0000
0000
0001
0000
0000
0000
0100
0000
0000
0000
0010
0000
0000
0000
1000
0000
,
0100
0010
0001
0100
0010
1000
0200
0000
0000
0000
0000
0000
,
0310
0001
0100
0001
0010
0100
1000
0001
0100
0010
0100
0001
1000
0100
0010
0001
,
1000
0000
0000
0000
0010
0000
0000
0000
0100
0000
0000
0000
0001
0000
0000
0000
1000
0000
0000
0000
0010
0000
0000
0000
0000
1000
0000
0000
0000
0000
0100
0000
0000
0000
0000
0010
0000
0000
0000
0000
0001
0000
0000
0000
0000
0010
0000
0000
0000
0000
0100
0000
0000
0000
0000
1000
0000
0000
0000
0000
0010
0000
0000
0000
,
0200
0000
0301
0100
0010
1000
0100
1000
,
0010
0001
0100
0001
0100
0000
0010
0000
2000
0000
0000
0000
0000
0000
0000
0000
,
3100
0000
0010
0001
0100
0010
1000
0100
1000
0010
0100
0001
0010
0100
1000
0010
,
0100
0010
1000
0001
0100
0010
0100
0001
0010
0100
1000
0010
1000
0001
0010
0100
,
0010
0000
0000
0000
0001
0000
0000
0000
0100
0000
0000
0000
0010
0000
0000
0000
1000
0000
0000
0000
0001
0000
0000
0000
0100
0000
0000
0000
0010
0000
0000
0000
0100
0000
0000
0000
0000
0010
0000
0000
0000
0000
0001
0000
0000
0000
0000
1000
0000
0000
0000
0000
0010
0000
0000
0000
0000
0100
0000
0000
0000
0000
0001
0000
,
0000
0000
0000
0010
0000
0000
0000
0000
0001
0000
0000
0000
0000
0100
0000
0000
0000
0000
0010
0000
0000
0000
0000
1000
0000
0000
0000
0000
0100
0000
0000
0000
0020
0000
0000
0000
0000
0000
0000
0000
0000
0000
0000
0000
0000
0000
0000
0000
0032
0000
0000
0000
0000
0000
0000
0000
0000
0000
0000
0000
0000
0000
0000
0000
,
1003
0100
0010
0001
0100
0010
1000
0001
0100
0001
1000
0100
1000
0001
0010
0001
,
0100
0000
0000
0000
0010
0000
0000
0000
1000
0000
0000
0000
0001
0000
0000
0000
0100
0000
0000
0000
0010
0000
0000
0000
0100
0000
0000
0000
0001
0000
0000
0000
0010
0000
0000
0000
0100
0000
0000
0000
1000
0000
0000
0000
0000
0010
0000
0000
0000
0000
0100
0000
0000
0000
0000
0001
0000
0000
0000
0000
1000
0000
0000
0000
,
0100
0000
0000
0000
0010
0000
0000
0000
0001
0000
0000
0000
0100
0000
0000
0000
0001
0000
0000
0000
1000
0000
0000
0000
0000
0100
0000
0000
0000
0000
0010
0000
0000
0000
0000
1000
0000
0000
0000
0000
0100
0000
0000
0000
0000
1000
0000
0000
0000
0000
0010
0000
0000
0000
0000
0100
0000
0000
0000
0000
0001
0000
0000
0000
,
0100
0000
0000
0000
0000
0010
0000
0000
0000
0000
1000
0000
0000
0000
0000
0100
0000
0000
0000
0000
0010
0000
0000
0000
0000
0001
0000
0000
0000
0000
0100
0000
0000
0000
0000
0002
0000
0000
0000
0000
0000
0000
0000
0000
0000
0000
0000
0000
0000
0000
0000
0000
0000
0000
0000
0000
0000
0000
0000
0000
0000
0003
0000
0000
,
2000
0000
0000
3020
0000
0000
0230
0000
,
0320
0000
0000
0000
0000
0000
0000
0000
0030
0010
0000
0000
0001
0000
0000
0100
0000
0000
0010
0000
0000
1000
0000
0000
,
0022
0000
0000
0000
0000
0000
0000
0000
0000
0000
0000
0000
0000
0000
0000
0000
0030
0000
0200
0000
0000
0000
0000
0000
0000
0000
0000
0000
0000
0000
0000
0000
0000
0300
0000
0000
2000
0000
0000
0000
0000
0000
0000
0000
0000
0000
0000
0000
,
3023
0000
0000
0000
0000
0000
0000
0000
0000
0000
0000
0000
0000
0000
0000
0000
0000
0000
0032
0000
0000
0000
0000
0000
0000
0000
0000
0000
0000
0000
0000
0000
0000
0003
0000
0000
2200
0000
0000
0000
0000
0000
0000
0000
3300
0000
0000
0000
,
1000
0100
1000
0100
1000
0000
0100
0000
0010
0001
0010
0001
0010
0000
0100
0000
,
1100
0010
0001
0100
0101
0010
1000
0100
,
0010
0001
0010
0001
1000
0100
1000
0100
0010
0001
0010
0001
1000
0100
0010
0001
,
0110
0010
0011
0100
0110
1000
1100
0100
,
2002
0000
0000
0000
0000
3003
0200
0000
0000
0320
0000
0000
0000
0032
0000
0000
,
0103
0010
0100
0001
0100
0010
1000
0000
1000
0000
0011
0000
0101
0000
1010
0000
,
0100
0010
0001
0100
0010
1000
0100
1000
0010
0100
0001
0010
0001
0100
0001
1000
,
0100
0010
0001
0100
0010
1000
0001
0100
0001
0010
0100
1000
0010
1000
0100
0010
,
0011
0100
0010
1010
0000
0100
0001
0101
,
0000
0000
0100
0000
0010
0000
1000
0000
0001
0010
0001
0100
0010
0000
1000
0000
,
0100
0010
0001
0100
0010
1000
0100
1000
0010
0100
0001
0010
0001
0100
0010
1000
,
0001
0100
0001
0010
0100
1000
0001
0100
0010
1000
0100
1000
0010
0100
0001
0010
,
0100
0000
0000
0000
,
0000
0000
0000
0000
,
0000
0000
0000
0000
,
0000
0000
0000
0000
,
0000
0000
0000
0000
,
0000
0000
0000
0000
,
0000
0000
0000
0000
,
1000
0100
0010
0001
1000
0100
0010
0001
1000
0010
0100
0001
1000
0010
0100
0001
,
1001
0000
0001
0100
0010
0000
0010
0000
0101
0000
0010
1000
0100
0000
0100
0000
,
0110
0000
0010
0001
1000
0000
1000
0000
1100
0000
0010
0100
0001
0000
0010
0000
,
0011
0000
0010
0100
1000
0000
1000
0000
1100
0000
0010
0100
0001
0000
0001
0000
,
0101
0000
0100
0010
1000
0000
1000
0000
1001
0000
0010
0100
0001
0000
0001
0000
,
1010
0000
0010
0100
0001
0000
0001
0000
0011
0000
1000
0100
0010
0000
0010
0000
,
1100
0000
0001
0010
0100
0000
0100
0000
1010
0000
0100
0010
1000
0000
1000
0000
,
0101
0000
0010
1000
0100
0000
0100
0000
0011
0000
1000
0010
0001
0000
0001
0000
,
0101
0000
0010
1000
0100
0000
0100
0000
0110
0000
0100
1000
0010
0000
0010
0000
,
1010
0100
0001
0011
0000
0100
1100
0000
,
1001
0100
0010
1010
0000
0100
0101
0100
,
0110
1000
0001
0011
0000
0010
0100
1000
,
1100
0001
0100
0110
0000
0010
0110
0000
,
0100
0001
0100
0001
0100
0001
0100
0001
1000
0100
1000
0100
1000
0100
1000
0100
,
0010
0100
0010
0100
0010
0100
0010
0100
0010
0001
0010
0001
0010
0001
0010
0001
,
1001
0000
0100
0000
0010
0001
0010
0000
1100
0000
0010
0000
0100
0001
0100
0000
,
0110
0000
0010
0000
1000
0010
1000
0000
1100
0000
0010
0000
0001
0100
0001
0000
,
0101
0101
1100
1100
0110
0110
0011
0011
,
1000
0100
1000
0010
0100
0001
1000
0100
1000
0001
0010
0001
0100
0010
1000
0100
,
1001
0100
0010
0001
0100
0001
0100
0010
1000
0100
1000
0100
0010
0001
0100
0010
,
1001
0000
0000
0000
,
1100
0100
0010
0001
0010
0100
1010
0100
0001
0010
0001
0100
,
0101
0010
1000
0100
0010
0001
1100
0010
0100
1000
0100
0010
,
2002
0000
0000
0000
,
0000
3003
0000
0000
0000
0000
0000
0000
;
