#TITLE:Angels Crying;
#SUBTITLE:;
#ARTIST:E-Type;
#TITLETRANSLIT:;
#SUBTITLETRANSLIT:;
#ARTISTTRANSLIT:;
#CREDIT:J. Bratt;
#BANNER:../_bn-1.png;
#BACKGROUND:../bg-1.png;
#LYRICSPATH:;
#CDTITLE:;
#MUSIC:Angels Crying.ogg;
#OFFSET:-0.018;
#SAMPLESTART:41.265;
#SAMPLELENGTH:13.885;
#SELECTABLE:YES;
#BPMS:0.000=138.222;
#STOPS:;
#BGCHANGES:;
// cache tags:
#FIRSTBEAT:16.000;
#LASTBEAT:291.000;
#SONGFILENAME:Songs/Index Tournament 1/Angels Crying/Angels Crying.sm;
#HASMUSIC:1;
#HASBANNER:1;
#MUSICLENGTH:128.788;
// end cache tags

//---------------dance-single - Mandodo----------------
#NOTES:
     dance-single:
     Mandodo:
     Challenge:
     10:
     0.735,0.734,0.419,0.683,0.182,521.000,54.000,88.000,57.000,0.000:

0000
0000
0000
0000
,
0000
0000
0000
0000
,
0000
0000
0000
0000
,
0000
0000
0000
0000
,
1000
1000
1000
1000
1000
0100
0010
0001
,
0010
0010
0010
0010
0010
0100
0010
0001
,
0100
0100
0100
0100
0100
0001
0010
0100
,
1000
1000
1000
1000
1000
0001
1000
0100
,
M21M
0300
0100
1000
0010
0100
0001
0100
,
0010
1000
0100
0010
0001
1000
0001
0100
,
0020
0000
0130
0001
0010
0001
2000
0000
,
3100
0110
0000
0011
0000
1001
1000
0001
,
0101
0100
0010
1000
0001
0100
0001
0020
,
0000
0000
0130
1000
0010
0100
0001
1000
,
0002
0000
1003
0100
0010
0001
1000
0001
,
M1M1
0000
M11M
0000
1M1M
0000
2002
0003
,
3002
0013
1000
0010
0001
0100
0110
0000
,
0010
1000
0100
0001
0100
1000
1001
0000
,
0001
0010
1000
0010
0100
0001
0100
1000
,
2002
3003
2002
3003
2002
3003
0220
0300
,
2030
3100
0001
0100
1000
0001
0101
0000
,
0100
0010
0001
0010
1000
0100
1100
0000
,
1100
0100
0010
0001
0010
1000
0010
0001
,
0202
0000
0303
0000
0202
0000
0303
0000
0202
0000
0303
0000
0010
1000
0010
0100
,
M0M1
0000
1000
0000
0001
1000
0001
0000
1000
0100
1000
0000
0001
0100
0001
0000
,
0010
0100
0010
0000
0100
1000
0100
0000
0010
0100
0010
0000
0001
0010
0100
1000
,
0MM1
0000
0100
0000
0010
0100
0010
0000
2000
0000
0100
0000
3M02
0000
1000
0000
,
M203
0010
03M2
0100
2M03
0100
3001
1000
,
1MM1
0000
0001
0000
1000
0100
1000
0000
0001
0010
0001
0000
0010
0100
0010
0000
,
0100
1000
0100
0000
1000
0001
1000
0000
0002
0000
0000
0000
2003
0000
3000
0000
,
1200
0310
2100
3001
,
1001
0000
0001
0000
0101
0000
0100
0000
0110
0000
0010
0000
1000
0001
0100
0010
,
M10M
0000
0001
0000
1000
0100
1000
0000
0001
0010
0001
0000
0010
0100
0010
0000
,
0100
1000
0100
0000
2000
0000
0000
0000
3020
0000
0000
0000
0130
0010
0100
0001
,
1MM0
0000
0100
0000
0010
0100
0010
0000
0002
0000
0010
0000
20M3
0000
0100
0000
,
3M20
0100
2M30
0001
320M
0010
13M0
0001
,
1MM1
0000
1000
0000
0001
0100
0001
0000
1000
0100
1000
0000
0010
0100
0010
0000
,
0100
0001
0100
0000
0002
0000
0000
0000
0023
0000
0000
0000
0230
0000
0300
0000
,
2100
3010
0102
0013
,
1100
0000
0100
0000
0110
0000
0010
0000
1100
0000
1000
0000
0001
0010
0001
1000
,
01MM
0100
0010
0001
0001
0001
1000
1000
,
0010
0010
0010
0100
0100
0100
0010
1000
,
0001
0001
0001
0001
0001
0010
0100
1000
,
0100
0100
0100
0100
0100
0010
0001
1000
,
0010
0010
0010
0010
0010
0100
0010
1000
,
0100
0100
0100
0100
0100
0010
0001
1000
,
0100
0100
0100
0100
0100
0010
0001
1000
,
0010
0010
0010
0010
0010
1000
0001
2000
,
0MMM
3001
1000
0001
0100
0010
1000
0100
,
0020
0000
0000
0000
0031
0000
0010
0000
0001
0000
1000
0000
0100
1000
0001
0000
,
0010
0010
0001
0010
1000
0010
0100
1000
,
0020
0030
0020
0030
1001
1000
0001
0020
,
0000
0130
1000
0100
0010
0001
1000
0100
,
0001
0100
0010
0100
1000
0020
0000
0230
,
0000
0301
0100
0010
1000
0001
0010
0100
,
11MM
0000
MM11
0000
M11M
0000
22MM
0300
,
3002
0013
1000
0010
0001
0100
0202
0300
,
0203
0310
0001
0010
1000
0100
2200
0300
,
3002
1003
0100
0001
0100
1000
0010
0100
,
0220
0330
0220
0330
0220
0330
2002
0003
,
3002
0103
0010
0001
0010
1000
2020
3000
,
2030
3100
0010
1000
0010
0001
0022
0033
,
0011
0001
0100
1000
0100
0010
1000
0001
,
2002
0000
0000
0000
0MM0
0000
0000
0000
0MM0
0000
3003
0000
1000
0001
0100
0010
,
1M0M
0000
0001
0000
0010
0001
1000
0000
0100
1000
0001
0000
1000
0010
0100
0000
,
0001
0010
0100
0000
1000
0010
0100
0000
0001
1000
0010
0000
0100
0001
1000
0100
,
M01M
0000
0001
0000
1000
0010
1000
0000
0002
0000
1000
0000
02M3
0000
0010
0000
,
03M2
1000
M023
0001
023M
1000
M310
0001
,
1MM1
0000
1000
0000
0010
0100
0001
0000
1000
0100
0010
0000
0001
0010
0100
0000
,
1000
0010
0100
0000
0002
0000
0000
0000
0023
0000
0000
0000
0230
0000
0300
0000
,
2100
3001
0102
0013
,
0110
0100
1000
0001
1001
0000
0100
0000
,
0220
0000
0000
0330
;
