#TITLE:Party Speedcore Anthem (Da Bitchen' Remix);
#SUBTITLE:EXoduz Violation II;
#ARTIST:Annoying Ringtone;
#TITLETRANSLIT:;
#SUBTITLETRANSLIT:;
#ARTISTTRANSLIT:;
#CREDIT:;
#BANNER:../Banner.png;
#BACKGROUND:../Background.png;
#LYRICSPATH:;
#CDTITLE:;
#MUSIC:Party Speedcore Anthem (Da Bitchen' Remix).ogg;
#OFFSET:0.820;
#SAMPLESTART:96.421;
#SAMPLELENGTH:12.000;
#SELECTABLE:YES;
#DISPLAYBPM:230.000;
#BPMS:0.000=237.590,70.000=230.000;
#STOPS:;
#BGCHANGES:;
// cache tags:
#FIRSTBEAT:4.000;
#LASTBEAT:969.500;
#SONGFILENAME:Songs/EXoduz Violation II/Party Speedcore Anthem (Da Bitchen' Remix) - [Ov3rHell3XoduZ]/sm.sm;
#HASMUSIC:1;
#HASBANNER:1;
#MUSICLENGTH:258.922;
// end cache tags

//---------------dance-single - ----------------
#NOTES:
     dance-single:
     :
     Beginner:
     13:
     1.000,1.000,0.367,0.954,0.655,1831.000,95.000,247.000,6.000,4.000:
0000
0000
0000
0000
,
2000
3002
1003
0110
,
0100
0000
0000
0001
0000
0000
1000
0000
0000
0010
0000
0000
0100
0000
0000
0001
,
0010
0200
0000
0000
0000
2300
0000
0000
0000
3002
0000
0000
0000
2003
0000
0000
,
0000
3200
0000
0000
0310
0000
0000
0001
0000
0000
1000
0000
0000
0010
0000
0000
,
0100
0001
2000
0000
3000
0000
2000
0000
0000
0000
3200
0000
0000
0000
0320
0000
,
0000
0000
0032
0000
0000
1003
0000
0000
0010
0000
0000
0100
0000
0000
0001
0000
,
0000
0010
0100
1000
0000
0000
0000
0110
0000
0000
0000
0101
0000
0000
0000
0002
,
0000
0000
0000
0023
0000
0000
0000
0230
0000
0000
1300
0000
0010
0000
0100
0000
,
0001
0010
1100
0000
2000
0000
3020
0000
,
0230
0000
0000
0000
0302
0000
0000
0013
0000
0000
0100
0000
0000
1000
0000
0000
,
0001
0000
0000
1000
0010
0200
0000
0000
0000
0302
0000
0000
0000
0023
0000
0000
,
0000
0230
0000
0000
0000
2300
0000
0000
3010
0000
0000
0100
0000
0000
0001
0000
,
0000
0010
0000
0000
0100
1000
0020
0000
0000
0000
0230
0000
0000
0000
0302
0000
,
0000
0000
0023
0000
0000
0000
0230
0000
0000
1300
0000
0000
0001
0000
0000
0010
,
0000
0000
0100
0000
0000
1000
0010
0200
0000
0000
0000
0000
0000
0000
0000
0000
,
0000
0000
0000
0000
,
0000
0000
0302
2003
,
3020
0230
0302
0023
,
0230
2300
3002
0203
,
0302
2003
3200
0320
,
0032
0000
2003
3020
0230
0000
0302
0000
,
0023
0230
0320
0032
,
2003
3200
2300
3002
,
0203
0000
0000
0000
0302
0000
0000
0000
2003
0000
0000
0000
3100
0000
0010
0001
,
0100
0000
0010
1000
0100
0000
0010
0001
0200
0000
0000
0000
0320
0000
0000
0000
,
2030
3200
0320
0032
,
2003
3020
0230
0302
,
2003
0000
0000
0000
3200
0000
0000
0000
0310
0000
0001
1000
0010
0000
0100
0000
,
0001
0011
1001
0101
0002
0000
2003
0000
,
3200
0320
0032
2003
,
3020
0230
0302
2003
,
3002
0000
0000
0000
0023
0000
0000
0000
0130
0000
1000
0010
0100
0000
0001
0000
,
0010
0100
1000
0001
0100
0001
0010
0000
0200
0000
0000
0000
2300
0000
0000
0000
,
3020
0230
0302
2003
,
3002
0023
0430
4300
,
3040
0430
0304
4003
,
3040
0430
0304
0043
,
0430
4300
3004
0043
,
0430
0000
0000
0000
4300
0000
0000
0000
3001
0010
0100
0000
1000
0000
0000
0000
,
0000
0000
0000
0000
,
0000
0000
1111
1000
,
0100
0010
0001
0010
,
0100
1000
0001
0100
,
0001
1000
0100
0010
,
0001
0010
0200
1300
,
0001
0100
0001
1000
,
0100
1000
0001
0010
,
0001
1000
0010
1000
,
0001
0000
0000
0000
0100
0000
0000
0000
0010
1000
0100
0010
0001
0000
1000
0010
,
0100
0001
0010
0000
0100
0000
1000
0000
0010
0100
0001
0010
0100
0000
1000
0010
,
0100
0001
1000
0000
0001
0000
0100
0000
0010
1000
0100
0010
0001
0000
1000
0010
,
0100
0001
0010
0000
0100
0000
1000
0000
0010
0100
0001
0010
0100
0000
1000
0001
,
0010
0100
1000
0000
0001
0000
1000
0000
0010
0100
0001
0010
0100
0000
1000
0010
,
0100
0001
0010
0000
0100
0000
1000
0000
0001
0010
0100
1000
0001
0000
1000
0100
,
0010
0001
1000
0000
0010
0000
0100
0000
0001
0010
0100
1000
0010
0000
0100
0001
,
1000
0100
1000
0000
0001
0000
1000
0000
0010
0100
0001
0010
0100
0000
1000
0001
,
1000
0010
0100
0000
0001
0000
0010
0000
1100
0000
1000
0000
0010
0000
0100
0000
,
0001
0010
0100
1000
0020
0000
0000
0130
,
0002
0000
0000
0000
0000
0000
1003
0010
,
0100
0001
0010
0100
2000
0000
3020
0000
,
0230
0000
0000
0000
0000
0000
0000
0301
,
1000
0010
0100
0001
2000
0000
0000
3100
,
0020
0000
0000
0000
0000
0000
0031
1000
,
0010
0100
0001
1000
0200
0000
0320
0000
,
0032
0000
0003
1010
0110
0000
0101
0000
,
0011
0000
1100
0000
1001
0000
0011
0010
,
0110
0000
0000
0000
1100
0000
0000
0000
1000
0010
0100
0000
0101
0000
0000
0000
,
0011
0000
0000
0000
1100
0000
0000
0000
1001
0000
0000
0000
0101
0000
0001
0010
,
0100
0000
0000
0000
1000
0010
0100
0001
0010
0000
0100
0000
0100
0000
0100
0000
,
1000
1010
0010
0110
0100
0101
0001
0011
,
0010
0000
0110
0000
0100
0000
1100
0000
1000
0010
0100
0001
1000
0100
1000
0001
,
0010
0001
1000
0010
0100
0001
0020
0000
0000
0000
0000
0000
0000
0000
0000
0000
,
0000
0000
0000
0030
0200
0300
0000
0000
1000
0000
0010
0000
0100
0000
0001
0000
,
1000
0100
1000
0001
0010
0100
1000
0010
,
0100
0000
0001
0000
1000
0000
0100
0000
0010
0001
1000
0010
0100
0001
0010
0100
,
1000
0001
0100
0001
1000
0100
0010
0001
,
1000
0010
0200
0302
0023
0130
1000
0001
,
0100
0001
1000
0100
0010
0001
1000
0010
,
0100
0000
0001
0000
1000
0000
0100
0000
0010
0001
1000
0010
0100
0001
1000
0100
,
0010
0000
0001
0000
1000
0000
0010
0000
0100
0000
0001
0000
1000
0000
0010
0100
,
0001
0000
0010
0100
1000
0000
0010
0100
0001
0000
0010
0000
0100
0000
1000
0000
,
0001
0100
0001
1000
0100
0010
0001
1000
,
0010
0000
0100
0000
0001
0000
1000
0000
0100
0010
0001
1000
0010
1000
0001
0010
,
0100
1000
0001
0100
0001
1000
0100
0010
,
0001
0011
0101
1001
0101
0001
1000
0010
,
0100
0001
1000
0100
0010
0001
1000
0010
,
0100
0000
0001
0000
1000
0000
0100
0000
0010
0001
1000
0010
0100
0001
1000
0100
,
0010
0000
0001
0000
1000
0000
0010
0000
0100
0001
0010
0000
0100
1000
0010
0100
,
0001
1000
0100
0010
0001
1000
0010
0100
0001
0000
0010
0000
0100
0000
1000
0000
,
0001
0100
0001
1000
0100
0010
0001
1000
,
0010
0000
0100
0000
0001
0000
1000
0000
0100
0010
0001
1000
0010
0100
0001
0010
,
0100
1000
0001
0100
0001
1000
0100
0010
,
0001
1000
0020
0230
0302
0013
0100
1000
,
0001
0100
0001
1000
0100
0010
0001
1000
,
0010
0000
0000
0000
0000
0000
0100
0000
0000
0000
0000
0000
0001
0000
0000
0000
0000
0000
0010
0000
0000
0000
0000
0000
0100
0000
1000
0000
0100
0000
1000
0000
0100
0000
1000
0000
0010
0000
0000
0100
0000
0000
0001
0000
0000
0010
0000
0000
,
0100
0000
1000
0000
0001
0000
0010
0000
0001
0000
1000
0000
0100
0000
0010
0001
,
0100
0000
0010
1000
0100
0000
0010
0001
0100
0000
0010
0000
1000
0000
0001
0000
,
0100
0001
1000
0100
0010
0001
1000
0010
,
0100
0000
0001
0000
0010
0000
0100
0000
1000
0010
0100
0001
1000
0100
1000
0001
,
0010
0100
1000
0001
0100
0001
1000
0100
,
0010
0011
0101
0110
1010
1000
0100
0010
,
0001
0100
0001
0010
0100
1000
0010
0100
,
0001
0000
0000
1000
0000
0000
0100
0000
0000
1000
0000
0000
0001
0010
0100
1000
0100
1000
0100
0000
0000
0010
0000
0000
,
0001
0000
1000
0000
0001
0000
0010
0000
0100
0000
0010
0001
1000
0000
0010
0000
,
0100
0001
0010
0100
2000
0000
0000
0000
3001
0000
1000
0000
0010
0000
0100
0000
,
0001
1000
0100
1000
0001
0010
0100
1000
,
0010
0000
0100
0000
0001
0000
1000
0000
0100
0010
0001
1000
0001
0010
0100
1000
,
0001
1000
0100
0010
0001
1000
0010
0100
,
0001
1000
0200
0320
0032
1003
0010
0100
,
0001
1000
0100
1000
0001
0010
0100
1000
,
0010
0000
0100
0000
0001
0000
1000
0000
0001
0010
0100
1000
0001
0100
0001
1000
,
0100
0000
1000
0000
0001
0000
0010
0000
0100
0000
1000
0000
0100
0000
0010
0001
,
1000
0000
0010
0100
0001
0000
0010
0100
2000
0000
0000
0000
0000
0000
0000
0000
,
0000
0000
0000
0000
,
0000
0000
0000
0000
,
0000
0000
0000
0000
0000
0000
3000
0000
2000
3000
0002
0003
0200
0300
0000
0000
,
0020
0030
2000
3000
0200
0300
0000
0000
0011
0000
0001
0000
1000
0000
0010
0000
,
0100
0000
0001
0000
1000
0000
0100
0000
0010
0001
1000
0000
0220
0330
0220
0330
,
0202
0303
0001
0000
1000
0000
0010
0000
0100
0000
0001
0000
1000
0000
0100
0000
,
1000
0000
0001
0000
0010
0000
0100
0000
1000
0010
0100
0000
0022
0033
0022
0033
,
0202
0303
0100
0000
0010
0000
1000
0000
0100
0000
0010
0000
0001
0000
1000
0000
,
0001
0000
0010
0000
0001
0000
1000
0000
0100
0010
0001
0000
2020
3030
2020
3030
,
2002
3003
0001
0000
0100
0000
0010
0000
1000
0000
0100
0000
1000
0000
0001
0000
,
0100
0000
0001
0000
1000
0000
0100
0000
0010
0001
1000
0000
0220
0330
0100
0001
,
0010
0000
0100
1000
0010
0000
0100
0001
0010
0000
0100
0000
1000
0000
0001
0000
,
0100
0000
0001
0000
1000
0000
0010
0000
0100
0001
0010
0000
2200
3300
2200
3300
,
2020
3030
0010
0000
0100
0000
0001
0000
1000
0000
0100
0000
1000
0000
0001
0000
,
0010
0000
0100
0000
1000
0000
0001
0000
0010
0100
1000
0000
2020
3030
0202
0303
,
0202
0303
0002
0000
0203
0000
0320
0000
2030
0000
3100
0000
0010
0000
0001
0000
,
1000
0000
0001
0000
0010
0000
0100
0000
1000
0001
0100
0000
0220
0330
0220
0330
,
2020
3030
1000
0000
0100
0000
0010
0000
0001
0000
1000
0000
0001
0000
0010
0000
,
0001
0000
0100
0000
0010
0000
1000
0000
0100
0010
0001
0000
0202
0303
0202
0303
,
1000
0100
0010
0001
1000
0001
0010
0100
1000
0000
0001
0000
0100
0000
0001
0000
,
1000
0000
0100
0000
1000
0000
0010
0000
0100
0001
0010
0000
2200
3300
2200
3300
,
2002
3003
0001
0000
1000
0000
0010
0000
0100
0000
0001
0000
1000
0000
0001
0000
,
0010
0000
0100
0000
1000
0000
0001
0000
1000
0100
0010
0000
0022
0033
1000
0010
,
0100
0000
0001
0010
0100
0000
1000
0010
0100
0000
0001
0000
0010
0000
0100
0000
,
1000
0000
0001
0000
1000
0000
0100
0000
0010
0001
0100
0000
0220
0330
0220
0330
,
2020
3030
1000
0000
0001
0000
0100
0000
0001
0000
1000
0000
0010
0000
1000
0000
,
0100
0000
1000
0000
0001
0000
0100
0000
0001
0010
0100
0000
2200
3300
2200
3300
,
2020
3030
0020
0000
0230
0000
0302
0000
0013
0000
0100
0000
1000
0000
0001
0000
,
1000
0000
0010
0000
0100
0000
0001
0000
1000
0001
0010
0000
0220
0330
2200
3300
,
2200
3300
0100
0000
0010
0000
0001
0000
1000
0000
0001
0000
0010
0000
0001
0000
,
1000
0000
0010
0000
0100
0000
0001
0000
1000
0001
0100
0000
0220
0330
0220
0330
,
0010
1000
0100
0010
0100
1000
0001
0010
0004
0000
0000
0000
4003
0000
0000
0000
,
3040
0430
0304
4003
,
3400
0000
0000
0000
0340
0000
0000
0000
0031
1000
0100
0000
0010
0000
0001
1000
,
0010
0000
0100
0000
0001
0000
0010
0000
0100
1000
0010
0000
0100
0000
0001
0010
,
0100
0000
1000
0000
0001
0000
0100
0000
0010
1000
0100
0000
0010
0000
0001
1000
,
0010
0000
0100
0000
0001
0000
0010
0000
0100
1000
0010
0000
0100
0000
0001
1000
,
0010
0000
0100
0000
0001
0000
0010
0000
0100
1000
0001
0000
0010
0000
0100
1000
,
0010
0000
0100
0000
0001
0000
0010
0000
0100
1000
0001
0000
0100
0000
0010
1000
,
0100
0000
0010
0000
0001
0000
1000
0000
0020
0130
0001
0000
0010
0000
0100
1000
,
0001
0000
0100
0000
0010
0000
1000
0000
0100
0010
0001
0000
1000
0000
0010
0100
,
0001
0000
0010
0000
0100
0000
1000
0000
0010
0100
0001
0000
0010
0000
0100
1000
,
0010
0000
0100
0000
0001
0000
1000
0000
0010
0100
0001
0000
1000
0000
0100
0010
,
0001
0000
1000
0000
0001
0000
0100
0000
0010
1000
0100
0000
0010
0000
0001
1000
,
0010
0000
0100
0000
0001
0000
0010
0000
0100
1000
0001
0000
0010
0000
0100
1000
,
0001
0000
1000
0000
0010
0000
0100
0000
0001
0010
0100
0000
1000
0000
0001
0100
,
0010
1000
0100
0010
0001
1000
0010
0100
,
0001
0010
0100
1000
1001
0000
0110
0000
,
1100
0000
1000
0100
0020
0000
0032
0000
,
0203
0000
0310
0000
0010
1000
0010
0100
,
0020
0000
0000
0000
0230
0000
0000
0000
0302
0000
0000
0000
0013
0000
0100
1000
,
0001
0000
0100
0000
0010
1000
0100
0010
0001
0000
1000
0000
0010
0000
1000
0000
,
0010
0100
0001
0100
0001
0010
0001
0010
,
0100
0000
1000
0000
0100
0000
1000
0000
0020
0030
0000
0000
0000
0000
0000
0000
,
0000
0000
0000
0000
,
0000
0000
0000
0000
0000
0000
0000
0000
0100
0001
0010
0100
1000
0010
0100
0001
,
1000
0100
1000
0010
0100
0010
0100
0001
0010
0100
1000
0001
0100
0001
1000
0100
,
0010
0100
1000
0010
0100
0001
0100
0001
0010
0100
1000
0001
1000
0010
0100
0001
,
0010
0100
1000
0010
1000
0010
0100
0001
1000
0100
0010
0001
1000
0001
0010
0100
,
1000
0100
1000
0010
0100
0001
0010
0100
1000
0001
0100
0001
1000
0001
1000
0010
,
0100
0001
1000
0100
1000
0001
0010
0100
1000
0100
1000
0010
0100
0001
1000
0001
,
0010
0100
1000
0010
0100
0001
0010
0001
1000
0100
0010
0001
1000
0010
1000
0010
,
0100
0001
1000
0001
0010
0100
1000
0001
0100
0001
1000
0010
0100
0000
0001
0010
,
0100
0000
1000
0010
0100
0000
0001
0010
0100
0000
1000
0000
0010
0000
0100
0000
,
0001
1000
0001
0010
0100
1000
0010
0100
,
0001
1000
0010
1000
0100
0010
0001
1000
,
0001
0010
0100
1000
0001
0100
0001
1000
,
0100
0010
0001
0010
0100
1000
0010
0100
,
0001
0010
0100
1000
0010
0100
0001
1000
,
0100
1000
0001
0010
0100
1000
0010
0100
,
0001
0000
1000
0000
0001
0000
0010
0000
2222
3333
0000
0000
0000
0000
0000
0000
,
2222
3333
0000
0000
0000
0000
0000
0000
2222
3333
0010
0000
0100
0000
1000
0000
,
0001
0100
0001
1000
0100
0010
0001
1000
,
0010
0100
0001
0010
0001
1000
0001
0100
,
0001
1000
0010
0100
0001
0010
0100
1000
,
0100
0010
0001
1000
0001
0010
0100
1000
,
0001
0100
0001
1000
0010
0100
0001
1000
,
0100
1000
0001
0010
0100
1000
0010
0100
,
0001
0000
1000
0000
0001
0000
0010
0000
0100
0000
1000
0000
0001
0000
0100
0010
,
1000
0000
0100
0010
0001
0000
0100
0010
1000
0000
0001
0000
0100
0000
0001
0000
,
1000
0010
0100
0001
0010
0001
1000
0100
,
0010
0001
1000
0001
0010
0100
1000
0001
,
0100
0001
1000
0010
0100
0001
0010
0001
,
1001
0101
0011
1001
0101
0001
1000
0001
,
0100
0010
1000
0100
0010
0001
1000
0001
,
0010
0000
0100
0000
1000
0000
0001
0000
0200
0000
0000
0300
0200
0000
0000
0300
,
0200
0000
0000
0300
0200
0000
0300
0000
0200
0000
0300
0000
0200
0300
0000
0000
,
0200
0300
0000
0000
MMMM
0000
0000
0000
0010
0000
0000
0000
1000
0000
0000
0000
,
0100
0010
0001
0000
1000
0000
0010
0100
,
0001
0010
0100
1000
,
0010
0000
0100
0000
0001
0010
0100
0000
,
1000
0001
0110
0110
,
1010
1010
1100
1100
,
0110
0110
0000
0000
,
0000
0000
0000
0000
,
0000
0000
0000
0000
0000
0000
0000
0000
1000
0100
0010
0001
1000
0100
1000
0100
,
1000
0100
0010
0001
1000
0100
1000
0100
1000
0100
0010
0001
1000
0100
1000
0100
,
1000
0100
0010
0001
1000
0100
1000
0100
1000
0001
0100
0010
1000
0010
1000
0010
,
1000
0001
0100
0010
1000
0010
1000
0010
1000
0001
0100
0010
1000
0010
1000
0010
,
1000
0001
0100
0010
1000
0010
1000
0010
1000
0001
0010
0100
1000
0001
1000
0001
,
1000
0001
0010
0100
1000
0001
1000
0001
1000
0001
0010
0100
1000
0001
1000
0001
,
1000
0001
0010
0100
1000
0001
1000
0001
1000
0100
0010
0100
1000
0001
1000
0001
,
1000
0100
0010
0100
1000
0001
1000
0001
1000
0100
0010
0100
1000
0001
0100
0010
,
1000
0000
0100
0010
0001
0000
0100
0010
2000
0000
3001
0000
0100
0000
0001
0000
,
0010
0100
1000
0001
0100
0001
1000
0010
,
0100
0001
0010
0100
1000
0001
1000
0010
,
0100
0001
1000
0100
1000
0001
0010
0100
,
2000
3000
2000
3000
2000
3000
2000
3000
2000
3000
0010
0000
0100
0000
0001
0000
,
1000
0100
1000
0001
0010
0100
1000
0010
,
0100
0001
1000
0100
1000
0001
0010
0100
,
1000
0001
0100
0001
2000
3010
0100
0001
,
0020
0130
1000
0001
2000
3010
0100
0001
,
1000
0001
0010
0100
1000
0010
0100
0001
,
1000
0010
1000
0001
0100
0001
0010
0100
,
1000
0010
0100
0001
0010
0001
1000
0100
,
1000
0010
0100
0001
0010
0100
1000
0001
,
1000
0100
0010
0001
1000
0010
0100
0001
,
1000
0001
0010
0100
1000
0001
0100
0001
,
1000
0000
0010
0000
0100
0000
0001
0000
0010
0000
0100
0000
1000
0000
0010
0100
,
0001
0000
0010
0100
1000
0000
0010
0100
0002
0000
0000
0000
0000
0000
0000
0000
,
0000
0000
0023
0000
,
0230
0000
2300
0000
,
0000
0000
3020
0000
,
0130
0100
0100
0100
0002
0000
0000
0000
,
0000
0000
0023
0000
,
0230
0000
2300
0000
,
0000
0000
0000
0000
0000
0000
0000
0000
3001
0000
0010
0100
1000
0000
0001
0000
,
0100
0001
0010
0100
1000
0001
1000
0010
0200
0300
0000
0000
0000
0000
0000
0000
,
0000
0M00
0000
000M
0000
0000
0000
0000
;

//---------------dance-single - ----------------
#NOTES:
     dance-single:
     :
     Easy:
     15:
     1.000,1.000,0.452,1.000,0.966,2016.000,117.000,260.000,6.000,4.000:
0000
0000
0000
0000
,
2000
3002
1003
0110
,
0100
0000
0000
0001
0000
0000
1000
0000
0000
0010
0000
0000
0100
0000
0000
0001
,
0010
0200
0000
0000
0000
2300
0000
0000
0000
3002
0000
0000
0000
2003
0000
0000
,
0000
3200
0000
0000
0310
0000
0000
0001
0000
0000
1000
0000
0000
0010
0000
0000
,
0100
0001
2000
0000
3000
0000
2000
0000
0000
0000
3200
0000
0000
0000
0320
0000
,
0000
0000
0032
0000
0000
1003
0000
0000
0010
0000
0000
0100
0000
0000
0001
0000
,
0000
0010
0100
1000
0000
0000
0000
0110
0000
0000
0000
0101
0000
0000
0000
0002
,
0000
0000
0000
0023
0000
0000
0000
0230
0000
0000
1300
0000
0010
0000
0100
0000
,
0001
0010
1100
0000
2000
0000
3020
0000
,
0230
0000
0000
0000
0302
0000
0000
0013
0000
0000
0100
0000
0000
1000
0000
0000
,
0001
0000
0000
1000
0010
0200
0000
0000
0000
0302
0000
0000
0000
0023
0000
0000
,
0000
0230
0000
0000
0000
2300
0000
0000
3010
0000
0000
0100
0000
0000
0001
0000
,
0000
0010
0000
0000
0100
1000
0020
0000
0000
0000
0230
0000
0000
0000
0302
0000
,
0000
0000
0023
0000
0000
0000
0230
0000
0000
1300
0000
0000
0001
0000
0000
0010
,
0000
0000
0100
0000
0000
1000
0010
0200
0000
0000
0000
0000
0000
0000
0000
0000
,
0000
0000
0000
0000
,
0000
0000
0000
0000
0000
0000
0000
0000
0301
0010
0001
0010
0100
1000
0001
0100
,
0001
0010
0001
0010
0100
1000
0001
0100
0001
0100
0001
1000
0010
0100
0001
1000
,
0100
1000
0100
1000
0001
0100
0001
0010
0100
0010
0100
1000
0001
0100
0001
0100
,
0001
0010
0100
1000
0001
1000
0001
0010
0100
1000
0100
1000
0100
1000
0010
0100
,
0001
0100
0001
0010
2100
0000
3020
0000
0230
0000
0000
0000
0302
0000
0000
0000
,
0023
0230
0320
0032
,
2003
3200
2300
3002
,
0203
0000
0000
0000
0302
0000
0000
0000
2003
0000
0000
0000
3100
0000
0010
0001
,
0100
0000
0010
1000
0100
0000
0010
0001
0100
0001
0100
0001
0010
0100
1000
0100
,
1000
0001
0100
0001
1000
0100
0010
0001
0010
0001
1000
0100
0010
0001
0010
0001
,
1000
0010
0100
0001
1000
0001
1000
0100
1000
0100
0010
0001
1000
0000
0000
0000
,
2000
0000
0000
0000
3200
0000
0000
0000
0310
0000
0001
1000
0010
0000
0100
0000
,
0001
0011
1001
0101
0002
0000
2003
0000
,
3200
0320
0032
2003
,
3020
0230
0302
2003
,
3002
0000
0000
0000
0023
0000
0000
0000
0130
0000
1000
0010
0100
0000
0001
0000
,
0010
0100
1000
0001
0100
0001
0010
0000
0200
0000
0000
0000
2300
0000
0000
0000
,
3020
0230
0302
2003
,
3002
0023
0430
4300
,
3040
0430
0304
4003
,
3040
0430
0304
0043
,
0430
4300
3004
0043
,
0430
0000
0000
0000
4300
0000
0000
0000
3001
0010
0100
0000
1000
0000
0000
0000
,
0000
0000
0000
0000
,
0000
0000
0000
0000
1111
0000
2002
3003
,
0202
0303
0022
0033
2020
3030
0220
0330
,
0202
0303
0022
0033
0220
0330
2200
3300
,
2002
3003
0202
0303
2002
3003
2200
3300
,
0220
0330
0022
0033
0200
0000
0301
0000
,
0001
0100
0001
1000
,
0100
1000
0001
0010
,
0001
1000
0010
1000
,
0001
0000
0000
0000
0100
0000
0000
0000
0010
1000
0100
0010
0001
0000
1000
0010
,
0100
0001
0010
0000
0100
0000
1000
0000
0010
0100
0001
0010
0100
0000
1000
0010
,
0100
0001
1000
0000
0001
0000
0100
0000
0010
1000
0100
0010
0001
0000
1000
0010
,
0100
0001
0010
0000
0100
0000
1000
0000
0010
0100
0001
0010
0100
0000
1000
0001
,
0010
0100
1000
0000
0001
0000
1000
0000
0010
0100
0001
0010
0100
0000
1000
0010
,
0100
0001
0010
0000
0100
0000
1000
0000
0001
0010
0100
1000
0001
0000
1000
0100
,
0010
0001
1000
0000
0010
0000
0100
0000
0001
0010
0100
1000
0010
0000
0100
0001
,
1000
0100
1000
0000
0001
0000
1000
0000
0010
0100
0001
0010
0100
0000
1000
0001
,
1000
0010
0100
0000
0001
0000
0010
0000
1100
0000
1000
0000
0010
0000
0100
0000
,
0001
0010
0100
1000
0020
0000
0000
0130
,
0002
0000
0000
0000
0000
0000
1003
0010
,
0100
0001
0010
0100
2000
0000
3020
0000
,
0230
0000
0000
0000
0000
0000
0000
0301
,
1000
0010
0100
0001
2000
0000
0000
3100
,
0020
0000
0000
0000
0000
0000
0031
1000
,
0010
0100
0001
1000
0200
0000
0320
0000
,
0032
0000
0003
1010
0110
0000
0101
0000
,
0011
0000
1100
0000
1001
0000
0011
0010
,
0110
0000
0000
0000
1100
0000
0000
0000
1000
0010
0100
0000
0101
0000
0000
0000
,
0011
0000
0000
0000
1100
0000
0000
0000
1001
0000
0000
0000
0101
0000
0001
0010
,
0100
0000
0000
0000
1000
0010
0100
0001
0010
0000
0100
0000
0100
0000
0100
0000
,
1000
1010
0010
0110
0100
0101
0001
0011
,
0010
0000
0110
0000
0100
0000
1100
0000
1000
0010
0100
0001
1000
0100
1000
0001
,
0010
0001
1000
0010
0100
0001
0020
0000
0000
0000
0000
0000
0000
0000
0000
0000
,
0000
0000
0000
0030
0200
0300
0000
0000
1000
0000
0010
0000
0100
0000
0001
0000
,
1000
0100
1000
0001
0010
0100
1000
0010
,
0100
0000
0001
0000
1000
0000
0100
0000
0010
0001
1000
0010
0100
0001
0010
0100
,
1000
0001
0100
0001
1000
0100
0010
0001
,
1000
0010
0200
0302
0023
0130
1000
0001
,
0100
0001
1000
0100
0010
0001
1000
0010
,
0100
0000
0001
0000
1000
0000
0100
0000
0010
0001
1000
0010
0100
0001
1000
0100
,
0010
0000
0001
0000
1000
0000
0010
0000
0100
0000
0001
0000
1000
0000
0010
0100
,
0001
0000
0010
0100
1000
0000
0010
0100
0001
0000
0010
0000
0100
0000
1000
0000
,
0001
0100
0001
1000
0100
0010
0001
1000
,
0010
0000
0100
0000
0001
0000
1000
0000
0100
0010
0001
1000
0010
1000
0001
0010
,
0200
1300
0001
0010
0001
1000
0100
1000
0001
0010
0001
1000
0010
0100
0001
1000
,
0001
0011
0101
1001
0101
0001
1000
0010
,
0100
0001
1000
0100
0010
0001
1000
0010
,
0100
0000
0001
0000
1000
0000
0100
0000
0010
0001
1000
0010
0100
0001
1000
0100
,
0010
0000
0001
0000
1000
0000
0010
0000
0100
0001
0010
0000
0100
1000
0010
0100
,
0001
1000
0100
0010
0001
1000
0010
0100
0001
0000
0010
0000
0100
0000
1000
0000
,
0001
0100
0001
1000
0100
0010
0001
1000
,
0010
0000
0100
0000
0001
0000
1000
0000
0100
0010
0001
1000
0010
0100
0001
0010
,
0100
1000
0001
0100
0001
1000
0100
0010
,
0001
1000
0020
0230
0302
0013
0100
1000
,
0001
0100
0001
1000
0100
0010
0001
1000
,
0010
0000
0000
0000
0000
0000
0100
0000
0000
0000
0000
0000
0001
0000
0000
0000
0000
0000
0010
0000
0000
0000
0000
0000
0100
0000
1000
0000
0100
0000
1000
0000
0100
0000
1000
0000
0010
0000
0000
0100
0000
0000
0001
0000
0000
0010
0000
0000
,
0100
0000
1000
0000
0001
0000
0010
0000
0001
0000
1000
0000
0100
0000
0010
0001
,
0100
0000
0010
1000
0100
0000
0010
0001
0100
0000
0010
0000
1000
0000
0001
0000
,
0100
0001
1000
0100
0010
0001
1000
0010
,
0100
0000
0001
0000
0010
0000
0100
0000
1000
0010
0100
0001
1000
0100
1000
0001
,
0010
0100
1000
0001
0100
0001
1000
0100
,
0010
0011
0101
0110
1010
1000
0100
0010
,
0001
0100
0001
0010
0100
1000
0010
0100
,
0001
0000
0000
1000
0000
0000
0100
0000
0000
1000
0000
0000
0001
0010
0100
1000
0100
1000
0100
0000
0000
0010
0000
0000
,
0001
0000
1000
0000
0001
0000
0010
0000
0100
0000
0010
0001
1000
0000
0010
0000
,
0100
0001
0010
0100
2000
0000
0000
0000
3001
0000
1000
0000
0010
0000
0100
0000
,
0001
1000
0100
1000
0001
0010
0100
1000
,
0010
0000
0100
0000
0001
0000
1000
0000
0100
0010
0001
1000
0001
0010
0100
1000
,
0001
1000
0100
0010
0001
1000
0010
0100
,
0001
1000
0200
0320
0032
1003
0010
0100
,
0001
1000
0100
1000
0001
0010
0100
1000
,
0010
0000
0100
0000
0001
0000
1000
0000
0001
0010
0100
1000
0001
0100
0001
1000
,
0100
1000
0001
0010
0001
1000
0010
0100
0001
1000
0001
0010
0100
1000
0001
0100
,
0010
0000
1000
0100
0010
0000
0001
0100
0020
0000
0000
0000
0000
0000
0000
0000
,
0000
0000
0000
0000
,
0000
0000
0000
0000
,
0000
0000
0000
0000
0000
0000
0030
0000
2002
3003
2002
3003
2002
3003
0000
0000
,
2002
3003
2002
3003
2002
3003
0000
0000
0011
0000
0001
0000
1000
0000
0010
0000
,
0100
0000
0001
0000
1000
0000
0100
0000
0010
0001
1000
0000
0220
0330
0220
0330
,
0202
0303
0001
0000
1000
0000
0010
0000
0100
0000
0001
0000
1000
0000
0100
0000
,
1000
0000
0001
0000
0010
0000
0100
0000
1000
0010
0100
0000
0022
0033
0022
0033
,
0202
0303
0100
0000
0010
0000
1000
0000
0100
0000
0010
0000
0001
0000
1000
0000
,
0001
0000
0010
0000
0001
0000
1000
0000
0100
0010
0001
0000
2020
3030
2020
3030
,
2002
3003
0001
0000
0100
0000
0010
0000
1000
0000
0100
0000
1000
0000
0001
0000
,
0100
0000
0001
0000
1000
0000
0100
0000
0010
0001
1000
0000
0220
0330
0100
0001
,
0010
0000
0100
1000
0010
0000
0100
0001
0010
0000
0100
0000
1000
0000
0001
0000
,
0100
0000
0001
0000
1000
0000
0010
0000
0100
0001
0010
0000
2200
3300
2200
3300
,
2020
3030
0010
0000
0100
0000
0001
0000
1000
0000
0100
0000
1000
0000
0001
0000
,
0010
0000
0100
0000
1000
0000
0001
0000
0010
0100
1000
0000
2020
3030
0202
0303
,
0202
0303
0002
0000
0203
0000
0320
0000
2030
0000
3100
0000
0010
0000
0001
0000
,
1000
0000
0001
0000
0010
0000
0100
0000
1000
0001
0100
0000
0220
0330
0220
0330
,
2020
3030
1000
0000
0100
0000
0010
0000
0001
0000
1000
0000
0001
0000
0010
0000
,
0001
0000
0100
0000
0010
0000
1000
0000
0100
0010
0001
0000
0202
0303
0202
0303
,
1000
0100
0010
0001
1000
0001
0010
0100
2000
3001
0010
0001
1000
0001
0100
0001
,
1000
0001
1000
0100
1000
0100
0010
0000
0001
0010
0100
0000
2200
3300
2200
3300
,
2002
3003
0001
0000
1000
0000
0010
0000
0100
0000
0001
0000
1000
0000
0001
0000
,
0010
0000
0100
0000
1000
0000
0001
0000
1000
0100
0010
0000
0022
0033
1000
0010
,
0100
0000
0001
0010
0100
0000
1000
0010
0100
0000
0001
0000
0010
0000
0100
0000
,
1000
0000
0001
0000
1000
0000
0100
0000
0010
0001
0100
0000
0220
0330
0220
0330
,
2020
3030
1000
0000
0001
0000
0100
0000
0001
0000
1000
0000
0010
0000
1000
0000
,
0100
0000
1000
0000
0001
0000
0100
0000
0001
0010
0100
0000
2200
3300
2200
3300
,
2020
3030
0020
0000
0230
0000
0302
0000
0013
0000
0100
0000
1000
0000
0001
0000
,
1000
0000
0010
0000
0100
0000
0001
0000
1000
0001
0010
0000
0220
0330
2200
3300
,
2200
3300
0100
0000
0010
0000
0001
0000
1000
0000
0001
0000
0010
0000
0001
0000
,
1000
0000
0010
0000
0100
0000
0001
0000
1000
0001
0100
0000
0220
0330
0220
0330
,
0010
1000
0100
0010
0100
1000
0001
0010
0004
0000
0000
0000
4003
0000
0000
0000
,
3040
0430
0304
4003
,
3400
0000
0000
0000
0340
0000
0000
0000
0031
1000
0100
0000
0010
0000
0001
1000
,
0010
0000
0100
0000
0001
0000
0010
0000
0100
1000
0010
0000
0100
0000
0001
0010
,
0100
0000
1000
0000
0001
0000
0100
0000
0010
1000
0100
0000
0010
0000
0001
1000
,
0010
0000
0100
0000
0001
0000
0010
0000
0100
1000
0010
0000
0100
0000
0001
1000
,
0010
0000
0100
0000
0001
0000
0010
0000
0100
1000
0001
0000
0010
0000
0100
1000
,
0010
0000
0100
0000
0001
0000
0010
0000
0100
1000
0001
0000
0100
0000
0010
1000
,
0100
0000
0010
0000
0001
0000
1000
0000
0020
0130
0001
0000
0010
0000
0100
1000
,
0001
0000
0100
0000
0010
0000
1000
0000
0100
0010
0001
0000
1000
0000
0010
0100
,
0001
0000
0010
0000
0100
0000
1000
0000
0010
0100
0001
0000
0010
0000
0100
1000
,
0010
0000
0100
0000
0001
0000
1000
0000
0010
0100
0001
0000
1000
0000
0100
0010
,
0001
0000
1000
0000
0001
0000
0100
0000
0010
1000
0100
0000
0010
0000
0001
1000
,
0010
0000
0100
0000
0001
0000
0010
0000
0100
1000
0001
0000
0010
0000
0100
1000
,
0001
0000
1000
0000
0010
0000
0100
0000
0001
0010
0100
0000
1000
0000
0001
0100
,
0010
1000
0100
0010
0001
1000
0010
0100
,
0001
0010
0100
1000
1001
0000
0110
0000
,
1100
0000
1000
0100
0020
0000
0032
0000
,
0203
0000
0310
0000
0010
1000
0010
0100
,
0020
0000
0000
0000
0230
0000
0000
0000
0302
0000
0000
0000
0013
0000
0100
1000
,
0001
0000
0100
0000
0010
1000
0100
0010
0001
0000
1000
0000
0010
0000
1000
0000
,
0010
0100
0001
0100
0001
0010
0001
0010
,
0100
0000
1000
0000
0100
0000
1000
0000
0020
0030
0000
0000
0000
0000
0000
0000
,
0000
0000
0000
0000
,
0000
0000
0000
0000
0000
0000
0000
0000
0100
0001
0010
0100
1000
0010
0100
0001
,
1000
0100
1000
0010
0100
0010
0100
0001
0010
0100
1000
0001
0100
0001
1000
0100
,
0010
0100
1000
0010
0100
0001
0100
0001
0010
0100
1000
0001
1000
0010
0100
0001
,
0010
0100
1000
0010
1000
0010
0100
0001
1000
0100
0010
0001
1000
0001
0010
0100
,
1000
0100
1000
0010
0100
0001
0010
0100
1000
0001
0100
0001
1000
0001
1000
0010
,
0100
0001
1000
0100
1000
0001
0010
0100
1000
0100
1000
0010
0100
0001
1000
0001
,
0010
0100
1000
0010
0100
0001
0010
0001
1000
0100
0010
0001
1000
0010
1000
0010
,
0100
0001
1000
0001
0010
0100
1000
0001
0100
0001
1000
0010
0100
0000
0001
0010
,
0100
0000
1000
0010
0100
0000
0001
0010
0100
1000
0100
1000
0001
0100
0001
0010
,
0100
1000
0001
1000
0001
0010
0100
1000
0010
0100
0001
0010
0100
0010
0100
1000
,
0001
0100
0001
0010
0100
0010
0100
1000
0010
0100
0001
1000
0001
0010
0001
1000
,
0010
0100
0001
0100
0001
0010
0100
1000
0100
1000
0001
0010
0100
1000
0010
1000
,
0100
0010
0001
0100
0001
1000
0010
1000
0010
0100
0001
0000
0010
0000
0100
0000
,
1000
0100
1000
0001
0100
0001
1000
0010
,
1000
0001
0010
0001
1000
0100
1000
0001
,
0100
0000
0001
0000
1000
0000
0100
0000
2222
3333
0000
0000
0000
0000
0000
0000
,
2222
3333
0000
0000
0000
0000
0000
0000
2222
3333
0010
0000
0100
0000
1000
0000
,
0001
0100
0001
1000
0100
0010
0001
1000
,
0010
0100
0001
0010
0001
1000
0001
0100
,
0001
1000
0010
0100
0001
0010
0100
1000
,
0100
0010
0001
1000
0001
0010
0100
1000
,
0001
0100
0001
1000
0010
0100
0001
1000
,
0100
1000
0001
0010
0100
1000
0010
0100
,
0001
0000
1000
0000
0001
0000
0010
0000
0100
0000
1000
0000
0001
0000
0100
0010
,
1000
0000
0100
0010
0001
0000
0100
0010
1000
0000
0001
0000
0100
0000
0001
0000
,
1000
0010
0100
0001
0010
0001
1000
0100
,
0010
0001
1000
0001
0010
0100
1000
0001
,
0100
0001
1000
0010
0100
0001
0010
0001
,
1001
0101
0011
1001
0101
0001
1000
0001
,
0100
0010
1000
0100
0010
0001
1000
0001
,
0010
0000
0100
0000
1000
0000
0001
0000
0200
0000
0000
0300
0200
0000
0000
0300
,
0200
0000
0000
0300
0200
0000
0300
0000
0200
0000
0300
0000
0200
0300
0000
0000
,
0200
0300
0000
0000
MMMM
0000
0000
0000
0010
0000
0000
0000
1000
0000
0000
0000
,
0100
0010
0001
0000
1000
0000
0010
0100
,
0001
0010
0100
1000
,
0010
0000
0100
0000
0001
0010
0100
0000
,
1000
0001
0110
0110
,
1010
1010
1100
1100
,
0110
0110
0000
0000
,
0000
0000
0000
0000
,
0000
0000
0000
0000
0000
0000
0000
0000
1000
0100
0010
0001
1000
0100
1000
0100
,
1000
0100
0010
0001
1000
0100
1000
0100
1000
0100
0010
0001
1000
0100
1000
0100
,
1000
0100
0010
0001
1000
0100
1000
0100
1000
0001
0100
0010
1000
0010
1000
0010
,
1000
0001
0100
0010
1000
0010
1000
0010
1000
0001
0100
0010
1000
0010
1000
0010
,
1000
0001
0100
0010
1000
0010
1000
0010
1000
0001
0010
0100
1000
0001
1000
0001
,
1000
0001
0010
0100
1000
0001
1000
0001
1000
0001
0010
0100
1000
0001
1000
0001
,
1000
0001
0010
0100
1000
0001
1000
0001
1000
0100
0010
0100
1000
0001
1000
0001
,
1000
0100
0010
0100
1000
0001
1000
0001
1000
0100
0010
0100
1000
0001
0100
0010
,
1000
0000
0100
0010
0001
0000
0100
0010
2000
0000
3001
0000
0100
0000
0001
0000
,
0010
0100
1000
0001
0100
0001
1000
0010
,
0100
0001
0010
0100
1000
0001
1000
0010
,
0100
0001
1000
0100
1000
0001
0010
0100
,
2000
3000
2000
3000
2000
3000
2000
3000
2000
3000
0010
0000
0100
0000
0001
0000
,
1000
0100
1000
0001
0010
0100
1000
0010
,
0100
0001
1000
0100
1000
0001
0010
0100
,
1000
0001
0100
0001
2000
3010
0100
0001
,
0020
0000
0130
0000
1000
0000
0001
0000
2000
3001
0100
0001
0010
0001
1000
0001
,
0100
0001
1000
0001
1000
0100
0010
0001
0010
0001
1000
0010
0100
0001
1000
0001
,
1000
0100
1000
0100
0010
0001
1000
0010
0100
0001
1000
0100
1000
0001
0100
0001
,
0100
0010
1000
0100
0010
0001
1000
0001
0010
0100
1000
0001
0100
0001
0100
0001
,
0010
0100
1000
0100
1000
0001
1000
0001
0010
0001
1000
0010
0100
0001
0100
0001
,
1000
0100
0010
0001
1000
0001
0010
0100
1000
0100
1000
0010
0100
0001
0010
0001
,
1000
0010
0100
0001
1000
0001
1000
0100
0010
0001
0010
0001
1000
0010
0100
0001
,
0010
0001
0010
0100
1000
0100
1000
0001
0100
0001
1000
0010
1000
0000
0010
0100
,
0001
0000
0010
0100
1000
0000
0010
0100
0002
0000
0000
0000
0000
0000
0000
0000
,
0000
0000
0023
0000
,
0230
0000
2300
0000
,
0000
0000
3020
0000
,
0130
0100
0100
0100
0002
0000
0000
0000
,
0000
0000
0023
0000
,
0230
0000
2300
0000
,
0000
0000
0000
0000
0000
0000
0000
0000
3001
0000
0010
0100
1000
0000
0001
0000
,
0100
0001
0010
0100
1000
0001
1000
0010
0200
0300
0000
0000
0000
0000
0000
0000
,
0000
0M00
0000
000M
0000
0000
0000
0000
;

//---------------dance-single - ----------------
#NOTES:
     dance-single:
     :
     Medium:
     16:
     1.000,1.000,0.452,0.923,1.000,2145.000,117.000,239.000,6.000,4.000:
0000
0000
0000
0000
,
2000
3002
1003
0110
,
0100
0000
0000
0001
0000
0000
1000
0000
0000
0010
0000
0000
0100
0000
0000
0001
,
0010
0200
0000
0000
0000
2300
0000
0000
0000
3002
0000
0000
0000
2003
0000
0000
,
0000
3200
0000
0000
0310
0000
0000
0001
0000
0000
1000
0000
0000
0010
0000
0000
,
0100
0001
2000
0000
3000
0000
2000
0000
0000
0000
3200
0000
0000
0000
0320
0000
,
0000
0000
0032
0000
0000
1003
0000
0000
0010
0000
0000
0100
0000
0000
0001
0000
,
0000
0010
0100
1000
0000
0000
0000
0110
0000
0000
0000
0101
0000
0000
0000
0002
,
0000
0000
0000
0023
0000
0000
0000
0230
0000
0000
1300
0000
0010
0000
0100
0000
,
0001
0010
1100
0000
2000
0000
3020
0000
,
0230
0000
0000
0000
0302
0000
0000
0013
0000
0000
0100
0000
0000
1000
0000
0000
,
0001
0000
0000
1000
0010
0200
0000
0000
0000
0302
0000
0000
0000
0023
0000
0000
,
0000
0230
0000
0000
0000
2300
0000
0000
3010
0000
0000
0100
0000
0000
0001
0000
,
0000
0010
0000
0000
0100
1000
0020
0000
0000
0000
0230
0000
0000
0000
0302
0000
,
0000
0000
0023
0000
0000
0000
0230
0000
0000
1300
0000
0000
0001
0000
0000
0010
,
0000
0000
0100
0000
0000
1000
0010
0200
0000
0000
0000
0000
0000
0000
0000
0000
,
0000
0000
0000
0000
,
0000
0000
0000
0000
0000
0000
0000
0000
0301
0010
0100
1000
0001
0100
0010
1000
,
0100
1000
0001
0010
0100
0010
0001
1000
0010
0100
0001
1000
0100
1000
0010
0100
,
0001
0010
0100
1000
0100
0010
0001
1000
0001
0010
0100
1000
0010
0100
0001
1000
,
0100
1000
0010
0100
0001
0010
0100
1000
0100
0010
0001
1000
0001
0010
0100
1000
,
0010
0100
0001
1000
2001
0000
3020
0000
0130
0001
0010
0100
1000
0001
1000
0100
,
1000
0010
0100
0001
0010
0100
1000
0001
0100
0001
1000
0100
0010
0001
0010
0100
,
1000
0001
1000
0010
0100
0001
0010
0100
1000
0100
0010
0001
1000
0010
0100
0001
,
1000
0100
1000
0001
0010
0100
0010
0001
1000
0100
1000
0010
0100
0000
0001
0010
,
0100
0000
1000
0010
0100
0000
0001
0010
0100
1000
0001
0100
0001
0010
0100
1000
,
0001
1000
0010
0100
0001
1000
0100
1000
0001
0010
0100
1000
0010
0100
0001
1000
,
0001
0010
0100
1000
0100
0010
0001
1000
0010
0100
0001
1000
0010
0000
0000
0000
,
2000
0000
0000
0000
3200
0000
0000
0000
0310
0000
0001
1000
0010
0000
0100
0000
,
0001
0011
1001
0101
0002
0000
2003
0000
,
3200
0320
0032
2003
,
3020
0230
0302
2003
,
3002
0000
0000
0000
0023
0000
0000
0000
0130
0000
1000
0010
0100
0000
0001
0000
,
0010
0100
1000
0001
0100
0001
0010
0000
0200
0000
0000
0000
2300
0000
0000
0000
,
3020
0230
0302
2003
,
3002
0023
0430
4300
,
3040
0430
0304
4003
,
3040
0430
0304
0043
,
0430
4300
3004
0043
,
0430
0000
0000
0000
4300
0000
0000
0000
3001
0010
0100
0000
1000
0000
0000
0000
,
0000
0000
0000
0000
,
0000
0000
0000
0000
1111
0000
2002
3003
,
0202
0303
0022
0033
2020
3030
0220
0330
,
0202
0303
0022
0033
0220
0330
2200
3300
,
2002
3003
0202
0303
2002
3003
2200
3300
,
0220
0330
0022
0033
0200
0000
0301
0000
,
0001
0100
0001
1000
,
0100
1000
0001
0010
,
0001
1000
0010
1000
,
0001
0000
0000
0000
0100
0000
0000
0000
0010
1000
0100
0010
0001
0000
1000
0010
,
0100
0001
0010
0000
0100
0000
1000
0000
0010
0100
0001
0010
0100
0000
1000
0010
,
0100
0001
1000
0000
0001
0000
0100
0000
0010
1000
0100
0010
0001
0000
1000
0010
,
0100
0001
0010
0000
0100
0000
1000
0000
0010
0100
0001
0010
0100
0000
1000
0001
,
0010
0100
1000
0000
0001
0000
1000
0000
0010
0100
0001
0010
0100
0000
1000
0010
,
0100
0001
0010
0000
0100
0000
1000
0000
0001
0010
0100
1000
0001
0000
1000
0100
,
0010
0001
1000
0000
0010
0000
0100
0000
0001
0010
0100
1000
0010
0000
0100
0001
,
1000
0100
1000
0000
0001
0000
1000
0000
0010
0100
0001
0010
0100
0000
1000
0001
,
1000
0010
0100
0000
0001
0000
0010
0000
1100
0000
1000
0000
0010
0000
0100
0000
,
0001
0010
0100
1000
0020
0000
0000
0130
,
0002
0000
0000
0000
0000
0000
1003
0010
,
0100
0001
0010
0100
2000
0000
3020
0000
,
0230
0000
0000
0000
0000
0000
0000
0301
,
1000
0010
0100
0001
2000
0000
0000
3100
,
0020
0000
0000
0000
0000
0000
0031
1000
,
0010
0100
0001
1000
0200
0000
0320
0000
,
0032
0000
0003
1010
0110
0000
0101
0000
,
0011
0000
1100
0000
1001
0000
0011
0010
,
0110
0000
0000
0000
1100
0000
0000
0000
1000
0010
0100
0000
0101
0000
0000
0000
,
0011
0000
0000
0000
1100
0000
0000
0000
1001
0000
0000
0000
0101
0000
0001
0010
,
0100
0000
0000
0000
1000
0010
0100
0001
0010
0000
0100
0000
0100
0000
0100
0000
,
1000
1010
0010
0110
0100
0101
0001
0011
,
0010
0000
0110
0000
0100
0000
1100
0000
1000
0010
0100
0001
1000
0100
1000
0001
,
0010
0001
1000
0010
0100
0001
0020
0000
0000
0000
0000
0000
0000
0000
0000
0000
,
0000
0000
0000
0030
0200
0300
0000
0000
1000
0000
0010
0000
0100
0000
0001
0000
,
1000
0100
1000
0001
0010
0100
1000
0010
,
0100
0000
0001
0000
1000
0000
0100
0000
0010
0001
1000
0010
0100
0001
0010
0100
,
1000
0001
0100
0001
1000
0100
0010
0001
,
1000
0010
0200
0302
0023
0130
1000
0001
,
0100
0001
1000
0100
0010
0001
1000
0010
,
0100
0000
0001
0000
1000
0000
0100
0000
0010
0001
1000
0010
0100
0001
1000
0100
,
0010
0000
0001
0000
1000
0000
0010
0000
0100
0000
0001
0000
1000
0000
0010
0100
,
0001
0000
0010
0100
1000
0000
0010
0100
0001
0000
0010
0000
0100
0000
1000
0000
,
0001
0100
0001
1000
0100
0010
0001
1000
,
0010
0000
0100
0000
0001
0000
1000
0000
0100
0010
0001
1000
0010
1000
0001
0010
,
0200
1300
0001
0010
0001
1000
0100
1000
0001
0010
0001
1000
0010
0100
0001
1000
,
0001
0011
0101
1001
0101
0001
1000
0010
,
0100
0001
1000
0100
0010
0001
1000
0010
,
0100
0000
0001
0000
1000
0000
0100
0000
0010
0001
1000
0010
0100
0001
1000
0100
,
0010
0000
0001
0000
1000
0000
0010
0000
0100
0001
0010
0000
0100
1000
0010
0100
,
0001
1000
0100
0010
0001
1000
0010
0100
0001
0000
0010
0000
0100
0000
1000
0000
,
0001
0100
0001
1000
0100
0010
0001
1000
,
0010
0000
0100
0000
0001
0000
1000
0000
0100
0010
0001
1000
0010
0100
0001
0010
,
0100
1000
0001
0100
0001
1000
0100
0010
,
0001
1000
0020
0230
0302
0013
0100
1000
,
0001
0100
0001
1000
0100
0010
0001
1000
,
0010
0000
0000
0000
0000
0000
0100
0000
0000
0000
0000
0000
0001
0000
0000
0000
0000
0000
0010
0000
0000
0000
0000
0000
0100
0000
1000
0000
0100
0000
1000
0000
0100
0000
1000
0000
0010
0000
0000
0100
0000
0000
0001
0000
0000
0010
0000
0000
,
0100
0000
1000
0000
0001
0000
0010
0000
0001
0000
1000
0000
0100
0000
0010
0001
,
0100
0000
0010
1000
0100
0000
0010
0001
0100
0000
0010
0000
1000
0000
0001
0000
,
0100
0001
1000
0100
0010
0001
1000
0010
,
0100
0000
0001
0000
0010
0000
0100
0000
1000
0010
0100
0001
1000
0100
1000
0001
,
0010
0100
1000
0001
0100
0001
1000
0100
,
0010
0011
0101
0110
1010
1000
0100
0010
,
0001
0100
0001
0010
0100
1000
0010
0100
,
0001
0000
0000
1000
0000
0000
0100
0000
0000
1000
0000
0000
0001
0010
0100
1000
0100
1000
0100
0000
0000
0010
0000
0000
,
0001
0000
1000
0000
0001
0000
0010
0000
0100
0000
0010
0001
1000
0000
0010
0000
,
0100
0001
0010
0100
2000
0000
0000
0000
3001
0000
1000
0000
0010
0000
0100
0000
,
0001
1000
0100
1000
0001
0010
0100
1000
,
0010
0000
0100
0000
0001
0000
1000
0000
0100
0010
0001
1000
0001
0010
0100
1000
,
0001
1000
0100
0010
0001
1000
0010
0100
,
0001
1000
0200
0320
0032
1003
0010
0100
,
0001
1000
0100
1000
0001
0010
0100
1000
,
0010
0000
0100
0000
0001
0000
1000
0000
0001
0010
0100
1000
0001
0100
0001
1000
,
0100
1000
0001
0010
0001
1000
0010
0100
0001
1000
0001
0010
0100
1000
0001
0100
,
0010
0000
1000
0100
0010
0000
0001
0100
0020
0000
0000
0000
0000
0000
0000
0000
,
0000
0000
0000
0000
,
0000
0000
0000
0000
,
0000
0000
0000
0000
0000
0000
0030
0000
2002
3003
2002
3003
2002
3003
0000
0000
,
2002
3003
2002
3003
2002
3003
0000
0000
0011
0000
0001
0000
1000
0000
0010
0000
,
0100
0000
0001
0000
1000
0000
0100
0000
0010
0001
1000
0000
0220
0330
0220
0330
,
0202
0303
0001
0000
1000
0000
0010
0000
0100
0000
0001
0000
1000
0000
0100
0000
,
1000
0000
0001
0000
0010
0000
0100
0000
1000
0010
0100
0000
0022
0033
0022
0033
,
0202
0303
0100
0000
0010
0000
1000
0000
0100
0000
0010
0000
0001
0000
1000
0000
,
0001
0000
0010
0000
0001
0000
1000
0000
0100
0010
0001
0000
2020
3030
2020
3030
,
2002
3003
0001
0000
0100
0000
0010
0000
1000
0000
0100
0000
1000
0000
0001
0000
,
0100
0000
0001
0000
1000
0000
0100
0000
0010
0001
1000
0000
0220
0330
0100
0001
,
0010
0000
0100
1000
0010
0000
0100
0001
0010
0000
0100
0000
1000
0000
0001
0000
,
0100
0000
0001
0000
1000
0000
0010
0000
0100
0001
0010
0000
2200
3300
2200
3300
,
2020
3030
0010
0000
0100
0000
0001
0000
1000
0000
0100
0000
1000
0000
0001
0000
,
0010
0000
0100
0000
1000
0000
0001
0000
0010
0100
1000
0000
2020
3030
0202
0303
,
0202
0303
0002
0000
0203
0000
0320
0000
2030
0000
3100
0000
0010
0000
0001
0000
,
1000
0000
0001
0000
0010
0000
0100
0000
1000
0001
0100
0000
0220
0330
0220
0330
,
2020
3030
1000
0000
0100
0000
0010
0000
0001
0000
1000
0000
0001
0000
0010
0000
,
0001
0000
0100
0000
0010
0000
1000
0000
0100
0010
0001
0000
0202
0303
0202
0303
,
1000
0100
0010
0001
1000
0001
0010
0100
2000
3001
0010
0001
1000
0001
0100
0001
,
0010
0100
1000
0001
1000
0100
0010
0000
0001
0010
0100
0000
2200
3300
2200
3300
,
2002
3003
0001
0000
1000
0000
0010
0000
0100
0000
0001
0000
1000
0000
0001
0000
,
0010
0000
0100
0000
1000
0000
0001
0000
1000
0100
0010
0000
0022
0033
1000
0010
,
0100
0000
0001
0010
0100
0000
1000
0010
0100
0000
0001
0000
0010
0000
0100
0000
,
1000
0000
0001
0000
1000
0000
0100
0000
0010
0001
0100
0000
0220
0330
0220
0330
,
2020
3030
1000
0000
0001
0000
0100
0000
0001
0000
1000
0000
0010
0000
1000
0000
,
0100
0000
1000
0000
0001
0000
0100
0000
0001
0010
0100
0000
2200
3300
2200
3300
,
2020
3030
0020
0000
0230
0000
0302
0000
0013
0000
0100
0000
1000
0000
0001
0000
,
1000
0000
0010
0000
0100
0000
0001
0000
1000
0001
0010
0000
0220
0330
2200
3300
,
2200
3300
0100
0000
0010
0000
0001
0000
1000
0000
0001
0000
0010
0000
0001
0000
,
1000
0000
0010
0000
0100
0000
0001
0000
1000
0001
0100
0000
0220
0330
0220
0330
,
0010
1000
0100
0010
0100
1000
0001
0010
0004
0000
0000
0000
4003
0000
0000
0000
,
3040
0430
0304
4003
,
3400
0000
0000
0000
0340
0000
0000
0000
0031
1000
0100
0010
0001
0000
1000
0010
,
0100
0001
0010
0000
0100
0000
1000
0000
0001
1000
0010
0100
0001
0000
0010
0100
,
1000
0001
1000
0000
0100
0000
0010
0000
0001
1000
0010
0100
0001
0000
0010
0100
,
1000
0100
0010
0000
0001
0000
1000
0000
0010
0100
0001
1000
0100
0000
0010
0001
,
1000
0001
0010
0000
0100
0000
1000
0000
0001
0100
0001
0010
0100
0000
1000
0010
,
0100
0001
0100
0000
0010
0000
1000
0000
0100
0010
0001
1000
0001
0000
0010
0100
,
1000
0001
0100
0000
0001
0000
0010
0000
0200
1300
0001
0100
0001
0000
0010
0100
,
1000
0100
0010
0000
0001
0000
0100
0000
0010
1000
0100
0010
0001
0000
1000
0010
,
0100
0001
0010
0000
0100
0000
1000
0000
0001
0100
0001
1000
0001
0000
1000
0010
,
0100
0001
0010
0000
0100
0000
1000
0000
0001
0100
0001
0010
0100
0000
1000
0010
,
0100
0001
1000
0000
0100
0000
0010
0000
0001
1000
0001
0010
0100
0000
1000
0001
,
0100
0001
0010
0000
0100
0000
1000
0000
0010
0100
0001
0010
0100
0000
1000
0100
,
0010
0001
1000
0000
0010
0000
0100
0000
0001
0010
0100
1000
0001
0000
1000
0010
,
0100
0001
1000
0000
0100
0000
0010
0000
0001
0000
1000
0000
0010
0000
0100
0000
,
0001
0010
0100
1000
1001
0000
0110
0000
,
1100
0000
1000
0100
0020
0000
0032
0000
,
0203
0000
0310
0000
0010
1000
0010
0100
,
0020
0000
0000
0000
0230
0000
0000
0000
0302
0000
0000
0000
0013
0000
0100
1000
,
0001
0000
0100
0000
0010
1000
0100
0010
0001
0000
1000
0000
0010
0000
1000
0000
,
0010
0100
0001
0100
0001
0010
0001
0010
,
0100
0000
1000
0000
0100
0000
1000
0000
0020
0030
0000
0000
0000
0000
0000
0000
,
0000
0000
0000
0000
,
0000
0000
0000
0000
0000
0000
0000
0000
0100
0010
1000
0100
0010
0001
1000
0100
,
1000
0001
0100
0010
1000
0100
0010
0001
1000
0100
1000
0001
0100
0010
1000
0100
,
0010
0001
1000
0001
0100
0001
1000
0010
1000
0001
0010
0100
1000
0001
0100
0001
,
1000
0100
0010
0001
0100
0010
1000
0001
0010
0001
1000
0100
1000
0001
0100
0010
,
1000
0100
0010
0001
1000
0001
0010
0100
1000
0010
1000
0100
0010
0001
0100
0010
,
1000
0001
0010
0001
1000
0100
0010
0100
1000
0001
0100
0010
1000
0100
0010
0001
,
0010
0100
1000
0001
0100
0010
1000
0100
0010
0001
0100
0001
1000
0100
0010
0001
,
1000
0001
0010
0100
1000
0001
0100
0010
1000
0100
0010
0001
1000
0000
0001
0010
,
0100
0000
1000
0010
0100
0000
0001
0010
0100
1000
0001
0100
0001
0010
0100
1000
,
0010
0100
0001
0010
0100
0010
0001
1000
0100
0010
0001
0010
0100
1000
0001
0100
,
0001
1000
0100
0010
0100
1000
0010
0100
0001
0010
0100
1000
0001
0100
0001
1000
,
0100
0010
0001
1000
0010
0100
0001
1000
0010
0100
0001
0010
0100
1000
0001
0010
,
0100
1000
0010
0100
0001
0010
0100
1000
0001
1000
0100
0000
0010
0000
0100
0000
,
1000
0100
1000
0001
0100
0001
1000
0010
,
1000
0001
0010
0001
1000
0100
1000
0001
,
0100
0000
0001
0000
1000
0000
0100
0000
2222
3333
0000
0000
0000
0000
0000
0000
,
2222
3333
0000
0000
0000
0000
0000
0000
2222
3333
0010
0000
0100
0000
1000
0000
,
0001
0100
0001
1000
0100
0010
0001
1000
,
0010
0100
0001
0010
0001
1000
0001
0100
,
0001
1000
0010
0100
0001
0010
0100
1000
,
0100
0010
0001
1000
0001
0010
0100
1000
,
0001
0100
0001
1000
0010
0100
0001
1000
,
0100
1000
0001
0010
0100
1000
0010
0100
,
0001
0000
1000
0000
0001
0000
0010
0000
0100
0000
1000
0000
0001
0000
0100
0010
,
1000
0000
0100
0010
0001
0000
0100
0010
1000
0000
0001
0000
0100
0000
0001
0000
,
1000
0010
0100
0001
0010
0001
1000
0100
,
0010
0001
1000
0001
0010
0100
1000
0001
,
0100
0001
1000
0010
0100
0001
0010
0001
,
1001
0101
0011
1001
0101
0001
1000
0001
,
0100
0010
1000
0100
0010
0001
1000
0001
,
0010
0000
0100
0000
1000
0000
0001
0000
0200
0000
0000
0300
0200
0000
0000
0300
,
0200
0000
0000
0300
0200
0000
0300
0000
0200
0000
0300
0000
0200
0300
0000
0000
,
0200
0300
0000
0000
MMMM
0000
0000
0000
0010
0000
0000
0000
1000
0000
0000
0000
,
0100
0010
0001
0000
1000
0000
0010
0100
,
0001
0010
0100
1000
,
0010
0000
0100
0000
0001
0010
0100
0000
,
1000
0001
0110
0110
,
1010
1010
1100
1100
,
0110
0110
0000
0000
,
0000
0000
0000
0000
,
0000
0000
0000
0000
0000
0000
0000
0000
1000
0100
0010
0001
1000
0100
1000
0100
,
1000
0100
0010
0001
1000
0100
1000
0100
1000
0100
0010
0001
1000
0100
1000
0100
,
1000
0100
0010
0001
1000
0100
1000
0100
1000
0001
0100
0010
1000
0010
1000
0010
,
1000
0001
0100
0010
1000
0010
1000
0010
1000
0001
0100
0010
1000
0010
1000
0010
,
1000
0001
0100
0010
1000
0010
1000
0010
1000
0001
0010
0100
1000
0001
1000
0001
,
1000
0001
0010
0100
1000
0001
1000
0001
1000
0001
0010
0100
1000
0001
1000
0001
,
1000
0001
0010
0100
1000
0001
1000
0001
1000
0100
0010
0100
1000
0001
1000
0001
,
1000
0100
0010
0100
1000
0001
1000
0001
1000
0100
0010
0100
1000
0001
0100
0010
,
1000
0000
0100
0010
0001
0000
0100
0010
1000
0100
1000
0100
0010
0001
1000
0100
,
1000
0100
0010
0001
1000
0010
1000
0010
0100
0001
1000
0010
1000
0010
0100
0001
,
1000
0010
0100
0001
0010
0100
1000
0100
1000
0001
0100
0001
0100
0010
1000
0100
,
0010
0001
0010
0001
1000
0100
0010
0001
0100
0001
0010
0001
1000
0100
0010
0001
,
0010
0001
1000
0010
0100
0001
0100
0001
0010
0001
0100
0001
0010
0001
0100
0010
,
1000
0100
0010
0001
0010
0001
1000
0100
0010
0001
0010
0001
1000
0100
0010
0100
,
1000
0001
0100
0001
0010
0100
1000
0010
0100
0001
1000
0100
1000
0001
1000
0100
,
1000
0010
0100
0001
0010
0100
1000
0100
1000
0100
0010
0100
1000
0100
0010
0001
,
1000
0100
1000
0100
0010
0001
1000
0001
2000
3001
0100
0001
0010
0001
1000
0001
,
0100
0001
1000
0001
1000
0100
0010
0001
0010
0001
1000
0010
0100
0001
1000
0001
,
1000
0100
1000
0100
0010
0001
1000
0010
0100
0001
1000
0100
1000
0001
0100
0001
,
0100
0010
1000
0100
0010
0001
1000
0001
0010
0100
1000
0001
0100
0001
0100
0001
,
0010
0100
1000
0100
1000
0001
1000
0001
0010
0001
1000
0010
0100
0001
0100
0001
,
1000
0100
0010
0001
1000
0001
0010
0100
1000
0100
1000
0010
0100
0001
0010
0001
,
1000
0010
0100
0001
1000
0001
1000
0100
0010
0001
0010
0001
1000
0010
0100
0001
,
0010
0001
0010
0100
1000
0100
1000
0001
0100
0001
1000
0010
1000
0000
0010
0100
,
0001
0000
0010
0100
1000
0000
0010
0100
0002
0000
0000
0000
0000
0000
0000
0000
,
0000
0000
0023
0000
,
0230
0000
2300
0000
,
0000
0000
3020
0000
,
0130
0100
0100
0100
0002
0000
0000
0000
,
0000
0000
0023
0000
,
0230
0000
2300
0000
,
0000
0000
0000
0000
0000
0000
0000
0000
3001
0000
0010
0100
1000
0000
0001
0000
,
0100
0001
0010
0100
1000
0001
1000
0010
0200
0300
0000
0000
0000
0000
0000
0000
,
0000
0M00
0000
000M
0000
0000
0000
0000
;

//---------------dance-single - ----------------
#NOTES:
     dance-single:
     :
     Hard:
     18:
     1.000,1.000,0.324,0.672,1.000,2537.000,84.000,174.000,6.000,4.000:
0000
0000
0000
0000
,
2000
3002
1003
0110
,
0100
0000
0000
0001
0000
0000
1000
0000
0000
0010
0000
0000
0100
0000
0000
0001
,
0010
0200
0000
0000
0000
2300
0000
0000
0000
3002
0000
0000
0000
2003
0000
0000
,
0000
3200
0000
0000
0310
0000
0000
0001
0000
0000
1000
0000
0000
0010
0000
0000
,
0100
0001
2000
0000
3000
0000
2000
0000
0000
0000
3200
0000
0000
0000
0320
0000
,
0000
0000
0032
0000
0000
1003
0000
0000
0010
0000
0000
0100
0000
0000
0001
0000
,
0000
0010
0100
1000
0000
0000
0000
0110
0000
0000
0000
0101
0000
0000
0000
0002
,
0000
0000
0000
0023
0000
0000
0000
0230
0000
0000
1300
0000
0010
0000
0100
0000
,
0001
0010
1100
0000
2000
0000
3020
0000
,
0230
0000
0000
0000
0302
0000
0000
0013
0000
0000
0100
0000
0000
1000
0000
0000
,
0001
0000
0000
1000
0010
0200
0000
0000
0000
0302
0000
0000
0000
0023
0000
0000
,
0000
0230
0000
0000
0000
2300
0000
0000
3010
0000
0000
0100
0000
0000
0001
0000
,
0000
0010
0000
0000
0100
1000
0020
0000
0000
0000
0230
0000
0000
0000
0302
0000
,
0000
0000
0023
0000
0000
0000
0230
0000
0000
1300
0000
0000
0001
0000
0000
0010
,
0000
0000
0100
0000
0000
1000
0010
0200
0000
0000
0000
0000
0000
0000
0000
0000
,
0000
0000
0000
0000
,
0000
0000
0000
0000
0000
0000
0000
0000
0310
1000
0100
0010
0001
1000
0001
0010
,
0100
1000
0001
0100
0001
0010
0100
1000
0010
0100
0001
1000
0100
1000
0010
0100
,
0001
0010
0100
1000
0001
0100
0001
0010
0100
0010
0001
1000
0100
0010
0001
0010
,
0100
1000
0001
0100
0001
1000
0100
0010
0100
1000
0010
0100
0001
0010
0001
1000
,
0010
0100
0001
0010
0001
1000
0100
0010
0001
1000
0001
0010
0100
1000
0010
0100
,
0001
1000
0100
1000
0001
0010
0100
1000
0010
0100
0001
1000
0100
0010
0100
1000
,
0001
0010
0001
1000
0010
0100
0001
0010
0001
1000
0100
0010
0001
1000
0010
1000
,
0100
0010
0001
0100
0001
0010
0100
1000
0001
0010
0100
1000
0010
0100
0001
1000
,
0100
1000
0010
0100
0001
0010
0001
1000
0100
0010
0001
1000
0010
0100
0001
0010
,
0001
1000
0100
0010
0001
1000
0001
0010
0100
1000
0010
0100
0001
0010
0001
1000
,
0010
0100
0001
1000
0100
1000
0001
0010
0100
1000
0010
0100
0001
0010
0001
1000
,
0010
0100
0001
1000
0100
1000
0001
0010
0100
1000
0010
0100
0001
1000
0100
1000
,
0001
0010
0100
1000
0010
0100
0001
0010
0001
1000
0010
0100
0001
1000
0100
1000
,
0001
0010
0100
1000
0010
0100
0001
0010
0100
1000
0001
0010
0100
1000
0010
0100
,
0001
1000
0100
1000
0001
0010
0100
1000
0010
0100
0001
0010
0001
1000
0010
0100
,
0001
1000
0100
1000
0001
0010
0100
1000
0010
0100
0001
0010
0001
1000
0010
0100
,
0001
1000
0100
1000
0001
0010
0100
1000
0010
0100
0001
0010
0001
1000
0010
0100
,
0001
1000
0100
1000
0001
0010
0100
1000
0001
0100
0001
0010
0100
1000
0010
0100
,
0001
1000
0100
1000
0001
0010
0001
1000
0001
0100
0001
0010
0100
1000
0010
0100
,
0001
1000
0010
0100
0001
0010
0001
1000
0010
0100
0001
1000
0100
0010
0001
1000
,
0040
0430
0304
0043
0430
4300
3040
0430
0304
4003
3400
0340
0430
4300
3040
0430
,
0304
0043
0430
4300
3400
0340
0034
4003
3040
4030
3400
0340
0034
0043
0430
0340
,
0034
4003
3040
4030
3400
0340
0034
4003
3010
0100
0001
0000
0010
0000
0000
0000
,
0000
0000
0000
0000
,
0000
0000
0000
0000
1111
0000
2002
3003
,
0202
0303
0022
0033
2020
3030
0220
0330
,
0202
0303
0022
0033
0220
0330
2200
3300
,
2002
3003
0202
0303
2002
3003
2200
3300
,
0220
0330
0022
0033
1000
0010
0100
0001
,
1000
0100
1000
0001
0010
0100
1000
0010
,
0100
0001
0100
0010
1000
0100
0010
0001
,
1000
0001
0010
0100
1000
0010
0100
0001
,
1000
0000
0100
0000
1000
0000
1000
0000
0010
1000
0100
0010
0001
0000
1000
0010
,
0100
0001
0010
0000
0100
0000
1000
0000
0010
0100
0001
0010
0100
0000
1000
0010
,
0100
0001
1000
0000
0001
0000
0100
0000
0010
1000
0100
0010
0001
0000
1000
0010
,
0100
0001
0010
0000
0100
0000
1000
0000
0010
0100
0001
0010
0100
0000
1000
0001
,
0010
0100
1000
0000
0001
0000
1000
0000
0010
0100
0001
0010
0100
0000
1000
0010
,
0100
0001
0010
0000
0100
0000
1000
0000
0001
0010
0100
1000
0001
0000
1000
0100
,
0010
0001
1000
0000
0010
0000
0100
0000
0001
0010
0100
1000
0010
0000
0100
0001
,
1000
0100
1000
0000
0001
0000
1000
0000
0010
0100
0001
0010
0100
0000
1000
0001
,
1000
0010
0100
0000
0001
0000
0010
0000
1100
0000
1000
0000
0010
0000
0100
0000
,
0001
0010
0100
1000
0020
0000
0000
0130
,
0002
0000
0000
0000
0000
0000
1003
0010
,
0100
0001
0010
0100
2000
0000
3020
0000
,
0230
0000
0000
0000
0000
0000
0000
0301
,
1000
0010
0100
0001
2000
0000
0000
3100
,
0020
0000
0000
0000
0000
0000
0031
1000
,
0010
0100
0001
1000
0200
0000
0320
0000
,
0032
0000
0003
1010
0110
0000
0101
0000
,
0011
0000
1100
0000
1001
0000
0011
0010
,
0110
0000
0000
0000
1100
0000
0000
0000
1000
0010
0100
0000
0101
0000
0000
0000
,
0011
0000
0000
0000
1100
0000
0000
0000
1001
0000
0000
0000
0101
0000
0001
0010
,
0100
0000
0000
0000
1000
0010
0100
0001
0010
0000
0100
0000
0100
0000
0100
0000
,
1000
1010
0010
0110
0100
0101
0001
0011
,
0010
0000
0110
0000
0100
0000
1100
0000
1000
0010
0100
0001
1000
0100
1000
0001
,
0010
0001
1000
0010
0100
0001
0020
0000
0000
0000
0000
0000
0000
0000
0000
0000
,
0000
0000
0000
0030
0200
0300
0000
0000
1000
0010
0100
0001
1000
0100
0010
0001
,
1000
0001
0010
0100
1000
0010
1000
0100
0010
0001
0100
0001
0010
0100
1000
0001
,
0010
0001
1000
0010
0100
0001
1000
0100
1000
0001
0010
0100
1000
0001
1000
0010
,
0100
0001
0010
0001
1000
0100
0010
0001
1000
0001
0010
0001
1000
0010
0100
0001
,
0100
0010
1000
0100
0020
0000
0032
0000
0023
0000
0130
0000
1000
0000
0001
0000
,
0100
0001
1000
0100
0010
0001
1000
0010
,
0100
0000
0001
0000
1000
0000
0100
0000
0010
0001
1000
0010
0100
0001
1000
0100
,
0010
0000
0001
0000
1000
0000
0010
0000
0100
0000
0001
0000
1000
0000
0010
0100
,
0001
0000
0010
0100
1000
0000
0010
0100
0001
1000
0100
1000
0010
0100
0001
0010
,
0001
1000
0010
0100
0001
1000
0100
0010
0001
0010
0100
1000
0010
0100
0001
1000
,
0100
0010
0001
0010
0100
1000
0001
1000
0100
0010
0001
1000
0010
1000
0001
0010
,
0200
1300
0001
0010
0001
1000
0100
1000
0001
0010
0001
1000
0010
0100
0001
1000
,
0001
0011
0101
1001
0101
0001
1000
0010
,
0100
0001
1000
0100
0010
0001
1000
0010
,
0100
0000
0001
0000
1000
0000
0100
0000
0010
0001
1000
0010
0100
0001
1000
0100
,
0010
0000
0001
0000
1000
0000
0010
0000
0100
0001
0010
0000
0100
1000
0010
0100
,
0001
1000
0100
0010
0001
1000
0010
0100
0001
0000
0010
0000
0100
0000
1000
0000
,
0001
0100
0001
1000
0100
0010
0001
1000
,
0010
0000
0100
0000
0001
0000
1000
0000
0100
0010
0001
1000
0010
0100
0001
0010
,
0100
1000
0001
0100
0001
1000
0100
0010
,
0001
1000
0020
0230
0302
0013
0100
1000
,
0001
0100
0001
1000
0100
0010
0001
1000
,
0010
0000
0000
0000
0000
0000
0100
0000
0000
0000
0000
0000
0001
0000
0000
0000
0000
0000
0010
0000
0000
0000
0000
0000
0100
0000
1000
0000
0100
0000
1000
0000
0100
0000
1000
0000
0010
0000
0000
0100
0000
0000
0001
0000
0000
0010
0000
0000
,
0100
0000
1000
0000
0001
0000
0010
0000
0001
0000
1000
0000
0100
0000
0010
0001
,
0100
0000
0010
1000
0100
0000
0010
0001
1000
0010
0100
0001
0010
0001
1000
0010
,
0100
0001
1000
0100
0010
0001
1000
0001
0010
0100
1000
0010
0100
0001
0010
0001
,
1000
0010
0100
0001
1000
0100
1000
0010
0100
0001
0010
0001
1000
0010
0100
0001
,
1000
0100
1000
0001
0010
0100
1000
0010
0100
0001
0010
0001
1000
0010
0100
0001
,
1000
0100
1000
0010
0100
0001
0010
0001
1000
0010
0100
0001
0010
0001
1000
0010
,
0100
0001
1000
0100
1000
0001
0010
0100
1000
0010
0100
0001
0100
0010
1000
0100
,
0010
0001
0010
0100
1000
0001
1000
0010
0100
0001
0010
0001
1000
0010
0100
0001
,
1000
0100
1000
0010
0100
0001
0010
0001
1000
0100
0010
0001
1000
0000
0010
0000
,
0100
0001
0010
0100
2000
0000
0000
0000
3001
0000
1000
0000
0010
0000
0100
0000
,
0001
1000
0100
1000
0001
0010
0100
1000
,
0010
0000
0100
0000
0001
0000
1000
0000
0100
0010
0001
1000
0001
0010
0100
1000
,
0001
1000
0100
0010
0001
1000
0010
0100
,
0001
1000
0200
0320
0032
1003
0010
0100
,
0001
1000
0100
1000
0001
0010
0100
1000
,
0010
0000
0100
0000
0001
0000
1000
0000
0001
0010
0100
1000
0001
0100
0001
1000
,
0100
1000
0001
0010
0001
1000
0010
0100
0001
1000
0001
0010
0100
1000
0001
0100
,
0010
0000
1000
0100
0010
0000
0001
0100
0020
0000
0000
0000
0000
0000
0000
0000
,
0000
0000
0000
0000
,
0000
0000
0000
0000
,
0000
0000
0000
0000
0000
0000
0030
0000
2002
3003
2002
3003
2002
3003
0000
0000
,
2002
3003
2002
3003
2002
3003
0000
0000
1000
0100
0010
0001
1000
0010
0100
0001
,
0010
0100
1000
0001
1000
0100
0010
0001
1000
0010
0100
0001
0010
0001
1000
0100
,
0010
0001
1000
0010
0100
0001
0010
0001
1000
0100
0010
0001
0010
0100
1000
0001
,
0100
0001
1000
0010
0100
0001
0010
0001
1000
0010
0100
0001
1000
0100
0010
0001
,
1000
0010
1000
0100
0010
0001
0100
0001
0010
0100
1000
0001
0010
0100
1000
0010
,
0100
0001
1000
0100
1000
0010
0100
0001
0010
0001
1000
0010
0100
0001
1000
0100
,
0010
0001
1000
0001
0010
0100
1000
0001
0100
0001
1000
0100
0010
0001
1000
0010
,
0100
0001
0010
0001
1000
0010
0100
0001
1000
0100
1000
0001
0010
0100
1000
0010
,
0100
0001
0010
0001
1000
0010
0100
0001
1000
0000
0100
0000
1000
0000
0001
0000
,
0100
0000
0001
0000
1000
0000
0010
0000
0100
0001
0010
0000
2200
3300
2200
3300
,
2020
3030
0010
0000
0100
0000
0001
0000
1000
0000
0100
0000
1000
0000
0001
0000
,
0010
0000
0100
0000
1000
0000
0001
0000
0010
0100
1000
0000
2020
3030
0202
0303
,
0202
0303
0002
0000
0203
0000
0320
0000
1030
0100
0010
0001
1000
0010
0100
0001
,
1000
0001
0100
0001
0010
0100
1000
0010
0100
0001
1000
0100
1000
0001
1000
0010
,
1000
0100
0010
0001
0100
0001
1000
0001
0010
0100
1000
0001
0100
0001
0010
0100
,
1000
0010
0100
0001
1000
0100
0010
0001
1000
0010
0100
0001
0010
0001
1000
0100
,
0010
0001
1000
0010
0100
0001
0010
0001
1000
0100
0010
0001
1000
0010
0100
0001
,
1000
0100
1000
0001
0010
0100
1000
0010
0100
0001
0010
0001
1000
0010
0100
0001
,
1000
0100
1000
0001
0010
0100
1000
0010
0100
0001
1000
0100
0010
0001
1000
0010
,
0100
0001
0010
0001
1000
0100
0010
0001
1000
0010
0100
0001
0010
0100
1000
0010
,
0100
0000
0001
0010
0100
0000
1000
0010
0100
0000
0001
0000
0010
0000
0100
0000
,
1000
0000
0001
0000
1000
0000
0100
0000
0010
0001
0100
0000
0220
0330
0220
0330
,
2020
3030
1000
0000
0001
0000
0100
0000
0001
0000
1000
0000
0010
0000
1000
0000
,
0100
0000
1000
0000
0001
0000
0100
0000
0001
0010
0100
0000
2200
3300
2200
3300
,
2020
3030
0020
0000
0230
0000
0302
0000
0013
0000
0100
0000
1000
0000
0001
0000
,
1000
0000
0010
0000
0100
0000
0001
0000
1000
0001
0010
0000
0220
0330
2200
3300
,
2200
3300
0100
0000
0010
0000
0001
0000
1000
0000
0001
0000
0010
0000
0001
0000
,
1000
0000
0010
0000
0100
0000
0001
0000
1000
0001
0100
0000
0220
0330
0220
0330
,
0010
1000
0100
0010
0100
1000
0001
0010
0004
0000
0000
0000
4003
0000
0000
0000
,
3040
0430
0304
4003
,
3400
0000
0000
0000
0340
0000
0000
0000
0031
1000
0100
0010
0001
0000
1000
0010
,
0100
0001
0010
0000
0100
0000
1000
0000
0001
1000
0010
0100
0001
0000
0010
0100
,
1000
0001
1000
0000
0100
0000
0010
0000
0001
1000
0010
0100
0001
0000
0010
0100
,
1000
0100
0010
0000
0001
0000
1000
0000
0010
0100
0001
1000
0100
0000
0010
0001
,
1000
0001
0010
0000
0100
0000
1000
0000
0001
0100
0001
0010
0100
0000
1000
0010
,
0100
0001
0100
0000
0010
0000
1000
0000
0100
0010
0001
1000
0001
0000
0010
0100
,
1000
0001
0100
0000
0001
0000
0010
0000
0200
1300
0001
0100
0001
0000
0010
0100
,
1000
0100
0010
0000
0001
0000
0100
0000
0010
1000
0100
0010
0001
0000
1000
0010
,
0100
0001
0010
0000
0100
0000
1000
0000
0001
0100
0001
1000
0001
0000
1000
0010
,
0100
0001
0010
0000
0100
0000
1000
0000
0001
0100
0001
0010
0100
0000
1000
0010
,
0100
0001
1000
0000
0100
0000
0010
0000
0001
1000
0001
0010
0100
0000
1000
0001
,
0100
0001
0010
0000
0100
0000
1000
0000
0010
0100
0001
0010
0100
0000
1000
0100
,
0010
0001
1000
0000
0010
0000
0100
0000
0001
0010
0100
1000
0001
0000
1000
0010
,
0100
0001
1000
0000
0100
0000
0010
0000
0001
0000
1000
0000
0010
0000
0100
0000
,
0001
0010
0100
1000
1001
0000
0110
0000
,
1100
0000
1000
0100
0020
0000
0032
0000
,
0203
0000
0310
0000
0010
1000
0010
0100
,
0020
0000
0000
0000
0230
0000
0000
0000
0302
0000
0000
0000
0013
0000
0100
1000
,
0001
0000
0100
0000
0010
1000
0100
0010
0001
0000
1000
0000
0010
0000
1000
0000
,
0010
0100
0001
0100
0001
0010
0001
0010
,
0100
0000
1000
0000
0100
0000
1000
0000
0020
0030
0000
0000
0000
0000
0000
0000
,
0000
0000
0000
0000
,
0000
0000
0000
0000
0000
0000
0000
0000
0100
0010
1000
0100
0010
0001
1000
0100
,
1000
0001
0100
0010
1000
0100
0010
0001
1000
0100
1000
0001
0100
0010
1000
0100
,
0010
0001
1000
0001
0100
0001
1000
0010
1000
0001
0010
0100
1000
0001
0100
0001
,
1000
0100
0010
0001
0100
0010
1000
0001
0010
0001
1000
0100
1000
0001
0100
0010
,
1000
0100
0010
0001
1000
0001
0010
0100
1000
0010
1000
0100
0010
0001
0100
0010
,
1000
0001
0010
0001
1000
0100
0010
0100
1000
0001
0100
0010
1000
0100
0010
0001
,
0010
0100
1000
0001
0100
0010
1000
0100
0010
0001
0100
0001
1000
0100
0010
0001
,
1000
0001
0010
0100
1000
0001
0100
0010
1000
0100
0010
0001
1000
0000
0001
0010
,
0100
0000
1000
0010
0100
0000
0001
0010
0100
1000
0001
0100
0001
0010
0100
1000
,
0010
0100
0001
0010
0100
0010
0001
1000
0100
0010
0001
0010
0100
1000
0001
0100
,
0001
1000
0100
0010
0100
1000
0010
0100
0001
0010
0100
1000
0001
0100
0001
1000
,
0100
0010
0001
1000
0010
0100
0001
1000
0010
0100
0001
0010
0100
1000
0001
0010
,
0100
1000
0010
0100
0001
0010
0100
1000
0001
1000
0100
1000
0010
0100
0001
0010
,
0001
1000
0010
0100
0001
1000
0100
1000
0001
0010
0100
1000
0010
0100
0001
0010
,
0001
1000
0010
0100
0001
1000
0100
1000
0001
0010
0100
1000
0010
0100
0001
0010
,
0001
1000
0100
0010
0001
1000
0001
0000
2222
3333
0000
0000
0000
0000
0000
0000
,
2222
3333
0000
0000
0000
0000
0000
0000
2222
3333
0010
0000
0100
0000
1000
0000
,
0001
0100
0001
1000
0100
0010
0001
1000
,
0010
0100
0001
0010
0001
1000
0001
0100
,
0001
1000
0010
0100
0001
0010
0100
1000
,
0100
0010
0001
1000
0001
0010
0100
1000
,
0001
0100
0001
1000
0010
0100
0001
1000
,
0100
1000
0001
0010
0100
1000
0010
0100
,
0001
0000
1000
0000
0001
0000
0010
0000
0100
0000
1000
0000
0001
0000
0100
0010
,
1000
0000
0100
0010
0001
0000
0100
0010
1000
0100
0010
0001
1000
0001
0010
0100
,
1000
0010
0100
0001
0010
0001
1000
0010
0100
0001
1000
0100
1000
0001
0010
0100
,
1000
0010
0100
0001
0010
0001
1000
0010
0100
0001
1000
0100
1000
0001
0100
0001
,
0010
0100
1000
0010
0100
0001
0010
0001
1000
0100
0010
0001
1000
0001
0010
0100
,
1000
0010
0100
0001
0100
0010
1000
0100
0010
0001
1000
0010
1000
0100
0010
0001
,
0100
0001
0010
0100
1000
0001
0100
0001
1000
0100
1000
0010
0100
0001
0010
0001
,
1000
0010
0100
0001
1000
0100
1000
0001
0200
0000
0000
0300
0200
0000
0000
0300
,
0200
0000
0000
0300
0200
0000
0300
0000
0200
0000
0300
0000
0200
0300
0000
0000
,
0200
0300
0000
0000
MMMM
0000
0000
0000
0010
0000
0000
0000
1000
0000
0000
0000
,
0100
0010
0001
0000
1000
0000
0010
0100
,
0001
0010
0100
1000
,
0010
0000
0100
0000
0001
0010
0100
0000
,
1000
0001
0110
0110
,
1010
1010
1100
1100
,
0110
0110
0000
0000
,
0000
0000
0000
0000
,
0000
0000
0000
0000
0000
0000
0000
0000
1000
0100
0010
0001
0010
0100
1000
0100
,
0010
0001
0010
0100
1000
0100
0010
0001
0010
0100
1000
0100
0010
0001
0010
0100
,
1000
0100
0010
0001
0010
0100
1000
0100
0010
0001
0100
0001
0010
0100
1000
0100
,
0010
0001
0100
0001
0010
0100
1000
0100
0010
0001
0100
0001
0010
0100
1000
0100
,
0010
0001
0100
0001
0010
0100
1000
0100
0010
0001
1000
0100
0010
0100
1000
0001
,
0010
0001
1000
0100
0010
0100
1000
0001
0010
0001
1000
0100
0010
0100
1000
0001
,
0010
0001
1000
0100
0010
0100
1000
0001
0010
0001
1000
0100
0010
0100
1000
0001
,
0010
0001
1000
0100
0010
0100
1000
0001
0010
0001
1000
0100
0010
0100
1000
0001
,
0010
0001
1000
0100
0010
0100
1000
0001
1000
0100
0010
0001
1000
0001
0010
0100
,
1000
0010
0100
0001
1000
0100
1000
0001
0010
0100
1000
0010
0100
0001
0010
0001
,
1000
0010
0100
0001
1000
0100
1000
0001
0010
0100
1000
0010
0100
0001
0010
0001
,
1000
0010
0100
0001
1000
0100
1000
0001
0100
0001
1000
0010
0100
0001
0010
0001
,
1000
0010
0100
0001
1000
0100
1000
0001
0010
0100
1000
0010
0100
0001
1000
0100
,
1000
0001
0010
0100
1000
0010
0100
0001
1000
0100
1000
0001
0010
0100
1000
0010
,
0100
0001
0010
0001
1000
0010
0100
0001
1000
0100
1000
0010
0100
0001
0010
0001
,
1000
0100
0010
0001
1000
0001
0010
0100
1000
0001
0100
0001
1000
0100
0010
0001
,
1000
0001
0010
0100
1000
0010
0100
0001
2000
3010
1000
0100
0010
0001
1000
0001
,
0010
0100
1000
0010
0100
0001
0010
0001
1000
0100
0010
0001
0010
0100
1000
0100
,
0010
0001
0010
0100
1000
0100
0010
0001
1000
0001
0010
0100
1000
0010
0100
0001
,
1000
0100
0010
0001
0010
0100
1000
0010
0100
0001
0010
0001
1000
0100
0010
0001
,
1000
0010
1000
0100
0010
0001
0100
0001
0010
0100
1000
0001
1000
0100
0010
0001
,
1000
0010
1000
0100
0010
0001
0100
0001
0010
0100
1000
0001
0100
0001
1000
0100
,
0010
0001
1000
0010
1000
0100
0010
0001
0100
0001
0010
0100
1000
0001
1000
0100
,
0010
0001
1000
0010
1000
0100
0010
0001
0100
0001
0010
0100
1000
0001
0100
0001
,
1000
0100
0010
0001
1000
0001
0010
0100
2000
0000
0000
0000
0000
0000
0000
0000
,
0000
0000
3020
0000
,
0230
0000
0302
0000
,
0000
0000
0023
0000
,
0130
0100
0100
0100
2000
0000
0000
0000
,
0000
0000
3020
0000
,
0230
0000
0302
0000
,
0000
0000
0000
0000
0000
0000
0000
0000
0013
0000
0100
1000
0010
0000
0001
0000
,
0100
0001
0010
0100
1000
0001
1000
0010
0200
0300
0000
0000
0000
0000
0000
0000
,
0000
0M00
0000
000M
0000
0000
0000
0000
;

//---------------dance-single - ----------------
#NOTES:
     dance-single:
     :
     Challenge:
     21:
     1.000,1.000,0.398,0.653,1.000,2971.000,103.000,169.000,10.000,3.000:

0000
0000
0000
0000
,
2000
3002
1003
0110
,
0100
0000
0000
0001
0000
0000
1000
0000
0000
0010
0000
0000
0100
0000
0000
0001
,
0010
0200
0000
0000
0000
2300
0000
0000
0000
3002
0000
0000
0000
2003
0000
0000
,
0000
3200
0000
0000
0310
0000
0000
0001
0000
0000
1000
0000
0000
0010
0000
0000
,
0100
0001
2000
0000
3000
0000
2000
0000
0000
0000
3200
0000
0000
0000
0320
0000
,
0000
0000
0032
0000
0000
1003
0000
0000
0010
0000
0000
0100
0000
0000
0001
0000
,
0000
0010
0100
1000
0000
0000
0000
0110
0000
0000
0000
0101
0000
0000
0000
0002
,
0000
0000
0000
0023
0000
0000
0000
0230
0000
0000
1300
0000
0010
0000
0100
0000
,
0001
0010
1100
0000
2000
0000
3020
0000
,
0230
0000
0000
0000
0302
0000
0000
0013
0000
0000
0100
0000
0000
1000
0000
0000
,
0001
0000
0000
1000
0010
0200
0000
0000
0000
0302
0000
0000
0000
0023
0000
0000
,
0000
0230
0000
0000
0000
2300
0000
0000
3010
0000
0000
0100
0000
0000
0001
0000
,
0000
0010
0000
0000
0100
1000
0020
0000
0000
0000
0230
0000
0000
0000
0302
0000
,
0000
0000
0023
0000
0000
0000
0230
0000
0000
1300
0000
0000
0001
0000
0000
0010
,
0000
0000
0100
0000
0000
1000
0010
0200
0000
0000
0000
0000
0000
0000
0000
0000
,
0000
0000
0000
0000
,
0000
0000
0000
0000
0000
0000
0000
0000
0310
1000
0100
0010
0001
1000
0001
0010
,
0100
1000
0001
0100
0001
0010
0100
1000
0010
0100
0001
1000
0100
1000
0010
0100
,
0001
0010
0100
1000
0001
0100
0001
0010
0100
0010
0001
1000
0100
0010
0001
0010
,
0100
1000
0001
0100
0001
1000
0100
0010
0100
1000
0010
0100
0001
0010
0001
1000
,
0010
0100
0001
0010
0001
1000
0100
0010
0001
1000
0001
0010
0100
1000
0010
0100
,
0001
1000
0100
1000
0001
0010
0100
1000
0010
0100
0001
1000
0100
0010
0100
1000
,
0001
0010
0001
1000
0010
0100
0001
0010
0001
1000
0100
0010
0001
1000
0010
1000
,
0100
0010
0001
0100
0001
0010
0100
1000
0001
0010
0100
1000
0010
0100
0001
1000
,
0100
1000
0010
0100
0001
0010
0001
1000
0100
0010
0001
1000
0010
0100
0001
0010
,
0001
1000
0100
0010
0001
1000
0001
0010
0100
1000
0010
0100
0001
0010
0001
1000
,
0010
0100
0001
1000
0100
1000
0001
0010
0100
1000
0010
0100
0001
0010
0001
1000
,
0010
0100
0001
1000
0100
1000
0001
0010
0100
1000
0010
0100
0001
1000
0100
1000
,
0001
0010
0100
1000
0010
0100
0001
0010
0001
1000
0010
0100
0001
1000
0100
1000
,
0001
0010
0100
1000
0010
0100
0001
0010
0100
1000
0001
0010
0100
1000
0010
0100
,
0001
1000
0100
1000
0001
0010
0100
1000
0010
0100
0001
0010
0001
1000
0010
0100
,
0001
1000
0100
1000
0001
0010
0100
1000
0010
0100
0001
0010
0001
1000
0010
0100
,
0001
1000
0100
1000
0001
0010
0100
1000
0010
0100
0001
0010
0001
1000
0010
0100
,
0001
1000
0100
1000
0001
0010
0100
1000
0001
0100
0001
0010
0100
1000
0010
0100
,
0001
1000
0100
1000
0001
0010
0001
1000
0001
0100
0001
0010
0100
1000
0010
0100
,
0001
1000
0010
0100
0001
0010
0001
1000
0010
0100
0001
1000
0100
0010
0001
1000
,
0040
0430
0304
0043
0430
4300
3040
0430
0304
4003
3400
0340
0430
4300
3040
0430
,
0304
0043
0430
4300
3400
0340
0034
4003
3040
4030
3400
0340
0034
0043
0430
0340
,
0034
4003
3040
4030
3400
0340
0034
4003
3020
0230
0302
2003
3200
2300
3002
0203
,
0302
0023
0230
2300
3002
0203
0302
2003
3200
0320
0032
2003
3002
0203
0302
0023
,
0230
2300
3020
2030
3002
0003
0000
0000
1001
0000
0000
0000
2002
0000
3003
0000
,
0202
0303
0022
0033
2020
3030
0220
0330
,
0202
0303
0022
0033
0220
0330
2200
3300
,
2002
3003
0202
0303
2002
3003
2200
3300
,
0220
0330
0022
0033
1000
0010
0100
0001
,
1000
0100
0010
0001
1000
0000
0001
0000
0010
0000
0100
0000
1000
0000
0010
0000
,
0100
0001
0100
0010
1000
0100
0010
0001
,
1000
0001
0010
0100
1000
0010
0100
0001
,
1000
0000
0100
0000
1000
0000
1000
0000
0010
1000
0100
0010
0001
0000
1000
0010
,
0100
0001
0010
0000
0110
0000
1100
0000
0010
0100
0001
0010
0100
0000
1000
0010
,
0100
0001
1000
0000
0101
0000
0110
0000
0010
1000
0100
0010
0001
0000
1000
0010
,
0100
0001
0010
0000
1100
0000
1001
0000
0010
0100
0001
0010
0100
0000
1000
0001
,
0010
0100
1000
0000
0101
0000
1010
0000
0010
0100
0001
0010
0100
0000
1000
0010
,
0100
0001
0010
0000
1100
0000
1001
0000
0001
0010
0100
1000
0001
0000
1000
0100
,
0010
0001
1000
0000
0110
0000
1100
0000
0001
0010
0100
1000
0010
0000
0100
0001
,
1000
0100
1000
0000
0011
0000
1100
0000
0010
0100
0001
0010
0100
0000
1000
0001
,
1000
0010
0100
0000
0011
0000
0110
0000
1100
0000
1000
0000
0010
0000
0100
0000
,
0001
0010
0100
1000
0020
0000
0000
0130
,
0002
0000
0000
0000
0000
0000
1003
0010
,
0100
0001
0010
0100
2000
0000
3020
0000
,
0230
0000
0000
0000
0000
0000
0000
0301
,
1000
0010
0100
0001
2000
0000
0000
3100
,
0020
0000
0000
0000
0000
0000
0031
1000
,
0010
0100
0001
1000
0200
0000
0320
0000
,
0032
0000
0003
1010
0110
0000
0101
0000
,
0011
0000
1100
0000
1001
0000
0011
0010
,
0110
0000
0000
0000
1100
0000
0000
0000
1000
0010
0100
0000
0101
0000
0000
0000
,
0011
0000
0000
0000
1100
0000
0000
0000
1001
0000
0000
0000
0101
0000
0001
0010
,
0100
0000
0000
0000
1000
0010
0100
0001
0010
0000
0100
0000
0100
0000
0100
0000
,
1000
1010
0010
0110
0100
0101
0001
0011
,
0010
0000
0110
0000
0100
0000
1100
0000
1000
0010
0100
0001
1000
0100
1000
0001
,
0010
0001
1000
0010
0100
0001
0020
0000
0000
0000
0000
0000
0000
0000
0000
0000
,
0000
0000
0000
0030
0200
0300
0000
0000
1000
0010
0100
0001
1000
0100
0010
0001
,
1000
0001
0010
0100
1000
0010
1000
0100
0010
0001
0100
0001
0010
0100
1000
0001
,
0010
0001
1000
0010
0100
0001
1000
0100
1000
0001
0010
0100
1000
0001
1000
0010
,
0100
0001
0010
0001
1000
0100
0010
0001
1000
0001
0010
0001
1000
0010
0100
0001
,
0100
0010
1000
0100
1000
0001
0010
0100
1000
0010
0100
0001
1000
0100
1000
0001
,
0010
0100
1000
0010
0100
0001
0010
0001
1000
0010
0100
0001
1000
0100
1000
0001
,
0010
0100
1000
0010
0100
0001
0010
0001
1000
0010
0100
0001
1000
0100
1000
0010
,
0100
0001
0010
0001
1000
0010
0100
0001
1000
0100
1000
0010
0100
0001
0100
0010
,
1000
0100
1000
0010
0100
0001
0100
0010
1000
0100
0010
0001
1000
0001
0010
0001
,
1000
0010
0100
0001
1000
0100
1000
0001
0010
0100
1000
0010
0100
0001
0010
0001
,
1000
0010
0100
0001
1000
0100
1000
0001
0010
0100
1000
0010
0100
0001
1000
0001
,
0020
0130
1000
0001
0100
0001
1000
0100
0010
0001
1000
0001
0010
0100
1000
0010
,
0100
0001
0010
0001
1000
0010
1000
0100
0010
0001
0100
0001
0010
0100
1000
0001
,
1000
0100
0010
0001
1000
0010
0100
0001
0010
0001
1000
0100
0010
0001
1000
0010
,
1000
0100
0010
0001
0100
0001
0010
0100
1000
0001
0100
0001
1000
0100
1000
0001
,
0010
0100
1000
0010
0100
0001
1000
0100
1000
0010
0100
0001
0010
0001
1000
0010
,
0100
0001
1000
0001
0010
0100
1000
0001
1000
0010
0100
0001
1000
0001
0010
0100
,
1000
0001
1000
0100
0010
0001
1000
0001
0010
0100
1000
0001
1000
0100
0010
0001
,
1000
0010
1000
0100
0010
0001
0100
0001
0010
0100
1000
0001
0100
0001
1000
0100
,
0010
0001
1000
0010
1000
0100
0010
0001
0100
0001
0010
0100
1000
0001
0100
0001
,
1000
0100
0010
0100
1000
0001
0010
0100
1000
0001
1000
0100
0010
0100
1000
0010
,
0100
0001
0010
0001
1000
0100
0010
0100
1000
0001
0100
0001
0010
0100
1000
0010
,
0100
0001
1000
0100
0010
0001
0010
0100
1000
0001
0100
0001
1000
0100
0010
0001
,
1000
0001
0010
0100
1000
0010
0100
0001
1000
0001
0100
0001
1000
0010
0100
0001
,
0010
0100
1000
0001
0100
0001
1000
0100
0010
0001
1000
0001
0010
0100
1000
0001
,
0100
0001
1000
0010
1000
0100
0010
0001
0100
0001
0010
0001
1000
0100
1000
0001
,
1000
0010
1000
0001
1000
0100
0010
0001
1000
0001
0100
0001
0010
0100
1000
0001
,
0010
0001
0100
0010
0100
0001
0010
0100
1000
0001
1000
0100
0010
0001
1000
0010
,
1000
0001
1000
0100
1000
0010
0100
0001
0010
0001
1000
0100
0010
0001
1000
0001
,
0010
0100
1000
0001
0100
0001
1000
0100
1000
0010
1000
0100
0010
0001
1000
0001
,
0010
0100
1000
0001
0100
0001
1000
0001
0010
0001
1000
0100
0010
0001
1000
0001
,
0010
0100
1000
0010
1000
0100
0010
0001
1000
0001
0100
0010
1000
0100
1000
0001
,
0010
0100
1000
0001
0100
0001
1000
0100
0010
0001
1000
0001
0010
0001
1000
0010
,
0100
0001
1000
0100
1000
0001
0010
0100
1000
0010
0100
0001
1000
0100
1000
0001
,
0010
0100
1000
0010
0100
0001
1000
0100
1000
0001
0100
0001
0010
0100
1000
0010
,
0100
0001
1000
0100
1000
0001
0100
0001
1000
0100
0010
0001
1000
0010
0100
0001
,
1000
0100
1000
0001
0010
0100
1000
0010
0100
0001
1000
0001
0010
0100
1000
0001
,
0100
0001
1000
0100
0010
0001
1000
0010
0100
0001
1000
0100
1000
0001
0100
0001
,
1000
0010
0100
0001
0010
0001
1000
0100
0010
0001
1000
0001
0010
0100
1000
0001
,
0100
0001
1000
0010
0100
0001
1000
0100
1000
0001
0010
0100
1000
0010
0100
0001
,
1000
0100
1000
0001
0010
0100
1000
0001
0020
0000
0000
0000
0000
0000
0000
0000
,
0000
0000
0000
0000
,
0000
0000
0000
0000
,
0000
0000
0000
0000
0000
0000
0030
0000
2002
3003
2002
3003
2002
3003
0000
0000
,
2002
3003
2002
3003
2002
3003
0000
0000
1000
0100
0010
0001
1000
0010
0100
0001
,
0010
0100
1000
0001
1000
0100
0010
0001
1000
0010
0100
0001
0010
0001
1000
0100
,
0010
0001
1000
0010
0100
0001
0010
0001
1000
0100
0010
0001
0010
0100
1000
0001
,
0100
0001
1000
0010
0100
0001
0010
0001
1000
0010
0100
0001
1000
0100
0010
0001
,
1000
0010
1000
0100
0010
0001
0100
0001
0010
0100
1000
0001
0010
0100
1000
0010
,
0100
0001
1000
0100
1000
0010
0100
0001
0010
0001
1000
0010
0100
0001
1000
0100
,
0010
0001
1000
0001
0010
0100
1000
0001
0100
0001
1000
0100
0010
0001
1000
0010
,
0100
0001
0010
0001
1000
0010
0100
0001
1000
0100
1000
0001
0010
0100
1000
0010
,
0100
0001
0010
0001
1000
0010
0100
0001
1000
0100
1000
0010
0100
0001
0010
0001
,
1000
0100
0010
0001
1000
0001
0010
0100
1000
0010
0100
0001
0010
0001
1000
0010
,
0100
0001
1000
0100
1000
0001
0010
0100
1000
0010
0100
0001
0010
0001
1000
0100
,
0010
0001
1000
0010
1000
0100
0010
0001
0100
0001
0010
0100
1000
0001
0100
0001
,
1000
0100
0010
0001
1000
0001
0010
0100
1000
0010
0100
0001
0010
0001
1000
0010
,
0100
0001
1000
0100
1000
0001
0010
0100
1000
0010
0100
0001
1000
0100
1000
0001
,
0010
0001
1000
0010
1000
0001
0010
0001
1000
0010
0100
0001
0010
0001
1000
0010
,
1000
0100
0010
0001
1000
0010
1000
0001
0010
0001
1000
0100
0010
0001
1000
0010
,
1000
0001
0010
0001
1000
0010
1000
0100
0010
0001
0100
0001
0010
0100
0010
0001
,
1000
0010
1000
0001
1000
0100
0010
0001
1000
0010
1000
0001
0010
0001
1000
0100
,
0010
0001
1000
0010
1000
0001
0010
0001
1000
0010
0100
0001
0010
0001
1000
0100
,
0010
0100
1000
0010
1000
0001
0010
0001
1000
0001
0100
0001
0010
0100
1000
0001
,
1000
0100
0010
0001
1000
0010
0100
0001
1000
0100
1000
0001
0010
0100
1000
0010
,
0100
0001
0010
0001
1000
0100
0010
0001
1000
0001
0010
0100
1000
0010
0100
0001
,
0010
0001
1000
0010
0100
0001
1000
0100
1000
0001
0010
0100
1000
0010
0100
0001
,
0010
0001
1000
0010
0100
0001
1000
0100
1000
0001
0010
0100
1000
0010
0100
0001
,
0010
0001
1000
0010
0100
0001
1000
0100
1000
0001
0010
0100
1000
0010
0100
0001
,
1000
0100
0010
0001
1000
0001
0010
0100
1000
0010
0100
0001
1000
0010
0100
0001
,
0010
0001
1000
0100
0010
0001
1000
0010
0100
0001
0010
0001
1000
0100
0010
0001
,
1000
0001
0010
0100
1000
0010
0100
0001
1000
0100
1000
0001
0010
0100
1000
0010
,
0100
0001
1000
0100
1000
0001
0010
0001
4000
0000
0000
3000
4000
0000
0000
0000
,
3040
0430
0304
4003
,
3400
0000
0000
0000
0340
0000
0000
0000
0031
1000
0100
0010
0001
0000
1000
0010
,
0100
0001
0010
0000
0110
0000
1100
0000
0001
1000
0010
0100
0001
0000
0010
0100
,
1000
0001
1000
0000
0110
0000
0011
0000
0001
1000
0010
0100
0001
0000
0010
0100
,
1000
0100
0010
0000
1001
0000
1010
0000
0010
0100
0001
1000
0100
0000
0010
0001
,
1000
0001
0010
0000
1100
0000
1001
0000
0001
0100
0001
0010
0100
0000
1000
0010
,
0100
0001
0100
0000
0110
0000
1010
0000
0100
0010
0001
1000
0001
0000
0010
0100
,
1000
0001
0100
0000
0011
0000
0110
0000
0200
1300
0001
0100
0001
0000
0010
0100
,
1000
0100
0010
0000
0011
0000
0101
0000
0010
1000
0100
0010
0001
0000
1000
0010
,
0100
0001
0010
0000
1100
0000
1001
0000
0001
0100
0001
1000
0001
0000
1000
0010
,
0100
0001
0010
0000
1100
0000
1010
0000
0001
0100
0001
0010
0100
0000
1000
0010
,
0100
0001
1000
0000
0110
0000
0011
0000
0001
1000
0001
0010
0100
0000
1000
0001
,
0100
0001
0010
0000
1100
0000
1010
0000
0010
0100
0001
0010
0100
0000
1000
0100
,
0010
0001
1000
0000
0110
0000
0101
0000
0001
0010
0100
1000
0001
0000
1000
0010
,
0100
0001
2000
0000
3200
0000
0320
0000
0032
0000
2003
0000
3020
0000
0230
0000
,
0302
0023
0230
1300
1001
0000
0110
0000
,
1100
0000
1000
0100
0020
0000
0032
0000
,
0203
0000
0310
0000
0010
1000
0010
0100
,
0020
0000
0000
0000
0230
0000
0000
0000
0302
0000
0000
0000
0013
0000
0100
1000
,
0001
0000
0100
0000
0010
1000
0100
0010
0001
0000
1000
0000
0010
0000
1000
0000
,
0010
0100
0001
0100
0001
0010
0001
0010
,
0100
0000
1000
0000
0100
0000
1000
0000
0020
0030
0000
0000
0000
0000
0000
0000
,
0000
0000
0000
0000
,
0000
0000
0000
0000
0000
0000
0000
0000
0100
0010
1000
0100
0010
0001
1000
0100
,
1000
0001
0100
0010
1000
0100
0010
0001
1000
0100
1000
0001
0100
0010
1000
0100
,
0010
0001
1000
0001
0100
0001
1000
0010
1000
0001
0010
0100
1000
0001
0100
0001
,
1000
0100
0010
0001
0100
0010
1000
0001
0010
0001
1000
0100
1000
0001
0100
0010
,
1000
0100
0010
0001
1000
0001
0010
0100
1000
0010
1000
0100
0010
0001
0100
0010
,
1000
0001
0010
0001
1000
0100
0010
0100
1000
0001
0100
0010
1000
0100
0010
0001
,
0010
0100
1000
0001
0100
0010
1000
0100
0010
0001
0100
0001
1000
0100
0010
0001
,
1000
0001
0010
0100
1000
0001
0100
0010
1000
0100
0010
0001
1000
0001
0100
0001
,
0010
0100
1000
0010
0100
0001
0010
0001
1000
0100
0010
0001
1000
0010
0100
0001
,
0010
0001
1000
0100
0010
0001
1000
0001
0010
0100
1000
0001
0100
0001
1000
0100
,
0010
0001
1000
0001
0010
0100
1000
0001
0100
0001
1000
0100
0010
0001
1000
0001
,
0010
0100
1000
0100
0010
0001
1000
0010
0100
0001
1000
0100
1000
0001
0010
0100
,
1000
0001
1000
0010
0100
0001
1000
0100
1000
0001
0010
0100
1000
0010
0100
0001
,
0010
0001
1000
0010
1000
0100
0010
0001
0100
0001
1000
0100
0010
0001
1000
0001
,
0010
0100
1000
0010
0100
0001
0010
0001
1000
0010
0100
0001
1000
0100
1000
0001
,
0010
0100
1000
0001
0100
0001
1000
0000
2222
3333
0000
0000
0000
0000
0000
0000
,
2222
3333
0000
0000
0000
0000
0000
0000
2222
3333
0001
1000
0010
0100
0001
1000
,
0100
1000
0001
0010
0100
1000
0010
0100
0001
0010
0001
1000
0100
0010
0001
1000
,
0010
0100
0001
0010
0001
1000
0010
0100
0001
1000
0100
1000
0001
0010
0100
1000
,
0010
0100
0001
0010
0001
1000
0010
0100
0001
1000
0100
1000
0010
0100
0001
1000
,
0100
1000
0001
0010
0100
1000
0010
0100
0001
1000
0100
1000
0001
0010
0100
1000
,
0010
0100
0001
0010
0001
1000
0100
0010
0001
1000
0010
0100
0001
1000
0100
1000
,
0001
0010
0100
1000
0001
0100
0001
1000
0100
0010
0001
1000
0010
0100
0001
0010
,
0001
1000
0010
0100
0001
1000
0100
1000
0001
0010
0100
1000
0010
0100
0001
1000
,
0100
1000
0001
0010
0100
1000
0010
0100
0001
0010
0001
1000
0010
0100
0001
1000
,
0100
1000
0001
0010
0100
1000
0010
0100
0001
0010
0001
1000
0010
0100
0001
1000
,
0100
1000
0001
0010
0100
1000
0010
0100
0001
0010
0001
1000
0010
0100
0001
1000
,
0100
1000
0001
0010
0100
1000
0010
0100
0001
1000
0100
1000
0001
0010
0100
1000
,
0010
0100
0001
0010
0001
1000
0010
0100
0001
1000
0100
1000
0001
0010
0100
1000
,
0010
0100
0001
1000
0100
1000
0001
0010
0100
1000
0010
0100
0001
1000
0100
1000
,
0001
0010
0100
1000
0010
0100
0001
1000
0200
0000
0000
0300
0200
0000
0000
0300
,
0200
0000
0000
0300
0200
0000
0300
0000
0200
0000
0300
0000
0200
0300
0000
0000
,
0200
0300
0000
0000
MMMM
0000
0000
0000
0010
0000
0000
0000
1000
0000
0000
0000
,
0100
0010
0001
0000
1000
0000
0010
0100
,
0001
0010
0100
1000
,
0010
0000
0100
0000
0001
0010
0100
0000
,
1000
0001
0110
0110
,
1010
1010
1100
1100
,
0110
0110
0000
0000
,
0000
0000
0000
0000
,
0000
0000
0000
0000
MMMM
0000
0000
0000
1000
0100
0010
0001
0010
0100
1000
0100
,
0010
0001
0010
0100
1000
0100
0010
0001
0010
0100
1000
0100
0010
0001
0010
0100
,
1000
0100
0010
0001
0010
0100
1000
0100
0010
0001
0100
0001
0010
0100
1000
0100
,
0010
0001
0100
0001
0010
0100
1000
0100
0010
0001
0100
0001
0010
0100
1000
0100
,
0010
0001
0100
0001
0010
0100
1000
0100
0010
0001
1000
0100
0010
0100
1000
0001
,
0010
0001
1000
0100
0010
0100
1000
0001
0010
0001
1000
0100
0010
0100
1000
0001
,
0010
0001
1000
0100
0010
0100
1000
0001
0010
0001
1000
0100
0010
0100
1000
0001
,
0010
0001
1000
0100
0010
0100
1000
0001
0010
0001
1000
0100
0010
0100
1000
0001
,
0010
0001
1000
0100
0010
0100
1000
0001
1000
0100
0010
0001
1000
0001
0010
0100
,
1000
0010
0100
0001
1000
0100
1000
0001
0010
0100
1000
0010
0100
0001
0010
0001
,
1000
0010
0100
0001
1000
0100
1000
0001
0010
0100
1000
0010
0100
0001
0010
0001
,
1000
0010
0100
0001
1000
0100
1000
0001
0100
0001
1000
0010
0100
0001
0010
0001
,
1000
0010
0100
0001
1000
0100
1000
0001
0010
0100
1000
0010
0100
0001
1000
0100
,
1000
0001
0010
0100
1000
0010
0100
0001
1000
0100
1000
0001
0010
0100
1000
0010
,
0100
0001
0010
0001
1000
0010
0100
0001
1000
0100
1000
0010
0100
0001
0010
0001
,
1000
0100
0010
0001
1000
0001
0010
0100
1000
0001
0100
0001
1000
0100
0010
0001
,
1000
0001
0010
0100
1000
0010
0100
0001
0020
0130
1000
0001
0100
0001
1000
0100
,
0010
0001
1000
0010
0100
0001
0010
0001
1000
0010
0100
0001
1000
0100
1000
0001
,
0010
0100
1000
0010
0100
0001
1000
0100
1000
0001
0010
0100
1000
0010
0100
0001
,
1000
0100
1000
0001
1000
0100
0010
0001
1000
0100
0010
0001
1000
0100
0010
0001
,
1000
0010
1000
0100
0010
0001
0100
0001
0010
0100
1000
0001
1000
0100
0010
0001
,
1000
0010
1000
0100
0010
0001
0100
0001
0010
0100
1000
0001
0100
0001
1000
0100
,
0010
0001
1000
0010
1000
0100
0010
0001
0100
0001
0010
0100
1000
0001
1000
0100
,
0010
0001
1000
0010
1000
0100
0010
0001
0100
0001
0010
0100
1000
0001
0100
0001
,
1000
0100
0010
0001
1000
0001
0010
0100
2000
3001
0100
0001
0010
0100
1000
0010
,
0100
0001
1000
0100
1000
0001
0010
0100
2000
3001
0100
0001
1000
0010
0100
0001
,
0020
0130
1000
0001
0100
0001
1000
0100
0020
0031
1000
0001
0010
0100
1000
0001
,
0100
0001
1000
0100
0010
0001
1000
0010
2000
3100
0010
0001
1000
0001
0010
0100
,
1000
0001
2000
3020
0230
0302
0023
0230
2300
3010
0100
0001
1000
0100
1000
0001
,
0010
0100
1000
0010
0100
0001
1000
0100
0020
0031
1000
0001
0010
0100
1000
0001
,
0200
0301
1000
0100
0010
0001
1000
0010
0200
0301
0010
0001
1000
0100
0010
0001
,
1000
0010
1000
0100
0010
0001
1000
0001
0010
0100
1000
0001
0100
0001
1000
0100
,
0010
0001
1000
0001
0010
0100
1000
0001
0200
0300
0000
0000
0000
0000
0000
0000
,
0000
0M00
0000
000M
0000
0000
0000
0000
;
