#TITLE:WAIWAI230;
#SUBTITLE:;
#ARTIST:paraoka;
#TITLETRANSLIT:;
#SUBTITLETRANSLIT:;
#ARTISTTRANSLIT:;
#CREDIT:;
#BANNER:waiwai230.png;
#BACKGROUND:waiwai230-bg.png;
#LYRICSPATH:;
#CDTITLE:cdtitle.png;
#MUSIC:waiwai230.ogg;
#OFFSET:-0.030;
#SAMPLESTART:66.780;
#SAMPLELENGTH:12.000;
#SELECTABLE:YES;
#DISPLAYBPM:230.000;
#BPMS:0.000=230.000,88.000=231.500,103.000=230.000,128.000=229.700,143.500=229.300,172.000=230.000,349.500=232.000,352.000=231.000,364.000=230.800,372.000=230.000;
#STOPS:;
#BGCHANGES:;
// cache tags:
#FIRSTBEAT:16.000;
#LASTBEAT:419.500;
#SONGFILENAME:Songs/Japanese Collaboration Mix/waiwai230/waiwai230.sm;
#HASMUSIC:1;
#HASBANNER:1;
#MUSICLENGTH:113.946;
// end cache tags

//---------------dance-single - ----------------
#NOTES:
     dance-single:
     :
     Hard:
     9:
     0.614,0.782,0.263,0.263,0.000,430.000,30.000,30.000,0.000,0.000:
0000
0000
0000
0000
,
0000
0000
0000
0000
,
0000
0000
0000
0000
,
0000
0000
0000
0000
,
2002
0000
0000
0000
,
0000
0000
0000
3003
,
0220
0000
0000
0330
,
1010
0000
1010
0000
,
0100
0000
0100
0000
,
0010
0001
0010
0001
,
1000
0000
1000
0000
,
0100
0010
0100
0010
,
0001
0000
0001
0000
,
0100
0010
0100
0010
,
1000
0100
1000
0000
0100
1000
0100
0000
,
0010
0001
0010
0000
0001
0010
0001
0000
,
0220
0000
0000
0000
,
0000
0000
0000
0000
,
0000
0000
0000
0000
,
0000
0000
0000
0000
,
0000
0000
0000
0000
,
0000
0000
0000
0000
,
0000
0000
0000
0000
,
0000
0000
0330
0000
0010
0001
0010
0001
,
0010
0000
0001
0000
0100
0010
0100
0000
,
0001
0000
0010
0000
0100
0010
0100
0000
,
1000
0000
0010
0000
0100
0010
0100
0000
,
0010
0000
1000
0000
0010
0100
0010
0100
,
0010
0000
1000
0000
0010
0100
0001
0000
,
0100
0000
0001
0000
0100
0010
1000
0000
,
0100
0000
1000
0000
0100
0010
0001
0000
,
0010
0100
1000
0010
0100
0001
0010
0100
,
2000
3100
0002
0103
,
2000
3010
0002
0013
,
2000
3100
0002
0103
,
2000
3010
0002
0013
,
1020
0130
0021
0130
,
1200
0310
0201
0310
,
1000
0010
0001
1000
0100
0001
0010
0100
,
2000
0000
0000
0001
0000
3001
0200
0000
,
0310
0000
0010
1000
0010
0000
0100
0000
,
0001
0100
0001
0100
0000
0100
0000
0100
,
0010
0000
0100
1000
0100
0000
0010
0000
,
1000
0100
1000
0010
1000
0001
1000
0010
,
1000
0000
1000
0100
0001
0100
1000
0000
,
0001
0000
0001
0100
1000
0100
0001
0000
,
0100
0010
0200
0020
0000
0000
0000
0000
,
0000
0000
0000
0330
,
1000
0000
0000
0100
0000
0000
0010
0000
,
0001
0000
0000
0010
0000
0000
0100
0000
,
1000
0000
0000
0010
0000
0000
0100
0000
,
0001
0000
0000
0100
0000
0000
0010
0000
,
1000
0000
0000
0001
0000
0000
0010
0000
,
0100
0000
0100
0000
0000
0010
0100
0010
,
0001
0001
1000
1000
,
0001
0010
0001
0000
1000
0100
1000
0000
,
1000
0100
0010
0001
0100
0010
1000
0000
,
1000
0010
0100
0001
0010
0100
1000
0000
,
1000
0010
0100
0001
1000
0100
0010
0002
,
2000
0000
0000
3000
,
1003
0010
0100
0001
0010
0100
1000
0000
,
1000
0100
0010
0001
0100
0010
1000
0000
,
1000
0010
0100
0001
0010
0100
1000
0020
,
0000
0130
0001
0010
0100
1000
0010
0100
,
0001
0010
0100
1000
0010
0100
0001
0000
,
0001
0100
0010
1000
0100
0010
0001
0000
,
0001
0100
0010
1000
0001
0010
0100
2000
,
0002
0000
0000
0003
,
3001
0100
0010
1000
0100
0010
0001
0000
,
0001
0010
0100
1000
0010
0100
0001
0000
,
0001
0100
0010
1000
0100
0010
0001
0200
,
0000
0310
1000
0100
0010
0001
0100
0010
,
1000
1000
1000
1000
,
1000
1000
1000
1000
,
1000
1000
1000
1000
,
1000
1000
1000
0110
,
0001
0001
0001
0001
,
0001
0001
0001
0001
,
0001
0001
0001
0001
,
0001
0001
0001
0110
,
0100
0000
0100
0000
,
1100
0000
0011
0000
,
0010
0000
0010
0000
,
0101
0000
1010
0000
,
0110
0000
0110
0000
,
1001
0000
1001
0000
,
0110
0101
0110
1100
,
0001
0010
0100
1000
0000
0000
0000
0000
,
0100
0000
0010
0000
0100
0010
0100
0000
,
0001
0000
1000
0000
0001
1000
0001
0000
,
0010
0000
0100
0000
0010
0100
0010
0000
,
0001
1000
0010
0100
0000
0010
0100
0000
,
0010
0000
0100
0000
0010
0100
0010
0000
,
1000
0000
0001
0000
1000
0001
1000
0000
,
0001
0000
0001
0010
0001
0000
0001
0000
,
0001
0100
0001
0000
0001
0000
1001
0000
,
0110
1000
0001
0010
,
1001
0000
0100
0010
0000
0010
0100
0000
,
1001
0000
0010
0100
0000
0100
0010
0000
,
1000
0100
0010
0001
0100
0010
1000
0100
,
0010
0000
0000
0001
0000
0000
0100
0000
,
0000
1000
0000
0000
0110
0000
0110
0000
,
1000
0100
1000
0010
0100
0001
0100
0010
,
0100
0001
0010
0001
0100
0010
1000
0000
,
0220
0000
0000
0000
0000
0000
0000
0330
;
