#TITLE:Take on me;
#SUBTITLE:(NSP cover);
#ARTIST:Ninja Sex Party;
#TITLETRANSLIT:;
#SUBTITLETRANSLIT:;
#ARTISTTRANSLIT:;
#CREDIT:;
#BANNER:banner.png;
#BACKGROUND:bg-fallback.png;
#LYRICSPATH:;
#CDTITLE:;
#MUSIC:Take on me.ogg;
#OFFSET:0.010;
#SAMPLESTART:32.000;
#SAMPLELENGTH:12.000;
#SELECTABLE:YES;
#BPMS:0.000=169.000;
#STOPS:;
#BGCHANGES:;
// cache tags:
#FIRSTBEAT:16.000;
#LASTBEAT:596.000;
#SONGFILENAME:Songs/Index Tournament 1/Take on me (BenouKat - Rems)/Take on me.sm;
#HASMUSIC:1;
#HASBANNER:1;
#MUSICLENGTH:214.178;
// end cache tags

//---------------dance-single - BNKT----------------
#NOTES:
     dance-single:
     BNKT:
     Challenge:
     12:
     0.994,1.000,0.247,0.570,0.950,1309.000,53.000,122.000,0.000,0.000:

0000
0000
0000
0000
,
0000
0000
0000
0000
,
0000
0000
0000
0000
,
0000
0000
0000
0000
,
1000
1000
0100
0100
0000
0010
0000
1000
,
0000
0010
0000
0001
0010
0100
1000
0100
,
1000
1000
1000
0001
0000
0100
0000
1000
,
0000
0100
0000
0001
0100
0010
1000
0010
,
0100
0100
0001
0001
0000
0100
0000
1000
,
0000
0100
0000
0001
1000
1000
0010
0100
,
0010
0010
0010
1000
0000
0100
0000
0001
,
0000
0100
0000
1000
0010
0010
0100
0001
,
1000
1000
0100
1000
0000
0100
0000
0001
,
0000
0100
0000
1000
0001
0010
0001
0100
,
0001
0001
0001
0010
0000
0100
0000
0001
,
0000
0100
0000
1000
0100
0100
0100
0000
,
2000
0000
0000
0000
3000
0000
0200
0000
0000
0300
0020
0000
0032
0000
0000
0003
,
1000
0010
1000
0001
0100
0010
1000
0001
,
0200
0000
0020
0300
0000
0030
2000
0000
0000
3000
2200
0000
0000
0000
0000
0000
,
0000
3300
0200
0000
0000
0300
0020
0000
0032
0000
0000
0003
2000
0000
0000
3000
,
0020
0000
0000
0000
0000
0000
0000
0000
0000
0000
0000
0000
0000
0000
0000
0000
0000
0000
0000
0000
0000
0030
0000
0000
0200
0000
0000
0000
0000
0000
0300
0000
0002
0000
0000
0000
0000
0000
0000
0000
0000
0000
0203
0000
0000
0000
0000
0000
,
0010
0300
1000
0000
0010
0000
0100
0000
0001
0000
0100
0000
0010
0000
2000
0000
,
3200
0000
0000
0300
0020
0000
0230
0000
0000
0300
2000
0000
0000
0000
3002
0000
,
0000
0000
0000
0000
0000
0000
0003
0000
0002
0000
0000
0000
0000
0000
0000
0003
0000
0000
0200
0000
0000
0000
0000
0000
0340
0000
0000
0000
0000
0000
0000
0000
0000
0030
0000
0000
0220
0000
0000
0000
0000
0000
0000
0000
0000
0000
0000
0000
,
0000
0000
0000
0330
0200
0000
0000
0000
0000
0000
0000
0300
0020
0000
2030
0000
,
0000
3000
1000
0000
0100
0000
0010
0000
0001
0000
1000
0000
0100
0000
0010
0000
,
0001
0000
1000
0000
0002
0000
0200
0003
0320
0000
0230
0000
0302
0000
0203
0000
,
0320
0000
0000
0000
0000
0000
0030
0000
0200
0000
0000
0000
0000
0000
0000
0000
0000
0000
0000
0000
0000
0300
0000
0000
0002
0000
0000
0000
0000
0000
0000
0000
0000
0000
0000
0000
0000
0000
0000
0000
0000
0000
0000
0000
0000
0003
0000
0000
,
1000
0001
1000
0001
1000
0001
1000
0001
1000
0001
1000
0001
1000
0001
1000
0001
,
1000
0100
1000
0100
1000
0100
1000
0100
1000
0100
1000
0100
1000
0100
1000
0100
,
0010
0001
0010
0001
0010
0001
0010
0001
0010
0001
0010
0001
0010
0001
0010
0000
,
0011
0000
0000
0110
0000
0000
1100
0000
,
1000
0100
1000
0100
1000
0100
1000
0100
1000
0100
1000
0100
1000
0100
1000
0100
,
0010
0100
0010
0100
0010
0100
0010
0100
0010
0100
0010
0100
0010
0100
0010
0100
,
1000
0001
1000
0001
1000
0001
1000
0001
1000
0001
1000
0001
1000
0001
1000
0000
,
1001
0000
0000
0101
0000
0000
1010
0000
,
1010
1000
1100
0000
0100
0000
0010
0000
,
0011
0001
0101
0000
0100
0000
0010
0000
,
0110
0100
0110
0000
0010
1000
1000
0010
,
0100
0100
0010
0100
0100
0010
0010
1000
,
0001
1000
0010
0100
0001
1000
0010
0100
0010
1000
0001
1000
0100
0010
0001
0010
,
0100
1000
0100
0010
0001
0010
0001
0100
0001
1000
0010
1000
0010
1000
0100
1000
,
0100
0010
0001
0010
0100
1000
0001
0100
0010
1000
0001
0100
0010
1000
0010
0100
,
0001
0100
0010
1000
0010
0100
0001
1000
0004
0000
0000
0000
0000
0000
0000
0003
,
2000
0000
0000
0000
0000
3000
0200
0000
0000
0300
2000
0000
3002
0000
0000
0003
,
0001
0010
0100
1000
0001
0010
0100
1000
,
0002
0000
0000
0000
0203
0000
0040
0300
0000
0000
0000
0000
0030
0000
1000
0000
,
0010
0000
2000
0000
3200
0000
0000
0300
2000
0000
0000
3000
0002
0000
0000
0003
,
0200
0000
0000
0000
0000
0000
0000
0000
0000
0000
0000
0000
0000
0000
0000
0000
0000
0000
0000
0000
0000
0300
0000
0000
0002
0000
0000
0000
0000
0000
0000
0000
0200
0003
0000
0000
0000
0000
0000
0300
0000
0000
0101
0000
0000
0000
0000
0000
,
0001
0100
0010
1000
0001
0100
0001
1000
,
0200
0000
0000
0300
0020
0000
0002
0030
0000
0000
0020
0003
0000
0000
0032
0000
,
0000
0003
0200
0000
0020
0300
0000
0030
0400
0000
0000
0000
0000
0300
0000
0000
,
0200
0000
0000
0000
0000
0000
0020
0300
0000
0000
2000
0030
0200
3000
0000
0300
,
1000
0100
0010
0001
1000
0100
0010
0001
,
1000
0000
0001
0000
2000
0000
0020
3000
0200
0030
0002
0300
2000
0003
0020
3000
,
0200
0000
0000
0030
0000
0000
0000
0000
0000
0300
0000
0000
0020
0000
0000
0000
0000
0000
0000
0000
2000
0030
0000
0000
0000
0000
0000
0000
0000
0000
0200
0000
0000
0000
0000
0000
0000
0000
0000
0000
0000
0000
0000
0000
0000
3300
0000
0000
,
1000
0100
1000
0100
1000
0100
1000
0100
1000
0100
1000
0100
1000
0100
1000
0100
,
1000
0001
0100
0001
0100
0001
0100
0001
0100
0001
0100
0001
0100
0001
0100
0001
,
1000
0001
1000
0001
1000
0001
1000
0001
1000
0001
1000
0001
1000
0001
1000
0000
,
1001
0000
0000
1100
0000
0000
0011
0000
,
0001
0010
0001
0010
0001
0010
0001
0010
0001
0010
0001
0010
0001
0010
0001
0010
,
0100
0010
0100
0010
0100
0010
0100
0010
0100
0010
0100
0010
0100
0010
0100
0010
,
0001
0100
0001
0100
0001
0100
0001
0100
0001
0100
0001
0100
0001
0100
0001
0000
,
0101
0000
0000
1010
0000
0000
1001
0000
,
1100
1000
1010
0000
0010
0000
0100
0000
,
0110
0010
1010
0000
1000
0000
0100
0000
,
0011
0001
0101
0000
0100
0001
0001
0100
,
0010
0010
0100
0010
0010
0010
1000
0001
,
1000
0100
0010
0001
1000
0100
0010
0001
0010
0100
1000
0001
0010
0100
1000
0100
,
0010
0100
1000
0100
0010
0001
0010
0100
0010
0001
0010
0100
1000
0001
0100
0010
,
1000
0001
0100
0010
1000
0010
0100
0001
0100
0010
1000
0010
0100
0001
0100
0010
,
0100
0010
1000
0010
1000
0001
0100
0001
0100
0010
1000
0100
1000
0001
0100
0001
,
0200
0000
0000
0000
0010
0000
0000
0000
0010
0000
0000
0000
0010
0000
0000
0300
,
0010
1000
0100
0000
1000
0100
1000
0000
,
0002
0000
0000
0000
0100
0000
0000
0000
0100
0000
0000
0000
0100
0000
0000
0003
,
0100
0001
0100
0000
0010
1000
0010
0000
,
1000
0100
0010
0001
0010
0100
1000
0100
0010
0001
0010
0100
1000
0100
0010
0001
,
0010
0100
1000
0100
0010
0001
0010
0100
1000
0100
0010
0001
0010
0100
1000
0100
,
0010
0001
1000
0010
0100
0001
0100
0010
1000
0010
0100
0001
0100
0010
1000
0010
,
0100
0001
0100
0010
1000
0010
0100
0001
0100
0010
1000
0010
0100
0001
0100
0010
,
4000
0000
0000
0000
0000
3000
0200
0000
2300
0000
3200
0000
2300
0000
3200
0000
,
2300
0000
0000
0000
0200
3000
0000
0000
0310
0001
0010
0100
1000
0001
1000
0001
,
1000
0100
0010
0001
0010
0100
0010
0001
1000
0100
0010
0100
1000
0100
0010
0100
,
1000
0001
1000
0010
0100
0001
1000
0010
0400
0000
0000
0000
0000
0000
0000
0300
,
0001
0001
1000
0100
0000
0010
0000
1000
,
0000
0010
0000
0001
1000
1000
0100
0010
,
0001
0001
0010
0100
0000
0010
0000
1000
,
0000
0010
0000
0001
0100
0100
0010
0100
,
0001
0001
1000
0010
0000
0100
0000
1000
,
0000
0100
0000
0001
0010
0100
0100
1000
,
0010
0010
0010
0100
0000
0010
0000
0001
,
0000
0010
0000
0100
0001
0001
1000
0010
,
0100
0100
0010
0100
0000
0010
0000
0001
,
0000
0010
0000
1000
0100
0100
0010
0001
,
0100
0100
0100
0001
0000
0010
0000
1000
,
0000
0010
0000
0001
1000
0001
0001
0100
,
0010
0010
0100
0001
0000
0100
0000
1000
,
0000
0100
0000
0001
0010
0010
0001
0100
,
0010
0010
0010
1000
0000
0100
0000
0001
,
0000
0100
0000
1000
0100
0100
0100
0000
,
2200
0000
0000
0000
0000
3300
2000
0000
0000
3000
0010
0000
0200
0000
0010
0000
,
0000
0000
0010
0000
0000
0000
0010
0000
0010
0000
0000
0000
0010
0000
0000
0300
,
0010
2000
3200
0320
0030
0002
0000
0000
,
0003
0000
2000
0000
0000
0000
0020
3000
0200
0030
0000
0300
0002
0000
0000
0003
,
0202
0000
0000
0000
0000
0000
0303
0000
0200
0000
0000
0300
0020
0000
2030
3000
,
0001
1000
0010
0100
0001
1000
0010
0100
,
0002
0000
0000
0000
2000
0003
0200
3000
0000
0300
0020
0000
0000
0000
0032
0000
,
0000
0000
2003
0000
0000
0000
3020
0000
0200
0030
0000
0300
0020
0000
0000
0030
,
0110
0000
0100
0000
0010
0000
2000
0000
0000
0000
0000
0000
0020
3000
0230
0000
,
0301
0010
0100
1000
0100
0010
0001
0010
,
0100
1000
0002
2003
3020
0230
0320
2030
,
3000
0000
0002
0000
0023
0000
0032
0003
1000
0000
0001
0000
1000
0000
0000
0000
,
1000
0001
1000
0001
1000
0001
1000
0001
1000
0001
1000
0001
1000
0001
1000
0001
,
1000
0100
1000
0100
1000
0100
1000
0100
1000
0100
1000
0100
1000
0100
1000
0100
,
0010
0001
0010
0001
0010
0001
0010
0001
0010
0001
0010
0001
0010
0001
0010
0000
,
0011
0000
0000
1001
0000
0000
0101
0000
,
0001
0100
0001
0100
0001
0100
0001
0100
0001
0100
0001
0100
0001
0100
0001
0100
,
0010
1000
0010
1000
0010
1000
0010
1000
0010
1000
0010
1000
0010
1000
0010
1000
,
0010
0100
0010
0100
0010
0100
0010
0100
0010
0100
0010
0100
0010
0100
0010
0000
,
0110
0000
0000
1010
0000
0000
0101
0000
,
0101
0001
0011
0000
0010
0000
0100
0000
,
1100
1000
1001
0000
0001
0000
0100
0000
,
0101
0001
0011
0000
0010
0001
0001
0010
,
0001
0001
0010
0001
0001
0001
1000
0010
,
1000
0001
0100
0010
1000
0001
0100
0010
1000
0100
0010
0001
0010
0100
1000
0001
,
1000
0100
1000
0001
0100
0001
1000
0100
0010
0001
0010
0001
0010
0100
1000
0100
,
1000
0001
0100
0010
1000
0010
0100
0010
0100
0001
0100
0010
1000
0010
0100
0010
,
1000
0100
0010
0001
0010
0000
0001
0000
1000
0000
0001
0000
1000
0000
0010
0000
,
1000
0010
1000
0010
1000
0010
1000
0010
1000
0010
1000
0010
1000
0010
1000
0010
,
1000
0001
1000
0001
1000
0001
1000
0001
1000
0001
1000
0001
1000
0001
1000
0001
,
0010
0001
0010
0001
0010
0001
0010
0001
0010
0001
0010
0001
0010
0001
0010
0000
,
0011
0000
0000
1001
0000
0000
1010
0000
,
0010
1000
0010
1000
0010
1000
0010
1000
0010
1000
0010
1000
0010
1000
0010
1000
,
0001
1000
0001
1000
0001
1000
0001
1000
0001
1000
0001
1000
0001
1000
0001
1000
,
0010
0100
0010
0100
0010
0100
0010
0100
0010
0100
0010
0100
0010
0100
0010
0000
,
0110
0000
0000
0101
0000
0000
1010
0000
,
1000
0010
1000
0010
1000
0010
1000
0010
1000
0010
1000
0010
1000
0010
1000
0010
,
1000
0100
1000
0100
1000
0100
1000
0100
1000
0100
1000
0100
1000
0100
1000
0100
,
0010
0001
0010
0001
0010
0001
0010
0001
0010
0001
0010
0001
0010
0001
0010
0001
,
0010
0001
0100
0010
1000
0001
0100
0010
,
1000
0100
0010
0001
0010
0100
1000
0100
0010
0100
1000
0001
0010
0100
0010
0001
,
0010
0100
1000
0001
1000
0010
0100
0010
1000
0001
0100
0010
1000
0100
0010
0100
,
1000
0001
0100
0010
0100
0001
0010
0100
0010
0001
1000
0010
0100
0010
1000
0010
,
0100
0010
0100
0001
0010
0100
0010
0001
1000
0100
1000
0001
0100
0001
0010
0100
,
1000
0100
0010
0100
1000
0001
0100
0010
0100
0010
1000
0100
1000
0001
0100
0001
,
0010
0001
1000
0010
1000
0100
0010
0100
1000
0001
0100
0010
1000
0010
0100
0001
,
1000
0001
1000
0100
1000
0100
0010
0001
0010
0001
1000
0010
0100
0010
1000
0000
,
1010
1000
1100
0100
0110
0010
0011
0001
,
2002
0000
0000
0000
,
3003
0000
0000
0000
;

//---------------dance-single - Rems Take On Drillz----------------
#NOTES:
     dance-single:
     Rems Take On Drillz:
     Edit:
     17:
     1.000,1.000,0.163,0.570,1.000,1821.000,35.000,122.000,0.000,0.000:

0000
0000
0000
0000
,
0000
0000
0000
0000
,
0000
0000
0000
0000
,
0000
0000
0000
0000
,
1000
1000
0100
0100
0000
0010
0000
1000
,
0000
0010
0000
0001
0010
0100
1000
0100
,
1000
1000
1000
0001
0000
0100
0000
1000
,
0000
0100
0000
0001
0100
0010
1000
0010
,
0100
0100
0001
0001
0000
0100
0000
1000
,
0000
0100
0000
0001
1000
1000
0010
0100
,
0010
0010
0010
1000
0000
0100
0000
0001
,
0000
0100
0000
1000
0010
0010
0100
0001
,
1000
1000
0100
1000
0000
0100
0000
0001
,
0000
0100
0000
1000
0001
0010
0001
0100
,
0001
0001
0001
0010
0000
0100
0000
0001
,
0000
0100
0000
1000
0100
0100
0100
0000
,
2000
0000
0000
0000
3000
0000
0200
0000
0000
0300
0020
0000
0032
0000
0000
0003
,
1000
0010
1000
0001
0100
0010
1000
0001
,
0200
0000
0020
0300
0000
0030
2000
0000
0000
3000
2200
0000
0000
0000
0000
0000
,
0000
3300
0200
0000
0000
0300
0020
0000
0032
0000
0000
0003
2000
0000
0000
3000
,
0020
0000
0000
0000
0000
0000
0000
0000
0000
0000
0000
0000
0000
0000
0000
0000
0000
0000
0000
0000
0000
0030
0000
0000
0200
0000
0000
0000
0000
0000
0300
0000
0002
0000
0000
0000
0000
0000
0000
0000
0000
0000
0203
0000
0000
0000
0000
0000
,
0010
0300
1000
0000
0010
0000
0100
0000
0001
0000
0100
0000
0010
0000
2000
0000
,
3200
0000
0000
0300
0020
0000
0230
0000
0000
0300
2000
0000
0000
0000
3002
0000
,
0000
0000
0000
0000
0000
0000
0003
0000
0002
0000
0000
0000
0000
0000
0000
0003
0000
0000
0200
0000
0000
0000
0000
0000
0340
0000
0000
0000
0000
0000
0000
0000
0000
0030
0000
0000
0220
0000
0000
0000
0000
0000
0000
0000
0000
0000
0000
0000
,
0000
0000
0000
0330
0200
0000
0000
0000
0000
0000
0000
0300
0020
0000
2030
0000
,
0000
3000
1000
0000
0100
0000
0010
0000
0001
0000
1000
0000
0100
0000
0010
0000
,
0001
0000
1000
0000
0002
0000
0200
0003
0320
0000
0230
0000
0302
0000
0203
0000
,
0320
0000
0000
0000
0000
0000
0030
0000
0200
0000
0000
0000
0000
0000
0000
0000
0000
0000
0000
0000
0000
0300
0000
0000
0002
0000
0000
0000
0000
0000
0000
0000
0000
0000
0000
0000
0000
0000
0000
0000
0000
0000
0000
0000
0000
0003
0000
0000
,
1000
0001
1000
0001
1000
0001
1000
0001
1000
0001
1000
0001
1000
0001
1000
0001
1000
0001
1000
0001
1000
0001
1000
0001
,
1000
0100
1000
0100
1000
0100
1000
0100
1000
0100
1000
0100
1000
0100
1000
0100
1000
0100
1000
0100
1000
0100
1000
0100
,
0010
0001
0010
0001
0010
0001
0010
0001
0010
0001
0010
0001
0010
0001
0010
0001
0010
0001
0010
0001
0010
0001
0000
0000
,
0011
0000
0000
0110
0000
0000
1100
0000
,
1000
0100
1000
0100
1000
0100
1000
0100
1000
0100
1000
0100
1000
0100
1000
0100
1000
0100
1000
0100
1000
0100
1000
0100
,
0010
0100
0010
0100
0010
0100
0010
0100
0010
0100
0010
0100
0010
0100
0010
0100
0010
0100
0010
0100
0010
0100
0010
0100
,
1000
0001
1000
0001
1000
0001
1000
0001
1000
0001
1000
0001
1000
0001
1000
0001
1000
0001
1000
0001
1000
0001
0000
0000
,
1001
0000
0000
0101
0000
0000
1010
0000
,
1000
0001
1000
0001
1000
0001
1000
0001
1000
0001
1000
0001
1000
0001
1000
0001
1000
0001
1000
0001
1000
0001
1000
0001
,
0100
0001
0100
0001
0100
0001
0100
0001
0100
0001
0100
0001
0100
0001
0100
0001
0100
0001
0100
0001
0100
0001
0100
0001
,
0100
0010
0100
0010
0100
0010
0100
0010
0100
0010
0100
0010
0100
0010
0100
0010
0100
0010
0100
0010
0100
0010
0000
0000
,
0100
0100
0010
0100
0100
0010
0010
1000
,
0001
0000
0000
1000
0000
0000
0010
0000
0000
0100
0000
0000
0001
0000
0100
0000
0001
0000
0100
0000
0001
0000
0100
0000
0001
0000
0100
0000
0001
0000
0100
0000
0001
0000
0100
0000
0001
0000
0100
0000
0001
0000
0100
0000
0001
0000
0100
0000
,
0001
1000
0001
1000
0001
1000
0001
1000
0001
1000
0001
1000
0001
1000
0001
1000
0001
1000
0001
1000
0001
1000
0001
1000
,
0001
0010
0001
0010
0001
0010
0001
0010
0001
0010
0001
0010
0001
0010
0001
0010
0001
0010
0001
0010
0001
0010
0001
0010
,
0001
0000
1000
0000
0001
0000
1000
0000
0001
0000
1000
0000
0001
0000
1000
0000
0001
0000
1000
0000
0000
0000
0000
0000
0004
0000
0000
0000
0000
0000
0000
0000
0000
0000
0000
0000
0000
0000
0000
0000
0000
0000
0000
0000
0000
0003
0000
0000
,
2000
0000
0000
0000
0000
3000
0200
0000
0000
0300
2000
0000
3002
0000
0000
0003
,
0001
0010
0100
1000
0001
0010
0100
1000
,
0002
0000
0000
0000
0203
0000
0040
0300
0000
0000
0000
0000
0030
0000
1000
0000
,
0010
0000
2000
0000
3200
0000
0000
0300
2000
0000
0000
3000
0002
0000
0000
0003
,
0200
0000
0000
0000
0000
0000
0000
0000
0000
0000
0000
0000
0000
0000
0000
0000
0000
0000
0000
0000
0000
0300
0000
0000
0002
0000
0000
0000
0000
0000
0000
0000
0200
0003
0000
0000
0000
0000
0000
0300
0000
0000
0101
0000
0000
0000
0000
0000
,
0001
0100
0010
1000
0001
0100
0001
1000
,
0200
0000
0000
0300
0020
0000
0002
0030
0000
0000
0020
0003
0000
0000
0032
0000
,
0000
0003
0200
0000
0020
0300
0000
0030
0400
0000
0000
0000
0000
0300
0000
0000
,
0200
0000
0000
0000
0000
0000
0020
0300
0000
0000
2000
0030
0200
3000
0000
0300
,
1000
0100
0010
0001
1000
0100
0010
0001
,
1000
0000
0001
0000
2000
0000
0020
3000
0200
0030
0002
0300
2000
0003
0020
3000
,
0200
0000
0000
0030
0000
0000
0000
0000
0000
0300
0000
0000
0020
0000
0000
0000
0000
0000
0000
0000
2000
0030
0000
0000
0000
0000
0000
0000
0000
0000
0200
0000
0000
0000
0000
0000
0000
0000
0000
0000
0000
0000
0000
0000
3000
0300
0000
0000
,
1000
0100
1000
0100
1000
0100
1000
0100
1000
0100
1000
0100
1000
0100
1000
0100
1000
0100
1000
0100
1000
0100
1000
0100
,
1000
0001
0100
0001
0100
0001
0100
0001
0100
0001
0100
0001
0100
0001
0100
0001
0100
0001
0100
0001
0100
0001
0100
0001
,
1000
0001
1000
0001
1000
0001
1000
0001
1000
0001
1000
0001
1000
0001
1000
0001
1000
0001
1000
0001
1000
0001
0000
0000
,
1001
0000
0000
1100
0000
0000
0011
0000
,
0001
0010
0001
0010
0001
0010
0001
0010
0001
0010
0001
0010
0001
0010
0001
0010
0001
0010
0001
0010
0001
0010
0001
0010
,
0100
0010
0100
0010
0100
0010
0100
0010
0100
0010
0100
0010
0100
0010
0100
0010
0100
0010
0100
0010
0100
0010
0100
0010
,
0001
0100
0001
0100
0001
0100
0001
0100
0001
0100
0001
0100
0001
0100
0001
0100
0001
0100
0001
0100
0001
0100
0000
0000
,
0101
0000
0000
1010
0000
0000
1001
0000
,
1000
0001
1000
0001
1000
0001
1000
0001
1000
0001
1000
0001
1000
0001
1000
0001
1000
0001
1000
0001
1000
0001
1000
0001
,
0100
0001
0100
0001
0100
0001
0100
0001
0100
0001
0100
0001
0100
0001
0100
0001
0100
0001
0100
0001
0100
0001
0100
0001
,
0100
0010
0100
0010
0100
0010
0100
0010
0100
0010
0100
0010
0100
0010
0100
0010
0100
0010
0100
0010
0100
0010
0000
0000
,
0100
0100
0010
0100
0100
0010
0010
1000
,
0001
0000
0000
1000
0000
0000
0010
0000
0000
0100
0000
0000
0001
0000
0100
0000
0001
0000
0100
0000
0001
0000
0100
0000
0001
0000
0100
0000
0001
0000
0100
0000
0001
0000
0100
0000
0001
0000
0100
0000
0001
0000
0100
0000
0001
0000
0100
0000
,
0001
1000
0001
1000
0001
1000
0001
1000
0001
1000
0001
1000
0001
1000
0001
1000
0001
1000
0001
1000
0001
1000
0001
1000
,
0001
0010
0001
0010
0001
0010
0001
0010
0001
0010
0001
0010
0001
0010
0001
0010
0001
0010
0001
0010
0001
0010
0001
0010
,
0001
0000
1000
0000
0001
0000
1000
0000
0001
0000
1000
0000
0001
0000
1000
0000
0001
0000
1000
0000
0000
0001
0000
0000
0100
0000
0000
0010
0000
0000
1000
0000
0000
0100
0000
0000
1000
0000
0000
0001
0000
0000
0100
0000
0000
0001
0000
0000
,
0200
0000
0000
0000
0010
0000
0000
0000
0010
0000
0000
0000
0010
0000
0000
0300
,
0010
1000
0100
0000
1000
0100
1000
0000
,
0002
0000
0000
0000
0100
0000
0000
0000
0100
0000
0000
0000
0100
0000
0000
0003
,
0100
0001
0100
0000
0010
1000
0010
0000
,
1000
0100
0010
0001
0010
0100
1000
0100
0010
0001
0010
0100
1000
0100
0010
0001
,
0010
0100
1000
0100
0010
0001
0010
0100
1000
0100
0010
0001
0010
0100
1000
0100
,
0010
0001
1000
0010
0100
0001
0100
0010
1000
0010
0100
0001
0100
0010
1000
0010
,
0100
0001
0100
0010
1000
0010
0100
0001
0100
0010
1000
0010
0100
0001
0100
0010
,
4000
0000
0000
0000
0000
3000
0200
0000
2300
0000
3200
0000
2300
0000
3200
0000
,
2300
0000
0000
0000
0200
3000
0000
0000
0310
0001
0010
0100
1000
0001
1000
0001
,
1000
0100
0010
0001
0010
0100
0010
0001
1000
0100
0010
0100
1000
0100
0010
0100
,
1000
0001
1000
0010
0100
0001
1000
0010
0400
0000
0000
0000
0000
0000
0000
0300
,
0001
0001
1000
0100
0000
0010
0000
1000
,
0000
0010
0000
0001
1000
1000
0100
0010
,
0001
0001
0010
0100
0000
0010
0000
1000
,
0000
0010
0000
0001
0100
0100
0010
0100
,
0001
0001
1000
0010
0000
0100
0000
1000
,
0000
0100
0000
0001
0010
0100
0100
1000
,
0010
0010
0010
0100
0000
0010
0000
0001
,
0000
0010
0000
0100
0001
0001
1000
0010
,
0100
0100
0010
0100
0000
0010
0000
0001
,
0000
0010
0000
1000
0100
0100
0010
0001
,
0100
0100
0100
0001
0000
0010
0000
1000
,
0000
0010
0000
0001
1000
0001
0001
0100
,
0010
0010
0100
0001
0000
0100
0000
1000
,
0000
0100
0000
0001
0010
0010
0001
0100
,
0010
0010
0010
1000
0000
0100
0000
0001
,
0000
0000
0000
0100
0000
0000
1000
0100
1000
0100
1000
0100
1000
0100
0010
0100
0010
0100
0010
0001
0010
0001
0000
0000
,
2200
0000
0000
0000
0000
3300
2000
0000
0000
3000
0010
0000
0200
0000
0010
0000
,
0000
0000
0010
0000
0000
0000
0010
0000
0010
0000
0000
0000
0010
0000
0000
0300
,
0010
2000
3200
0320
0030
0002
0000
0000
,
0003
0000
2000
0000
0000
0000
0020
3000
0200
0030
0000
0300
0002
0000
0000
0003
,
0202
0000
0000
0000
0000
0000
0303
0000
0200
0000
0000
0300
0020
0000
2030
3000
,
0001
1000
0010
0100
0001
1000
0010
0100
,
0002
0000
0000
0000
2000
0003
0200
3000
0000
0300
0020
0000
0000
0000
0032
0000
,
0000
0000
2003
0000
0000
0000
3020
0000
0200
0030
0000
0300
0020
0000
0000
0030
,
0110
0000
0100
0000
0010
0000
2000
0000
0000
0000
0000
0000
0020
3000
0230
0000
,
0301
0010
0100
1000
0100
0010
0001
0010
,
0100
1000
0002
2003
3020
0230
0320
2030
,
3000
0000
0002
0000
0023
0000
0032
0003
1000
0000
0001
0000
1000
0000
0000
0000
,
1000
0001
1000
0001
1000
0001
1000
0001
1000
0001
1000
0001
1000
0001
1000
0001
1000
0001
1000
0001
1000
0001
1000
0001
,
1000
0100
1000
0100
1000
0100
1000
0100
1000
0100
1000
0100
1000
0100
1000
0100
1000
0100
1000
0100
1000
0100
1000
0100
,
0010
0001
0010
0001
0010
0001
0010
0001
0010
0001
0010
0001
0010
0001
0010
0001
0010
0001
0010
0001
0010
0001
0000
0000
,
0011
0000
0000
1001
0000
0000
0101
0000
,
0001
0100
0001
0100
0001
0100
0001
0100
0001
0100
0001
0100
0001
0100
0001
0100
0001
0100
0001
0100
0001
0100
0001
0100
,
0010
1000
0010
1000
0010
1000
0010
1000
0010
1000
0010
1000
0010
1000
0010
1000
0010
1000
0010
1000
0010
1000
0010
1000
,
0010
0100
0010
0100
0010
0100
0010
0100
0010
0100
0010
0100
0010
0100
0010
0100
0010
0100
0010
0100
0010
0100
0000
0000
,
0110
0000
0000
1010
0000
0000
0101
0000
,
1000
0001
1000
0001
1000
0001
1000
0001
1000
0001
1000
0001
1000
0001
1000
0001
1000
0001
1000
0001
1000
0001
1000
0001
,
0100
0001
0100
0001
0100
0001
0100
0001
0100
0001
0100
0001
0100
0001
0100
0001
0100
0001
0100
0001
0100
0001
0100
0001
,
0100
0010
0100
0010
0100
0010
0100
0010
0100
0010
0100
0010
0100
0010
0100
0010
0100
0010
0100
0010
0100
0010
0000
0000
,
0100
1000
0010
0100
0001
0010
0100
1000
,
0001
0000
0000
1000
0000
0000
0010
0000
0000
0100
0000
0000
0001
0000
0100
0000
0001
0000
0100
0000
0001
0000
0100
0000
0001
0000
0100
0000
0001
0000
0100
0000
0001
0000
0100
0000
0001
0000
0100
0000
0001
0000
0100
0000
0001
0000
0100
0000
,
0001
1000
0001
1000
0001
1000
0001
1000
0001
1000
0001
1000
0001
1000
0001
1000
0001
1000
0001
1000
0001
1000
0001
1000
,
0001
0010
0001
0010
0001
0010
0001
0010
0001
0010
0001
0010
0001
0010
0001
0010
0001
0010
0001
0010
0001
0010
0001
0010
,
0001
0000
1000
0000
0001
0000
1000
0000
0001
0000
1000
0000
0001
0000
1000
0000
0001
0000
1000
0000
0000
0001
0000
0000
0100
0000
0000
0010
0000
0000
1000
0000
0000
0100
0000
0000
1000
0000
0000
0001
0000
0000
0100
0000
0000
0001
0000
0000
,
1000
0010
1000
0010
1000
0010
1000
0010
1000
0010
1000
0010
1000
0010
1000
0010
1000
0010
1000
0010
1000
0010
1000
0010
,
1000
0001
1000
0001
1000
0001
1000
0001
1000
0001
1000
0001
1000
0001
1000
0001
1000
0001
1000
0001
1000
0001
1000
0001
,
0010
0001
0010
0001
0010
0001
0010
0001
0010
0001
0010
0001
0010
0001
0010
0001
0010
0001
0010
0001
0010
0001
0000
0000
,
0011
0000
0000
1001
0000
0000
1010
0000
,
0010
1000
0010
1000
0010
1000
0010
1000
0010
1000
0010
1000
0010
1000
0010
1000
0010
1000
0010
1000
0010
1000
0010
1000
,
0001
1000
0001
1000
0001
1000
0001
1000
0001
1000
0001
1000
0001
1000
0001
1000
0001
1000
0001
1000
0001
1000
0001
1000
,
0010
0100
0010
0100
0010
0100
0010
0100
0010
0100
0010
0100
0010
0100
0010
0100
0010
0100
0010
0100
0010
0100
0000
0000
,
0110
0000
0000
0101
0000
0000
1010
0000
,
1000
0010
1000
0010
1000
0010
1000
0010
1000
0010
1000
0010
1000
0010
1000
0010
1000
0010
1000
0010
1000
0010
1000
0010
,
1000
0100
1000
0100
1000
0100
1000
0100
1000
0100
1000
0100
1000
0100
1000
0100
1000
0100
1000
0100
1000
0100
1000
0100
,
0010
0001
0010
0001
0010
0001
0010
0001
0010
0001
0010
0001
0010
0001
0010
0001
0010
0001
0010
0001
0010
0001
0010
0001
,
0010
0001
0100
0010
1000
0001
0100
0010
,
1000
0000
0000
0100
0000
0000
0010
0000
0000
0001
0000
0000
1000
0000
0001
0000
1000
0000
0001
0000
1000
0000
0001
0000
1000
0000
0001
0000
1000
0000
0001
0000
1000
0000
0001
0000
1000
0000
0001
0000
1000
0000
0001
0000
1000
0000
0001
0000
,
1000
0010
1000
0010
1000
0010
1000
0010
1000
0010
1000
0010
1000
0010
1000
0010
1000
0010
1000
0010
1000
0010
1000
0010
,
0100
0001
0100
0001
0100
0001
0100
0001
0100
0001
0100
0001
0100
0001
0100
0001
0100
0001
0100
0001
0100
0001
0100
0001
,
1000
0001
1000
0001
1000
0001
1000
0001
1000
0001
1000
0001
1000
0001
1000
0001
1000
0001
1000
0001
1000
0001
1000
0001
,
1000
0100
0010
0100
0010
0100
0010
0100
0010
0100
0010
0100
0010
0100
0010
0100
0010
0100
0010
0100
0010
0100
0010
0100
,
1000
0010
1000
0010
1000
0010
1000
0010
1000
0010
1000
0010
1000
0010
1000
0010
1000
0010
1000
0010
1000
0010
1000
0010
,
0100
0001
0100
0001
0100
0001
0100
0001
0100
0001
0100
0001
0100
0001
0100
0001
0100
0001
0100
0001
0100
0001
0000
0000
,
0101
0001
0011
0010
0110
0100
1100
1000
,
2002
0000
0000
0000
,
3003
0000
0000
0000
;
