#TITLE:Massiveness;
#SUBTITLE:;
#ARTIST:Air Gear;
#TITLETRANSLIT:;
#SUBTITLETRANSLIT:;
#ARTISTTRANSLIT:;
#CREDIT:;
#BANNER:../Banner.png;
#BACKGROUND:../BG.png;
#LYRICSPATH:;
#CDTITLE:../CDTitleBobby.png;
#MUSIC:Air Gear OST II - 02 - Massiveness.ogg;
#OFFSET:-0.195;
#SAMPLESTART:33.528;
#SAMPLELENGTH:12.000;
#SELECTABLE:YES;
#BPMS:0.000=180.000;
#STOPS:;
#BGCHANGES:;
// cache tags:
#FIRSTBEAT:1.000;
#LASTBEAT:446.875;
#SONGFILENAME:Songs/Index Fusion - Part 2/Massiveness - [Bobbykaze]/Air Gear OST II - 02 - Massiveness.sm;
#HASMUSIC:1;
#HASBANNER:1;
#MUSICLENGTH:153.762;
// end cache tags

//---------------dance-single - ----------------
#NOTES:
     dance-single:
     :
     Challenge:
     16:
     1.000,1.000,0.312,0.195,1.000,1049.000,48.000,30.000,0.000,0.000:
0000
0010
0100
1001
,
0000
0100
0010
1001
,
0000
0010
1000
0011
,
0000
0100
0001
1100
,
0000
0100
0010
1010
,
0000
0010
0100
0101
,
0000
1000
0001
0110
,
0100
0000
0001
0000
1000
0000
0220
0300
,
0030
0001
0100
0011
,
0000
1000
0010
1100
,
0000
0010
0100
0011
,
0200
0000
0300
0000
0020
0030
0000
0000
1000
0000
0000
0000
0110
0000
0000
0000
,
0002
0003
0000
0000
1000
0000
0000
0000
0010
0000
0000
0000
1010
0000
0000
0000
,
0000
0010
1000
0101
,
0000
1000
0001
0110
,
1000
0001
0100
2002
,
3003
0010
1000
0011
,
0000
0010
0100
1010
,
0000
0100
0010
0000
1000
0000
0101
0000
,
0010
2000
0000
3020
,
0000
0130
0001
0000
1000
0000
0011
0000
,
0100
0010
0100
0001
,
1000
0000
0001
0000
0100
0000
0000
0010
1000
0000
0001
0000
0000
0000
0000
0000
,
0100
0000
0000
0000
0000
0000
0000
0000
0001
1000
0001
1000
0001
1000
0001
1000
0001
1000
0001
1000
0001
1000
0001
1000
0000
0000
0000
0000
0000
0000
0000
0000
,
0000
0000
0000
0000
0010
0100
0001
1000
0010
1000
0001
0100
0010
1000
0010
0100
,
0001
1000
0010
1000
0001
0010
0001
1000
0001
0100
0010
1000
0010
0100
0010
1000
,
0001
0010
0100
1000
0100
0010
0001
0100
0001
1000
0001
0100
0010
1000
0010
0100
,
0001
1000
0010
1000
0001
0010
0100
1000
0010
1000
0001
1000
0010
0100
0001
1000
,
0001
0100
0001
1000
0001
0010
0100
1000
0010
0100
0010
1000
0001
0100
0001
1000
,
0010
0100
0001
1000
0010
0100
0010
1000
0010
0100
0001
1000
0001
0100
0001
1000
,
0010
0100
0001
0100
0010
1000
0001
0100
0001
1000
0010
0100
0001
0010
0100
1000
,
0010
1000
0001
0100
0010
1000
0010
0100
0010
1000
0010
0100
0001
1000
0001
0100
,
0001
1000
0010
0100
0001
0010
0001
0100
0010
1000
0001
0100
0001
1000
0010
0100
,
0001
1000
0001
0100
0001
0010
0100
1000
0001
0100
0010
1000
0001
0100
0001
1000
,
0010
0100
0001
1000
0100
1000
0010
0100
0001
0100
0010
1000
0001
0010
0100
1000
,
0100
0010
0001
0100
0010
1000
0010
0100
0001
1000
0001
0100
0010
1000
0010
0100
,
0001
1000
0001
0000
0000
0000
0000
0000
0010
1000
0001
0100
0010
1000
0010
0100
,
0001
1000
0010
1000
0001
0010
0100
1000
0001
0100
0010
1000
0001
0100
0001
1000
,
0010
0100
0001
0010
0100
1000
0010
0100
0001
1000
0010
1000
0001
0100
0001
1000
,
0100
1000
0010
0100
0001
1000
0010
1000
0001
0010
0001
1000
0010
0100
0001
1000
,
0100
1000
0001
0100
0010
1000
0010
0100
0001
1000
0100
0010
0001
0010
0100
1000
,
0010
0100
0001
1000
0001
0010
0100
1000
0010
1000
0001
0010
0001
0100
0010
1000
,
0010
0100
0001
1000
0010
0100
0010
1000
0001
0100
0010
1000
0001
0010
0001
1000
,
0010
0100
0001
1000
0100
1000
0001
0100
0010
1000
0010
0100
0001
0010
0100
1000
,
0010
0100
0001
1000
0010
1000
0001
0100
0010
0100
0001
1000
0010
0100
0001
1000
,
0010
1000
0001
0100
0010
1000
0010
0100
0010
1000
0001
0010
0001
1000
0001
0100
,
0010
1000
0100
0010
0001
0100
0001
1000
0010
1000
0001
0100
0010
1000
0010
0100
,
0001
0010
0001
1000
0010
1000
0001
0100
0010
1000
0001
0100
0001
0010
0100
1000
,
0100
0010
0001
0000
0100
0000
0010
0000
1000
0000
0001
0000
0010
0000
0100
0001
,
1000
0000
0010
0000
0100
0000
0001
0000
1000
0000
0010
0000
1000
0000
0001
0100
,
0010
0000
1000
0000
0001
0000
0100
0000
0100
0010
1000
0001
1000
0001
0100
0000
,
0010
0000
0000
0000
0100
0001
1000
0000
1000
0010
0100
0000
0001
1000
0000
0000
,
0000
0000
0001
1000
0001
0000
0200
0000
0310
0000
1000
0000
0002
0000
0003
0000
,
1000
0001
1000
0001
0100
0000
0010
0000
0100
0000
0010
0000
0100
0000
0001
0000
,
1000
0000
1000
0000
0010
0100
0001
0000
0100
0000
0100
0000
0010
0000
1000
0001
,
0100
0001
1000
0001
0100
0000
0000
0000
0010
0000
0000
0000
2200
0000
0000
0000
,
3300
0100
0010
1001
,
0000
0010
0100
1001
,
0000
0100
0001
1100
,
0000
0010
1000
0011
,
0000
0010
0100
0101
,
0000
0100
0010
1010
,
0000
0001
1000
0110
,
0010
0000
1000
0000
0001
0000
0220
0030
,
0300
1000
0010
1100
,
0000
0001
0100
0011
,
0000
0100
0010
1100
,
0020
0000
0030
0000
0200
0300
0000
0000
0001
0000
0000
0000
0110
0000
0000
0000
,
2000
3000
0000
0000
0001
0000
0000
0000
0100
0000
0000
0000
0101
0000
0000
0000
,
0000
0100
0001
1010
,
0000
0001
1000
0110
,
0001
0000
0000
0000
0000
0000
0000
0000
1000
0001
1000
0001
1000
0001
1000
0001
1000
0001
1000
0001
1000
0001
1000
0001
0100
0000
0000
0000
0000
0000
0000
0000
,
0000
0000
0000
0000
0010
0100
0001
1000
0010
1000
0001
0100
0010
1000
0010
0100
,
0001
1000
0010
1000
0001
0010
0001
1000
0001
0100
0010
1000
0010
0100
0010
1000
,
0001
0010
0100
1000
0100
0010
0001
0100
0001
1000
0001
0100
0010
1000
0010
0100
,
0001
1000
0010
1000
0001
0010
0100
1000
0010
1000
0001
1000
0010
0100
0001
1000
,
0001
0100
0001
1000
0001
0010
0100
1000
0010
0100
0010
1000
0001
0100
0001
1000
,
0010
0100
0001
1000
0010
0100
0010
1000
0010
0100
0001
1000
0001
0100
0001
1000
,
0010
0100
0001
0100
0010
1000
0001
0100
0001
1000
0010
0100
0001
0010
0100
1000
,
0010
1000
0001
0100
0010
1000
0010
0100
0010
1000
0010
0100
0001
1000
0001
0100
,
0001
1000
0010
0100
0001
0000
0000
0000
0000
0000
0000
0000
0000
0000
0000
0000
,
0000
0000
0000
0000
0001
1000
0001
0100
0001
1000
0010
0100
0010
1000
0010
0100
,
0001
0010
0100
1000
0010
1000
0001
0100
0001
1000
0010
0100
0001
1000
0100
1000
,
0001
0100
0010
1000
0001
0010
0100
1000
0001
0100
0001
1000
0010
0100
0010
1000
,
0001
0010
0100
1000
0010
1000
0001
0100
0010
1000
0001
0100
0010
1000
0010
0100
,
0001
1000
0010
1000
0001
0010
0100
1000
0001
0100
0010
1000
0001
0100
0001
1000
,
0010
0100
0001
0010
0100
1000
0010
0100
0001
1000
0010
1000
0001
0100
0001
1000
,
0100
1000
0010
0100
0001
1000
0001
1000
0010
0100
0010
1000
0001
0100
0001
1000
,
0100
1000
0001
0100
0010
1000
0010
0100
0001
1000
0100
0010
0001
0010
0100
1000
,
0010
0100
0001
1000
0001
0010
0100
1000
0010
1000
0001
0010
0001
0100
0010
1000
,
0010
0100
0001
1000
0010
0100
0010
1000
0001
0100
0010
1000
0001
0010
0001
1000
,
0010
0100
0001
1000
0100
1000
0001
0100
0010
1000
0010
0100
0001
0010
0100
1000
,
0010
0100
0001
1000
0010
1000
0001
0100
0010
0100
0001
1000
0010
0100
0001
1000
,
0010
1000
0001
0100
0010
1000
0010
0100
0010
1000
0001
0010
0001
1000
0001
0100
,
0010
1000
0100
0010
0001
0100
0001
1000
0010
1000
0001
0100
0010
1000
0010
0100
,
0001
0010
0001
1000
0010
1000
0001
0100
0010
1000
0001
0100
0001
0010
0100
1000
,
0100
0010
0001
0000
0100
0000
0000
0000
0010
0000
0000
0000
1100
0000
0000
0000
,
0000
0010
0100
0021
,
0030
1000
0010
0000
0100
0000
1010
0000
,
0000
0010
1000
0101
,
0000
0010
0100
1001
,
0000
0100
0010
0120
,
0000
0130
0001
0000
1000
0000
0110
0000
,
0010
0000
1000
0000
0001
0000
0220
0030
,
0300
1000
0010
1100
,
0000
0001
0100
0021
,
0000
0031
0100
0000
0010
0000
1100
0000
,
0020
0030
0200
0300
0002
0000
0000
0000
0000
0000
0000
0000
0203
0000
0000
0000
,
0000
0310
1000
0011
,
0200
0300
0020
0030
1000
0000
0000
0000
0001
0000
0100
0000
0020
0000
0000
0000
,
0000
0030
0100
0000
0010
0100
0001
0000
,
1000
0000
0000
0000
0000
0000
0000
0000
0001
1000
0001
1000
0001
1000
0001
1000
0001
1000
0001
1000
0001
1000
0001
1000
0000
0000
0000
0000
0000
0000
0000
0000
,
0000
0000
0000
0000
,
0000
0000
0000
0000
,
0000
0000
0000
0000
,
0000
0000
0000
0000
;
