#TITLE:Over the Frail Dream;
#SUBTITLE:;
#ARTIST:Phantasma;
#TITLETRANSLIT:;
#SUBTITLETRANSLIT:;
#ARTISTTRANSLIT:;
#CREDIT:;
#BANNER:banner.png;
#BACKGROUND:bg.png;
#LYRICSPATH:;
#CDTITLE:cdtitle.png;
#MUSIC:over_the_frail_dream.mp3;
#OFFSET:-1.101;
#SAMPLESTART:17.083;
#SAMPLELENGTH:12.000;
#SELECTABLE:YES;
#BPMS:0.000=199.949;
#STOPS:;
#BGCHANGES:;
// cache tags:
#FIRSTBEAT:0.000;
#LASTBEAT:286.500;
#SONGFILENAME:Songs/IzzySM Keyboard Mega Pack/OtFD/Over the Frail Dream.sm;
#HASMUSIC:1;
#HASBANNER:1;
#MUSICLENGTH:90.548;
// end cache tags

//---------------dance-single - ----------------
#NOTES:
     dance-single:
     :
     Hard:
     11:
     1.000,1.000,0.331,0.177,1.000,756.000,30.000,16.000,0.000,0.000:
1000
0001
0100
0100
0010
1000
0010
0000
,
0100
0001
0100
0000
0100
0001
0100
0000
,
0001
1000
0001
0100
0100
0010
1001
0000
,
1100
0000
0000
0000
0101
0000
0000
0000
1000
0000
0001
0000
1000
0000
0010
1000
,
0010
0100
0001
1000
0100
0010
0001
0010
0001
0100
0001
0100
0010
0100
0001
0010
,
0001
1000
0010
0100
0001
1000
0100
0010
0001
0010
0100
1000
0010
0100
0001
1000
,
0100
0010
0100
1000
0010
0100
0001
0010
0100
1000
0100
0001
1100
0000
0000
0000
,
0110
0000
0000
0000
1100
0000
0000
0000
1000
0001
0010
0001
1000
0010
0100
0001
,
0100
0010
1000
0100
0010
0100
1000
0010
0100
0001
1000
0100
1000
0010
0100
0001
,
0100
0001
0010
0001
0100
0010
1000
0001
0100
0001
1000
0100
0010
0100
1000
0010
,
0100
0001
0010
0001
0100
0010
1000
0100
1000
0100
0010
0001
0100
0010
0100
0010
,
1000
0100
0010
1000
0010
0001
0100
0001
0100
0010
1000
0100
0010
0001
0010
0100
,
0010
0001
0100
0001
0100
0010
1000
0100
0010
0100
1000
0001
0100
0001
0010
0100
,
1000
0010
0100
0001
0010
0100
0010
0001
0100
0010
1000
0100
1000
0100
0010
0001
,
0100
0010
1000
0010
0100
0001
1000
0010
0100
0001
0100
0010
1000
0100
0010
0100
,
0010
0001
0100
0010
1000
0100
0010
0001
1000
0100
0010
0100
1000
0010
0100
0001
,
1000
0010
0100
0010
1000
0010
0100
0001
0010
0100
0010
0100
0001
1000
0010
0100
,
0010
1000
0100
0010
0001
0100
0010
0100
0001
0100
0010
1000
0001
0010
0100
1000
,
0001
0100
0010
1000
0100
1000
0010
0100
0001
0010
0100
1000
0010
1000
0010
0100
,
0001
1000
0100
0010
0100
1000
0010
0100
0001
0010
0100
1000
0010
1000
0001
1000
,
0001
0100
0010
1000
0001
0100
0010
0100
0001
0010
0100
1000
0010
1000
0010
0100
,
0001
1000
0010
0100
0001
1000
0100
0010
0001
0100
0001
1000
0010
0100
0010
1000
,
0100
1000
0100
1000
0010
0100
0001
0100
0010
1000
0100
1000
0001
0100
0010
1000
,
0001
0100
0010
0100
0001
1000
0100
0010
0001
1000
0010
0100
0001
1000
1001
0000
,
0010
0100
0001
0100
0010
1000
0001
0100
,
0010
1000
0001
0100
0010
1000
0100
1001
,
1000
0100
0001
0100
1000
0001
0100
0101
,
1000
0001
1000
0010
0100
0001
1000
1010
,
0100
0001
0100
1000
0010
0100
0001
1010
,
0100
0010
1000
0011
0010
1000
0001
1100
,
0001
0010
1000
0010
0001
0100
1000
0110
,
0001
0100
0001
1001
0010
0110
0100
1001
,
0100
0001
1000
0100
0010
1001
0100
0001
,
1000
0001
0100
1010
1000
0100
0010
0101
,
0001
0100
0001
1000
0010
1010
0100
0001
,
1000
0010
0100
1001
0100
1000
0001
0101
,
0010
1000
0100
0001
0100
1010
0100
0001
,
1000
0100
0010
0101
0010
1000
0010
0110
,
1000
0010
1000
0001
0100
0010
1000
0101
,
0001
0100
0010
1000
0010
1001
0000
0001
,
0000
1000
0001
1000
0001
0000
1000
0000
,
0001
1000
0001
0000
1000
0001
1000
0002
,
0000
0000
0000
0000
0003
1000
0002
0000
0000
0000
0000
0000
0000
0000
0000
0000
,
0003
0000
0000
0000
1000
0001
1000
0002
,
0000
0000
0000
0000
0000
0003
0001
0000
,
0001
0000
0001
1000
0001
1000
0001
2000
,
0000
0000
3001
0200
0000
0000
0000
0000
,
0000
0300
0000
0000
0000
0100
0000
2000
,
0000
0000
0000
3000
0001
1000
0001
2000
,
0000
0000
0000
3001
0000
1000
0000
0002
,
0000
0000
1003
0002
0000
0000
0000
0000
,
0000
0003
0000
1000
0000
0001
0000
2000
,
0000
0000
0000
3000
0001
1000
0001
2000
,
0000
0000
0000
3002
0000
0000
0000
2003
,
0000
0000
0000
0000
3000
0001
0000
2000
,
0000
0000
3000
0000
,
1000
0001
0100
0010
1000
0100
0010
0001
0100
0010
1000
0001
0100
0010
1000
0010
,
0001
0100
0001
0100
0001
1000
0100
0010
0100
1000
0001
0010
0100
1000
0100
0010
,
0100
0010
0001
0100
0001
0100
0001
1000
0100
0010
0001
0100
0010
0100
0001
0010
,
0001
0100
0001
0100
0001
0010
0100
1000
0010
0100
0001
0100
0010
1000
0001
0010
,
0100
1000
0010
0100
0010
0100
0001
0100
0010
1000
0100
0010
0001
1000
0100
0001
,
0010
0100
1000
0100
0010
0001
1000
0001
0100
0010
1000
0100
0010
0100
1000
0001
,
0100
0001
1000
0001
0010
0100
0010
0001
0100
0010
1000
0001
1000
0010
0100
0001
,
1000
0100
0010
0100
1000
0001
0100
0010
1000
0001
0010
0100
1000
0001
0100
0010
,
1000
0100
1000
0010
0100
0001
0010
0100
1000
0010
0100
0001
0010
0100
1000
0010
,
1000
0001
0010
0100
1000
0010
1000
0100
1000
0010
0100
0010
0001
1000
0001
1000
,
0100
1000
0010
0100
0001
0010
0001
1000
0100
1000
0010
0100
0001
0010
0100
1000
,
0010
0100
0001
1000
0010
0100
0001
1000
0010
1000
0100
1000
0010
0100
0001
0010
,
0100
1000
0010
0100
0001
0010
0100
1000
0100
0010
0100
0010
0001
0100
0001
0100
,
0010
0100
0010
0100
0010
1000
0010
1000
0010
1000
0100
0010
0001
1000
0100
1000
,
0010
0100
0001
0010
0100
1000
0010
1000
0001
0010
0100
1000
0010
0100
1000
0010
,
0101
0000
0220
0000
0000
0330
0000
0000
;
