#TITLE:Angels vs. Devils Remix;
#SUBTITLE:;
#ARTIST:odaxelagnia;
#TITLETRANSLIT:;
#SUBTITLETRANSLIT:;
#ARTISTTRANSLIT:;
#CREDIT:;
#BANNER:angels vs bn.png;
#BACKGROUND:angels vs bg.png;
#LYRICSPATH:;
#CDTITLE:;
#MUSIC:Angels vs Devils Remix.ogg;
#OFFSET:-2.879;
#SAMPLESTART:20.012;
#SAMPLELENGTH:12.000;
#SELECTABLE:YES;
#BPMS:0.000=300.000;
#STOPS:;
#BGCHANGES:;
// cache tags:
#FIRSTBEAT:24.000;
#LASTBEAT:559.000;
#SONGFILENAME:Songs/Speedcore Rejects/Angels vs Devils - [Tyler]/Angels vs Devils.sm;
#HASMUSIC:1;
#HASBANNER:1;
#MUSICLENGTH:116.480;
// end cache tags

//---------------dance-single - T. Moore----------------
#NOTES:
     dance-single:
     T. Moore:
     Challenge:
     14:
     1.000,1.000,0.438,0.000,0.240,808.000,51.000,0.000,36.000,0.000:
0000
0000
0000
0000
,
0000
0000
0000
0000
,
0000
0000
0000
0000
,
0000
0000
0000
0000
,
0000
0000
0000
0000
,
0000
0000
0000
0000
,
MMMM
0000
0000
0000
,
0000
0000
0000
0000
,
0000
0000
0000
0000
,
0000
0000
0000
0000
,
0000
0000
0000
0000
,
0000
0000
0000
0000
,
0000
0000
0000
0000
,
0000
0000
0000
0000
,
MMMM
0000
0000
0000
,
0000
0000
0000
0000
,
0000
0000
0000
0000
,
0000
0000
0000
0000
,
0000
0000
0000
0000
,
0000
0000
0000
0000
,
0001
0100
0010
1000
0001
1000
0010
0100
,
0001
0000
1000
0000
0100
0000
0010
0000
0001
1000
0001
1000
0001
1000
0001
1000
,
0001
0100
0010
1000
0001
1000
0010
0100
,
0001
1000
0100
0010
0001
0010
0100
1000
,
0001
1000
0010
0100
0010
1000
0001
0010
,
0100
1000
0001
0100
0010
0100
0001
1000
,
0100
0010
0001
0010
0100
1000
0001
0100
,
0010
1000
0001
1000
0010
0100
0001
1000
,
0100
1000
0001
0100
0010
0100
0001
1000
,
0100
1000
0100
0000
1000
0001
1000
0000
0001
0100
0001
0000
1000
0001
1000
0000
,
0100
0010
0001
0010
0100
1000
0001
0100
,
0010
0100
0001
1000
0010
1000
0001
0010
,
0100
1000
0001
0100
0010
0100
0001
1000
,
0100
0010
0001
0010
0100
1000
0001
1000
,
0010
1000
0001
0100
0010
0100
0001
1000
,
0010
1000
0001
0010
0100
0010
0001
1000
,
0010
1000
0001
1000
0010
0100
0001
1000
,
0100
0000
0010
0000
0001
0000
0010
0000
0100
1000
0100
0000
0040
0000
0000
0000
,
0031
0010
0100
1000
0010
1000
0100
0000
,
0010
0001
0100
0001
0010
0100
1000
0010
,
0100
0001
0010
0001
0100
0010
1000
0100
,
1000
0000
0010
0000
0100
0000
0001
0000
0010
0000
0001
0000
1000
0001
1000
0000
,
0010
0000
0100
0000
0001
0000
0010
0000
0001
0000
0100
0000
0010
0100
0010
0000
,
0100
0000
0001
0000
0010
0000
0100
0000
1000
0000
0010
0000
0100
0010
0100
0000
,
0010
1000
0001
1000
0010
0100
0001
1000
,
0001
0100
0010
1000
,
0001
0010
0001
0100
0001
0010
0100
0000
,
1000
0100
0010
0001
0100
0001
0010
0100
,
1000
0010
0100
0001
0010
0001
0100
0010
,
1000
0000
0100
0000
0010
0000
0001
0000
0100
0000
0001
0000
1000
0001
1000
0000
,
0001
0000
0100
0000
0010
0000
0100
0000
0001
0000
1000
0000
0100
1000
0100
0000
,
1000
0000
0001
0000
0100
0000
0001
0000
1000
0000
0100
0000
0010
0001
0010
0000
,
0100
1000
0001
1000
0010
0100
0010
1000
,
0001
0010
0100
1000
,
1001
0000
0101
0000
,
1010
0000
0000
0000
1001
0000
1000
0100
,
0110
0000
0011
0000
,
0001
0100
0001
0000
1000
0010
1000
0000
0001
1000
0001
0000
0010
0000
0001
0000
,
1001
0000
0101
0000
,
1010
0000
0000
0000
0110
0000
0100
0001
,
1001
0000
0110
0000
,
0001
0010
0001
0000
1000
0100
1000
0000
0001
1000
0001
0000
0100
0000
0010
0000
,
1010
0000
0101
0000
,
0011
0000
0000
0000
1100
0000
0100
0010
,
0011
0000
1100
0000
,
0001
0100
0001
0000
1000
0010
1000
0000
0001
1000
0001
0000
1000
0000
0100
0000
,
0110
0000
0101
0000
,
1100
0000
0000
0000
0011
0000
0001
0100
,
0101
0000
1010
0000
,
0400
0304
0403
0304
,
1003
0100
0010
0001
0100
0001
0010
0100
,
1000
0001
0100
0010
1000
0001
1000
0010
,
0100
0001
0010
0001
0100
0010
1000
0100
,
0010
0001
1000
0001
0010
0100
1000
0010
,
0100
0010
1000
0100
0010
0001
1000
0001
,
0010
0100
1000
0010
1000
0100
0010
0001
,
0100
0010
1000
0010
0100
0001
0010
0100
,
1000
0100
1000
0000
0001
0010
0001
0000
1000
0001
1000
0000
0010
1000
0010
0000
,
0100
0001
0010
0100
1000
0010
1000
0100
,
0010
0001
0100
0001
0010
0100
1000
0010
,
0100
0001
0010
0001
0100
0010
1000
0100
,
0010
0100
1000
0001
0100
0001
0010
0100
,
1000
0010
1000
0100
0010
0001
0100
0001
,
0010
0100
1000
0001
0100
0010
0100
0001
,
0010
0001
0100
0001
0010
0100
1000
0010
,
0100
0000
0001
0000
0100
0000
0010
0000
1000
0100
1000
0100
0040
0000
0000
0000
,
0031
0010
0100
1000
0010
1000
0100
0010
,
0001
0100
0001
0010
0001
0100
0001
0010
,
0100
1000
0001
0100
0010
0100
0001
0010
,
0100
1000
0100
0010
0001
0100
0010
0100
,
0001
0010
0100
1000
0010
1000
0001
0100
,
0010
0100
0001
0010
0100
1000
0001
0100
,
0010
1000
0100
1000
0010
0100
0001
0010
,
0001
1000
0001
0000
0100
0001
0100
0000
0010
1000
0010
0000
1000
0001
1000
0000
,
0001
0100
0010
0100
0001
0010
0100
0010
,
0001
0100
0010
1000
0100
1000
0010
0100
,
0001
0010
0100
0010
0001
0100
0010
1000
,
0001
0010
0100
1000
0001
1000
0100
0010
,
0001
0100
0010
1000
0100
1000
0010
0100
,
0001
0010
0100
0010
0001
0100
0010
0100
,
0001
1000
0100
1000
0001
0100
0010
1000
,
0100
1000
0100
0000
1000
0001
1000
0000
0001
0100
0001
0000
1000
0001
1000
0000
,
0010
1000
0100
1000
0010
1000
0001
0000
,
0100
0001
0010
0001
0100
0010
1000
0001
,
0010
0001
0100
0010
1000
0100
0010
0100
,
1000
0000
0001
0000
0100
0000
0010
0000
1000
0000
0010
0000
0100
0001
0100
0000
,
0010
0000
1000
0000
0001
0000
1000
0000
0010
0000
0100
0000
0001
1000
0001
0000
,
0100
0000
0010
0000
1000
0000
0010
0000
0100
0000
0001
0000
1000
0001
1000
0000
,
0001
1000
0100
0010
0001
0010
0100
1000
,
0001
0100
0010
1000
,
0001
0010
0001
0100
0010
1000
0100
0000
,
1000
0010
0100
0001
0010
0001
0100
0010
,
1000
0001
1000
0010
0100
0001
0010
0001
,
0100
0000
0010
0000
1000
0000
0001
0000
1000
0000
0010
0000
0100
0001
0100
0000
,
0010
0000
1000
0000
0100
0000
0010
0000
0001
0000
0010
0000
0100
1000
0100
0000
,
0010
0000
0001
0000
0100
0000
0010
0000
0100
0000
0001
0000
1000
0001
1000
0000
,
0001
0100
0010
1000
0100
1000
0010
1000
,
0100
0010
0001
1000
,
1001
0000
0101
0000
,
1010
0000
0000
0000
1100
0000
0100
0010
,
0011
0000
0110
0000
,
0100
1000
0100
0000
0010
0001
0010
0000
0100
1000
0100
0000
0010
0000
0001
0000
,
1001
0000
0101
0000
,
1010
0000
0000
0000
1001
0000
1000
0100
,
0110
0000
0011
0000
,
0001
0100
0001
0000
1000
0010
1000
0000
0001
0100
0001
0000
1000
0000
0010
0000
,
0110
0M00
1001
M000
,
0110
0000
0M00
0000
10M1
0000
100M
0010
,
0110
00M0
1001
000M
,
0100
1000
0100
0000
0010
0001
0010
0000
0100
1000
0100
0000
0010
0000
0001
0000
,
1001
M000
0101
000M
,
1010
0000
00M0
0000
M101
0000
00M1
1000
,
1100
0M00
0011
00M0
,
1000
0001
1000
0000
0010
1000
0010
0000
0100
0001
0100
0000
0001
0000
1000
0000
,
0M00
M000
000M
00M0
,
0000
M000
0M00
00M0
,
0000
0000
0000
0000
,
0000
0000
0000
0000
,
000M
00M0
0M00
M000
,
0000
000M
0M00
0M00
;
