#TITLE:bazzpitchers;
#SUBTITLE:- on the top (manox remix);
#ARTIST:Unknown artist;
#TITLETRANSLIT:;
#SUBTITLETRANSLIT:;
#ARTISTTRANSLIT:;
#CREDIT:bazzpitchers.linus;
#BANNER:bazzpitchers - on the top (manox remix)-banner.bmp;
#BACKGROUND:bazzpitchers - on the top (manox remix)-bg.bmp;
#LYRICSPATH:;
#CDTITLE:linuskCdTitle.png;
#MUSIC:bazzpitchers - on the top (manox remix).mp3;
#OFFSET:0.000;
#SAMPLESTART:99.980;
#SAMPLELENGTH:12.000;
#SELECTABLE:YES;
#BPMS:0.000=143.000,160.250=71.500,192.250=95.340,192.500=143.000;
#STOPS:;
#BGCHANGES:;
// cache tags:
#FIRSTBEAT:0.250;
#LASTBEAT:336.125;
#SONGFILENAME:Songs/toune 6/bazzpitchers - on the top (manox remix)/bazzpitchers - on the top (manox remix).sm;
#HASMUSIC:1;
#HASBANNER:1;
#MUSICLENGTH:310.601;
// end cache tags

//---------------dance-single - ----------------
#NOTES:
     dance-single:
     :
     Hard:
     8:
     0.408,0.473,0.663,0.258,0.914,601.000,206.000,80.000,0.000,31.000:
0000
0110
0000
0000
0000
1001
0000
0000
0000
1100
0000
0000
0000
0011
0000
0000
,
0000
1010
0000
0000
0000
0101
0000
0000
0000
0110
0000
0000
0000
1100
0000
0000
,
0000
1001
0000
0000
0000
0011
0000
0000
0000
0110
0000
0000
0000
1100
0000
0000
,
0000
0011
0000
0000
0000
0110
0000
0000
0000
0101
0000
0000
0000
1010
0000
0000
,
0000
0101
0000
0000
0000
2002
0000
0000
0000
3113
0000
0000
0000
0220
0000
0000
,
0000
1331
0000
0000
0000
2020
0000
0000
0000
3131
0000
0000
0000
0022
0000
0000
,
0000
1133
0000
0000
0000
2200
0000
0000
0000
3311
0000
0000
0000
0220
0000
0000
,
0000
1331
0000
0000
0000
2020
0000
0000
0000
3131
0000
0000
0000
1001
0000
0110
,
0000
1001
0000
0000
0000
0011
0000
0010
0000
1100
0000
0001
0000
0110
0000
0000
,
0000
1100
0000
0010
0000
1000
0000
0001
0000
0100
0000
1000
0000
0001
0000
0000
,
0000
1001
0000
0000
0000
0110
0000
0001
0000
1010
0000
0100
0000
0011
0000
0000
,
0000
1100
0000
0100
0000
0010
0000
0001
0000
0010
0000
0100
0000
1100
0000
0000
,
0000
0110
0000
0000
0000
0100
0000
0001
0000
1000
0000
0010
0000
0100
0000
0000
,
0000
1000
0000
1000
0000
0001
0000
1000
0000
0001
0000
0110
0000
1001
0000
0000
,
0000
1001
0000
0000
0000
0110
0000
0000
0000
1001
0000
0000
0000
0110
0000
0000
,
0000
0001
0000
1000
0000
1000
0000
0001
0000
0010
0000
0100
0000
0011
0000
0011
,
0000
1001
0000
0000
0000
0001
0000
1000
0000
0010
0000
0100
0000
1001
0000
0000
,
0000
0001
0000
0010
0000
1000
0000
0100
0000
0001
0000
0010
0000
1100
0000
0000
,
0000
0110
0000
0000
0000
0001
0000
0010
0000
0001
0000
1000
0000
0101
0000
0000
,
0000
0100
0000
0000
0000
1000
0000
0000
0000
0001
0000
1000
0000
0001
0000
0001
,
0000
0110
0000
0000
0000
1000
0000
0010
0000
0100
0000
0001
0000
1100
0000
0000
,
0000
0001
0000
0001
0000
0100
0000
0010
0000
1000
0000
0001
0000
0110
0000
0000
,
0000
1001
0000
0000
0000
0110
0000
0000
0000
1001
0000
0000
0000
0110
0000
0000
,
0000
0001
0000
0001
0000
1000
0000
1000
0000
0001
0000
0001
0000
0110
0000
0110
,
0000
1001
0000
0000
0000
0011
0000
0100
0000
0001
0000
0010
0000
1001
0000
0000
,
0000
0001
0000
0010
0000
0100
0000
1000
0000
0001
0000
0010
0000
1100
0000
0000
,
0000
0110
0000
0000
0000
1001
0000
0000
0000
0110
0000
0000
0000
1001
0000
0000
,
0000
0001
0000
1000
0000
0100
0000
0010
0000
0100
0000
0001
0000
0110
0000
0110
,
0000
1001
0000
0000
0000
0110
0000
0000
0000
0001
0000
1000
0000
0100
0000
0001
,
0000
0100
0000
0100
0000
0010
0000
1000
0000
0001
0000
0001
0000
1000
0000
0010
,
0000
0010
0000
0100
0000
0100
0000
0011
0000
0011
0000
1100
0000
0101
0000
1100
,
0000
1001
0000
0000
0000
0010
0000
0001
0000
1000
0000
0010
0000
1010
0000
0101
,
0000
0000
0000
0000
0000
0000
0000
0000
0000
0000
0000
0000
0010
0000
0000
0000
0000
0000
0000
0000
0000
0000
0000
0000
0000
0000
0000
0000
0000
0000
0000
0000
0100
0000
0000
0000
0000
0000
0000
0000
0000
0000
0000
0000
0000
0001
0000
0000
0000
0000
0000
0000
0000
0000
0000
0000
0000
0000
0000
0000
0000
0000
0000
0000
0000
0000
0000
0000
0000
0000
0000
0000
0000
0000
0000
0000
0000
0000
0000
0000
0000
0000
0000
0000
0001
0000
0000
0000
0000
0000
0000
0000
0000
0000
0000
0000
0000
0000
0000
0000
0000
0000
0000
0000
0000
0000
0000
0000
1000
0000
0000
0000
0000
0000
0000
0000
0000
0000
0000
0000
0000
0000
0000
0000
0000
0000
0000
0000
0000
0000
0000
0000
0010
0000
0000
0000
0000
0000
0000
0000
0000
0000
0000
0000
0000
0000
0000
0100
0000
0000
0000
0000
0000
0000
0000
0000
0000
0000
0000
0000
0000
0000
0000
0000
0000
0000
0000
0000
0000
0000
0000
0000
0000
0000
0000
0000
0000
0001
0000
0000
0000
0000
0000
0000
0000
0000
0000
0000
0000
0000
0000
0000
,
0000
0000
0000
0000
0100
0000
0000
0000
0000
0000
0000
0000
0000
1000
0000
0000
0000
0001
0000
0000
0000
0000
0000
0000
0000
0000
1000
0000
0000
0000
0000
0000
0000
0000
0000
0000
0010
0000
0000
0000
0000
0000
0000
0000
1000
0000
0000
0000
0000
0001
0000
0000
0000
0000
0000
0000
0000
0000
0000
0000
0100
0000
0000
0000
,
0000
0000
0000
0000
0000
0001
0000
0000
0000
0000
0000
0000
1000
0000
0000
0000
0000
0001
0000
0000
0000
0000
0000
0000
0000
0000
0000
0000
0100
0000
0000
0000
0000
0000
0000
0001
0000
0000
0000
0000
0000
0000
0000
0000
1000
0000
0000
0000
0010
0000
0000
0000
0000
0000
0000
0000
0000
0000
0000
0000
0100
0000
0000
0000
,
0000
0000
0011
0000
0000
0000
1010
0000
0000
0000
0110
0000
0000
0000
0000
1001
0000
0110
0000
0000
0000
0000
0000
0000
0000
0000
2002
0000
0000
0000
3003
0000
,
0000
0110
0000
1001
0000
0000
0000
0000
0000
0011
0000
1100
0000
0000
0000
0000
,
0000
0101
0000
1010
0000
0000
0000
0000
0000
1001
0000
1001
0000
0000
0000
0000
,
0000
0110
0000
1001
0000
0000
0000
1000
0000
0000
0000
1000
0000
0000
0000
1002
,
0000
0100
0000
0010
0000
0100
0000
1000
0000
0100
0000
0010
0000
0100
0000
1000
,
0000
1113
0000
0001
0000
0010
0000
1000
0100
0001
0000
0010
0000
0100
0010
1000
,
0001
0100
0001
1000
0010
1001
0000
0011
1100
0010
0000
0001
0000
0100
0000
1000
,
0001
2000
0000
0010
0000
3001
0000
1000
0010
2002
0000
0100
0000
3013
0100
0001
,
0010
0201
1000
0010
1000
0301
0000
0010
1000
0002
0000
1000
0000
1003
0000
1100
,
0000
0001
0000
2000
0000
3010
0000
0002
0100
1003
0000
0220
0000
0331
0010
0100
,
1000
0001
0010
0100
1000
0011
0100
1000
0100
1000
0001
0100
0010
1000
0010
1001
,
0000
0220
0000
1000
0001
1000
0001
1330
0000
0001
0010
0001
1000
0100
0010
1001
,
0000
0110
0000
1001
0000
0110
0000
1001
0000
0010
0010
0100
0100
0001
0001
0110
,
0110
0000
0001
0000
0000
0000
0000
0000
0000
1100
0000
0000
0000
0000
0000
0000
0000
0100
0000
0000
0000
0010
0000
0000
0000
0001
0000
0000
0000
1100
0000
0000
,
0000
0021
0000
0000
0000
0000
0000
0000
0000
0130
0000
0000
0000
0000
0000
0002
0000
0000
0000
0000
0000
0010
0000
0000
0000
0010
0000
0000
0000
0013
0000
0000
,
0000
0021
0000
0000
0000
0001
0000
0000
0000
0001
0000
0000
0000
0001
0000
0000
0000
1031
0000
0000
0000
0000
0000
0000
0000
1000
0000
0000
0000
1000
0000
0010
,
0000
0001
0000
0000
0000
0000
0000
0001
0000
1000
0000
0000
0000
0000
0000
1000
0000
0001
0000
0000
0000
0100
0000
0001
0000
1000
0000
0000
0000
0020
0000
0001
,
0000
0200
0000
0000
0000
0000
0000
0000
0000
0331
0000
0000
0000
0000
0000
0000
0000
0001
0000
0000
0000
0010
0000
0000
0000
0100
0000
0000
0000
1000
0000
0000
,
0000
2200
0000
0000
0000
0000
0000
0000
0000
3311
0000
0000
0000
0000
0000
0000
0000
1000
0000
0000
0000
0010
0000
0000
0000
0100
0000
0000
0000
0001
0000
0000
,
0000
0100
0000
0000
0000
0000
0000
0000
0000
2001
0000
0000
0000
0000
0000
0000
0000
0100
0000
0000
0000
0000
0000
0000
0000
3001
0000
0000
0000
1000
0000
0000
,
0000
0100
0000
0000
0000
1000
0000
0001
0000
0100
0000
1000
0000
0001
0000
1000
0000
0100
0000
1000
0000
0001
0000
0100
0000
1000
0000
0010
0000
0001
0000
1000
,
0000
0011
0000
0000
0000
0000
0000
0000
0000
1001
0000
0000
0000
0000
0000
0000
0000
0011
0000
0000
0000
1100
0000
0000
0000
0101
0000
0000
0000
2200
0000
0000
,
0000
0021
0000
0000
0000
0000
0000
0000
0000
3331
0000
0000
0000
0000
0000
1001
0000
1001
0000
0000
0000
1000
0000
0000
0000
0010
0000
0000
0000
0100
0000
0000
,
0000
1000
0000
0000
0000
0010
0000
0000
0000
0001
0000
0000
0000
1000
0000
0000
0000
0220
0000
0000
0000
0330
0000
0000
0000
1000
0000
0000
0000
0100
0000
1000
,
0000
0010
0000
0000
0000
0000
0000
1000
0000
0010
0000
0000
0000
0000
0000
0100
0000
0001
0000
0000
0000
0010
0000
1000
0000
0100
0000
0000
0000
0010
0000
0100
,
0000
1010
0000
0000
0000
0000
0000
0000
0000
0220
0000
0000
0000
0000
0000
0000
0000
1001
0000
0000
0000
1331
0000
0000
0000
0011
0000
0000
0000
1100
0000
0000
,
0000
2002
0000
0000
0000
0000
0000
0000
0000
3113
0000
0000
0000
0000
0000
0110
0000
0110
0000
0000
0000
0001
0000
0000
0000
0100
0000
0000
0000
0010
0000
0000
,
0000
1000
0000
0000
0000
0210
0000
0000
0000
0001
0000
0000
0000
1000
0000
0000
0000
0310
0000
0000
0000
0000
0000
0000
0000
1000
0000
0000
0000
0010
0000
0001
,
0000
1000
0000
0000
0000
0000
0000
1001
0000
0110
0000
0000
0000
0000
0000
0110
0000
1001
0000
0000
0000
1100
0000
0001
0000
0220
0000
0330
0000
0001
0000
1000
,
0000
0220
0000
0000
0000
0000
0000
0000
0000
1331
0000
0000
0000
0000
0000
0000
0000
0010
0000
0000
0000
1000
0000
0000
0000
0001
0000
0000
0000
0100
0000
0000
,
0000
0022
0000
0000
0000
0000
0000
0000
0000
1133
0000
0000
0000
0000
0000
0101
0000
1010
0000
0000
0000
0001
0000
0000
0000
0100
0000
0000
0000
0010
0000
0000
,
0000
1000
0000
0000
0000
0010
0000
0000
0000
0100
0000
0000
0000
0001
0000
0000
0000
2200
0000
0000
0000
3300
0000
0000
0000
1100
0000
0000
0000
0100
0000
0010
,
0000
1000
0000
0000
0000
0000
0000
0010
0000
0100
0000
0000
0000
0000
0000
0010
0000
1000
0000
0000
0000
0001
0000
0100
0000
1000
0000
0000
0000
0010
0000
0100
,
0000
0020
0000
0000
0000
0000
0000
0000
0000
1030
0000
0000
0000
0000
0000
0000
0000
1000
0000
0000
0000
0100
0000
0000
0000
0001
0000
0000
0000
0010
0000
0000
,
0000
2020
0000
0000
0000
0000
0000
0000
0000
3130
0000
0000
0000
0000
0000
0011
0000
0200
0000
0000
0000
0001
0000
0000
0000
0010
0000
0000
0000
1000
0000
0000
,
0000
0001
0000
0000
0000
1000
0000
0000
0000
0010
0000
0000
0000
1000
0000
0000
0000
0311
0000
0000
0000
0000
0000
0000
0000
0001
0000
0000
0000
0100
0000
0001
,
0000
0010
0000
0000
0000
0000
0000
0001
0000
1000
0000
0000
0000
0000
0000
0001
0000
1000
0000
0000
0000
0100
0000
0010
0000
1000
0000
0000
0000
0100
0000
0001
,
0000
0200
0000
0000
0000
0000
0000
0000
0000
0310
0000
0000
0000
0000
0000
0000
0000
1100
0000
0000
0000
0110
0000
0000
0000
0011
0000
0000
0000
0110
0000
0000
,
0000
2200
0000
0000
0000
0000
0000
0000
0000
3311
0000
0000
0000
0000
0000
1001
0000
0110
0000
0000
0000
1001
0000
0000
0000
0110
0000
0000
0000
0011
0000
0000
,
0000
1100
0000
0000
0000
0001
0000
0000
0000
1000
0000
0000
0000
0001
0000
0000
0000
1000
0000
0000
0000
0000
0000
0000
0000
0010
0000
0000
0000
0100
0000
0001
,
0000
0100
0000
0000
0000
0000
0000
0100
0000
1000
0000
0000
0000
0000
0000
0010
0000
0001
0000
0000
0000
0100
0000
0001
0000
1000
0000
0000
0000
0001
0000
1000
,
0000
0220
0000
0000
0000
0000
0000
0000
0000
1331
0000
0000
0000
0000
0000
0000
0000
0100
0000
0000
0000
0110
0000
0000
0000
0010
0000
0000
0000
0110
0000
0000
,
0000
2002
0000
0000
0000
0000
0000
0000
0000
3113
0000
0000
0000
0000
0000
1001
0000
1001
0000
0000
0000
1000
0000
0000
0000
0001
0000
0000
0000
0100
0000
0000
,
0000
0001
0000
0000
0000
0010
0000
0000
0000
0001
0000
0000
0000
0100
0000
0000
0000
2000
0000
0000
0000
0000
0000
0000
0000
0010
0000
0000
0000
0001
0000
0100
,
0000
0010
0000
0000
0000
0000
0000
0010
0000
0100
0000
0000
0000
0000
0000
0010
0000
3100
0000
0000
0000
1000
0000
0001
0000
0100
0000
0000
0000
0010
0000
0001
,
0000
0220
0000
0000
0000
0330
0000
0000
0000
1001
0000
0000
0000
0000
0000
0000
0000
2002
0000
0000
0000
3003
0000
0000
0000
0110
0000
0000
0000
0000
0000
0000
,
0000
2200
0000
0000
0000
3300
0000
0000
0000
0011
0000
0000
0000
0000
0000
0000
0000
0022
0000
0000
0000
0033
0000
0000
0000
1100
0000
0000
0000
0000
0000
0000
,
0000
2020
0000
0000
0000
3030
0000
0000
0000
0101
0000
0000
0000
0000
0000
0000
0000
0220
0000
0000
0000
0330
0000
0000
0000
0110
0000
0000
0000
0000
0000
0000
,
0000
2002
0000
0000
0000
3003
0000
0000
0000
1001
0000
0000
0000
0000
0000
0000
0000
1001
0000
0000
0000
0000
0000
0000
0000
1001
0000
0000
0000
0110
0000
0000
,
0000
1001
0000
0000
0000
0000
0000
0000
0000
0000
0000
0000
0000
0000
0000
0000
0000
0000
0000
0000
0000
0000
0000
0000
0000
0000
0000
0000
0000
0000
0000
0000
;
