#TITLE:Citation;
#SUBTITLE:;
#ARTIST:GARRY HEANEY;
#TITLETRANSLIT:;
#SUBTITLETRANSLIT:;
#ARTISTTRANSLIT:;
#CREDIT:;
#BANNER:../BN.png;
#BACKGROUND:../BG.png;
#LYRICSPATH:;
#CDTITLE:../CDTitleBRAEDEN.png;
#MUSIC:citation.ogg;
#OFFSET:-0.068;
#SAMPLESTART:62.590;
#SAMPLELENGTH:12.000;
#SELECTABLE:YES;
#BPMS:0.000=138.000;
#STOPS:;
#BGCHANGES:;
// cache tags:
#FIRSTBEAT:0.000;
#LASTBEAT:224.000;
#SONGFILENAME:Songs/Index Gradation/Citation - [Braeden]/citation.sm;
#HASMUSIC:1;
#HASBANNER:1;
#MUSICLENGTH:101.865;
// end cache tags

//---------------dance-single - ----------------
#NOTES:
     dance-single:
     :
     Challenge:
     22:
     1.000,1.000,0.029,0.353,1.000,820.000,3.000,36.000,8.000,12.000:
1000
0000
0100
0000
0010
0000
0100
0000
1000
0000
0001
0000
0100
0000
0010
0000
0100
0000
0001
0000
0100
0000
0010
0000
1000
0000
0001
0000
1000
0100
0010
0001
,
1000
0000
0001
0000
0010
0000
0100
0000
1000
0000
0001
0000
0100
0000
0010
0000
0100
0000
0001
0000
0010
0000
0001
0000
1000
0000
0100
0000
0010
0000
0001
1000
,
0100
0000
0010
0000
0001
0000
0010
0000
0100
0000
1000
0000
0001
0000
0100
0000
0010
0000
0100
0000
0001
0000
1000
0000
0001
0000
0100
0000
0010
1000
0001
0100
,
0010
0000
0100
0000
0001
0000
0010
0000
0100
0000
1000
0000
0001
0000
0100
0000
0010
0000
1000
0000
0100
0000
0010
0000
0100
0000
1000
0000
0001
0100
0010
1000
,
0001
0000
1000
0000
0100
0010
0001
0010
0100
0000
1000
0000
0001
0010
0100
1000
0001
0000
0100
0000
0010
1000
0001
0010
0100
0000
0010
0000
0001
1000
0010
0100
,
0001
0000
1000
0000
0100
0010
0001
0010
0100
0000
1000
0000
0001
0010
0100
1000
0001
0000
0100
0000
0010
1000
0001
0010
0100
0000
1000
0000
0001
0100
0010
1000
,
0001
0000
0100
0000
0010
1000
0001
0010
0100
0000
1000
0000
0001
0100
0010
1000
0001
0000
0010
0000
0100
1000
0001
0100
0010
0000
1000
0000
0100
0010
0100
1000
,
0001
0000
0100
0000
0010
1000
0001
0010
0100
0000
1000
0000
0001
0100
0010
1000
0001
0000
0010
0000
0100
1000
0001
0100
0010
0000
1000
0000
0100
0010
0100
1000
,
0001
0010
0100
1000
0001
0100
0010
0100
0001
0010
0001
1000
0100
0010
0001
0010
,
0100
1000
0100
0010
0001
0100
0010
1000
0001
0010
0100
1000
0001
0100
0010
0000
,
1000
0100
0000
0100
0010
0000
0000
0001
0000
0100
0000
0010
1000
0000
0000
0100
,
0000
0010
0000
0001
0010
0000
0000
0100
0000
1000
0000
0100
0020
0000
0030
0100
,
0000
1000
0000
0001
0200
0000
0000
0310
0000
1000
0000
0100
0020
0000
0000
0031
,
0000
0100
0000
0010
2000
0000
0000
3100
0000
0010
0000
0001
0020
0000
0000
0031
,
0000
0100
0000
0010
2000
0000
0000
3001
0000
0100
0000
0010
2000
0000
0000
3100
,
0000
0010
0000
0001
0020
0000
0000
0130
0000
1000
0000
0001
0020
0000
0000
0130
,
1000
0000
0100
0010
0001
0000
0100
0010
0100
0000
0001
0010
0100
0000
1000
0001
,
0100
0000
0010
1000
0001
0000
0100
0010
0100
0000
0001
0100
0010
0000
1000
0100
,
0010
0001
0000
1000
0010
0000
0100
0001
0000
0100
0000
0010
1000
0000
0001
0100
,
0000
0000
0010
0000
0000
0000
1000
0000
0100
0000
0000
0000
0010
0000
0100
0000
0000
0000
1000
0000
0000
0000
0001
0000
0100
0000
0000
0000
0010
1000
0010
1000
,
0010
0000
0000
0000
0100
0000
0001
0000
0100
0000
0000
0000
0001
0010
0100
0010
0001
0000
0000
0000
1000
0000
0100
0000
1000
0000
0000
0000
0001
0010
0100
1000
,
0010
0000
0100
0001
0100
0000
0010
1000
0010
0000
0100
0001
0010
0000
0100
1000
,
0001
0000
0100
0010
1000
0000
0001
0010
0100
0000
1000
0001
0100
0000
0010
1000
,
0001
0100
0010
1000
0001
0010
0100
1000
0001
0010
0001
1000
0100
0010
0100
1000
0001
0010
0100
1000
0001
0100
0010
0100
0001
0010
0001
1000
0010
1000
0001
0010
,
0100
1000
0001
0010
0001
1000
0100
0010
0100
1000
0001
0010
0100
1000
0001
0010
0001
0100
0010
1000
0001
0010
0001
0100
0010
0100
0001
1000
0100
0010
0001
0010
,
0100
1000
0001
0100
0010
1000
0001
0010
0100
1000
0001
0010
0001
1000
0100
0010
0100
0010
0001
0100
0010
1000
0001
0010
0100
1000
0001
0100
0010
1000
0100
0010
,
0001
1000
0010
1000
0001
0010
0001
1000
0100
0010
0100
1000
0010
0100
0001
1000
0100
0010
0001
0010
0100
1000
0001
0100
0010
0100
0001
0010
0001
1000
0100
0010
,
0100
1000
0001
0010
0100
1000
0001
0010
0001
1000
0100
0010
1000
0001
0010
0100
1000
0001
0100
0010
0100
0001
0010
0001
1000
0100
0010
0100
1000
0001
0010
0100
,
1000
0001
0100
0010
1000
0100
0010
1000
0001
0010
0100
1000
0001
0100
0010
1000
0100
0010
0001
0010
0100
1000
0001
0100
0010
0100
0001
0010
0001
0100
0010
1000
,
0001
0010
0100
1000
0001
0100
0010
1000
0100
0010
0001
0100
0010
0100
0001
0010
0100
1000
0001
0100
0010
1000
0100
0010
0100
1000
0001
0010
0100
1000
0001
0100
,
0010
1000
0100
0010
0100
0010
0001
0010
0100
1000
0001
0010
0100
1000
0100
0010
0100
1000
0001
0010
0100
1000
0001
0010
0100
1000
0001
0010
0100
1000
0001
0010
,
0100
0010
0000
0001
0000
0100
0010
0000
1000
0100
0000
1000
0000
0010
0100
0000
,
2002
0000
0000
0000
3000
0000
0000
0000
M003
0000
0000
0000
100M
0000
0000
0010
,
0000
0010
0000
0100
0002
0000
0000
0103
0000
0100
000M
0100
0020
0000
0000
1030
,
0000
0001
00M0
1000
0100
0000
0000
1000
0000
0001
0000
0100
0020
0000
0000
1030
,
00M0
0100
0000
1000
0002
0000
0000
1003
000M
0100
0000
0010
0200
0000
0000
0301
,
0000
1000
0M00
0001
0020
0000
0000
0031
0000
1M00
0000
0001
0020
0000
0000
0130
,
0000
1000
0000
0001
0200
0000
0000
0310
0000
1000
0000
0100
0010
0000
0000
0100
,
0000
0010
0000
1000
0100
0000
0000
0010
0000
0100
0000
1000
0001
0000
0000
0100
,
0000
0010
0000
1000
0100
0000
0000
0010
0000
0100
0000
1000
0010
0000
0000
0100
,
0000
0001
0000
0100
0010
0000
0000
1000
0000
0100
0000
0010
0001
0000
0100
0000
,
0002
0200
0020
1333
,
0002
0020
0200
1333
,
0020
0200
0002
1333
,
0002
0200
1000
1303
,
0200
0020
0002
1333
,
0020
0200
1000
1330
,
0000
1000
0000
0000
0100
0000
0000
0010
0000
0010
0000
0000
0001
0000
0000
0000
,
1001
0000
0001
0100
0010
0000
1000
0100
0010
0100
1000
0001
0100
0010
0100
0001
,
0010
0001
1000
0100
0010
0100
1000
0001
0010
0100
1000
0001
0100
0010
0100
0001
,
0010
0001
1000
0100
0010
0100
1000
0001
0100
0010
0100
0001
0010
0001
1000
0100
,
0010
0100
1000
0001
0010
0100
1000
0001
0100
0010
0100
0001
0010
0001
1000
0100
,
0010
0000
0001
1000
0001
0000
0100
0010
0100
0001
0100
0010
1000
0100
0010
0100
,
1000
0001
0010
0100
1000
0001
0100
0010
0100
0001
0010
0001
0100
0010
1000
0100
,
0010
0100
1000
0001
0100
0010
1000
0001
0010
0100
1000
0001
0100
0010
0100
0001
,
0010
0001
1000
0100
0010
0100
1002
0003
0010
0100
1000
0001
0010
0001
1000
0010
,
0100
0000
0000
0000
;

//---------------dance-single - ----------------
#NOTES:
     dance-single:
     :
     Hard:
     13:
     0.976,1.000,0.029,0.353,1.000,657.000,3.000,36.000,8.000,12.000:

1000
0000
0100
0000
0010
0000
0100
0000
1000
0000
0001
0000
0100
0000
0010
0000
0100
0000
0001
0000
0100
0000
0010
0000
1000
0000
0001
0000
1000
0100
0010
0001
,
1000
0000
0001
0000
0010
0000
0100
0000
1000
0000
0001
0000
0100
0000
0010
0000
0100
0000
0001
0000
0010
0000
0001
0000
1000
0000
0100
0000
0010
0000
0001
1000
,
0100
0000
0010
0000
0001
0000
0010
0000
0100
0000
1000
0000
0001
0000
0100
0000
0010
0000
0100
0000
0001
0000
1000
0000
0001
0000
0100
0000
0010
1000
0001
0100
,
0010
0000
0100
0000
0001
0000
0010
0000
0100
0000
1000
0000
0001
0000
0100
0000
0010
0000
1000
0000
0100
0000
0010
0000
0100
0000
1000
0000
0001
0100
0010
1000
,
0001
0010
0100
1000
0001
0100
0010
0100
0001
1000
0100
0010
0100
1000
0001
0010
,
0001
1000
0010
0100
0001
0010
0001
1000
0100
0010
0100
1000
0001
0100
0010
1000
,
0001
0010
0100
1000
0001
0100
0010
1000
0100
0010
0100
1000
0001
0100
0010
1000
,
0100
0010
0100
1000
0001
0100
0010
1000
0001
1000
0010
0100
0010
0000
0000
0000
,
1000
0100
0010
0001
1000
0010
0100
0010
1000
0100
1000
0001
0010
0100
1000
0100
,
0010
0001
0010
0100
1000
0010
0100
0001
1000
0100
0010
0001
1000
0010
0100
0000
,
0001
0100
0000
0100
0010
0000
0000
0001
0000
0100
0000
0010
1000
0000
0000
0100
,
0000
0010
0000
0001
0010
0000
0000
0100
0000
1000
0000
0100
0020
0000
0030
0100
,
0000
1000
0000
0001
0200
0000
0000
0310
0000
1000
0000
0100
0020
0000
0000
0031
,
0000
0100
0000
0010
2000
0000
0000
3100
0000
0010
0000
0001
0020
0000
0000
0031
,
0000
0100
0000
0010
2000
0000
0000
3001
0000
0100
0000
0010
2000
0000
0000
3100
,
0000
0010
0000
0001
0020
0000
0000
0130
0000
1000
0000
0001
0020
0000
0000
0130
,
1000
0000
0100
0010
0001
0000
0100
0010
0100
0000
0001
0010
0100
0000
1000
0001
,
0100
0000
0010
1000
0001
0000
0100
0010
0100
0000
0001
0100
0010
0000
1000
0100
,
0010
0001
0000
1000
0010
0000
0100
0001
0000
0100
0000
0010
1000
0000
0001
0100
,
0000
0000
0010
0000
0000
0000
1000
0000
0100
0000
0000
0000
0010
0000
0100
0000
0000
0000
1000
0000
0000
0000
0001
0000
0100
0000
0000
0000
0010
1000
0010
1000
,
0010
0000
0000
0000
0100
0000
0001
0000
0100
0000
0000
0000
0001
0010
0100
0010
0001
0000
0000
0000
1000
0000
0100
0000
1000
0000
0000
0000
0001
0010
0100
1000
,
0010
0000
0100
0001
0100
0000
0010
1000
0010
0000
0100
0001
0010
0000
0100
1000
,
0001
0000
0100
0010
1000
0000
0001
0010
0100
0000
1000
0001
0100
0000
0010
1000
,
0001
0100
0010
1000
0001
0010
0100
1000
0001
0100
0010
0100
0001
1000
0100
0010
,
0100
1000
0001
0100
0010
1000
0100
0010
0100
1000
0001
0100
0010
0100
0001
0010
,
0001
1000
0100
0010
0100
1000
0001
0100
0010
1000
0100
0010
0100
1000
0001
0100
,
0010
0100
0001
0010
0001
1000
0100
0010
0100
1000
0001
0100
0010
1000
0001
0010
,
0100
1000
0001
0100
0010
1000
0100
0010
0100
1000
0001
0100
0010
0100
0001
1000
,
0100
0010
0100
1000
0001
0100
0010
1000
0100
0010
0100
1000
0001
0100
0010
1000
,
0100
0010
0100
1000
0001
0100
0010
1000
0100
0010
0100
1000
0001
0100
0010
1000
,
0100
0010
0100
1000
0001
0100
0010
1000
0001
0010
0100
1000
0001
0100
0010
1000
,
0100
0010
0000
0001
0000
0100
0010
0000
1000
0100
0000
1000
0000
0010
0100
0000
,
2002
0000
0000
0000
3000
0000
0000
0000
M003
0000
0000
0000
100M
0000
0000
0010
,
0000
0010
0000
0100
0002
0000
0000
0103
0000
0100
000M
0100
0020
0000
0000
1030
,
0000
0001
00M0
1000
0100
0000
0000
1000
0000
0001
0000
0100
0020
0000
0000
1030
,
00M0
0100
0000
1000
0002
0000
0000
1003
000M
0100
0000
0010
0200
0000
0000
0301
,
0000
1000
0M00
0001
0020
0000
0000
0031
0000
1M00
0000
0001
0020
0000
0000
0130
,
0000
1000
0000
0001
0200
0000
0000
0310
0000
1000
0000
0100
0010
0000
0000
0100
,
0000
0010
0000
1000
0100
0000
0000
0010
0000
0100
0000
1000
0001
0000
0000
0100
,
0000
0010
0000
1000
0100
0000
0000
0010
0000
0100
0000
1000
0010
0000
0000
0100
,
0000
0001
0000
0100
0010
0000
0000
1000
0000
0100
0000
0010
0001
0000
0100
0000
,
0002
0200
0020
1333
,
0002
0020
0200
1333
,
0020
0200
0002
1333
,
0002
0200
1000
1303
,
0200
0020
0002
1333
,
0020
0200
1000
1330
,
0000
1000
0000
0000
0100
0000
0000
0010
0000
0010
0000
0000
0001
0000
0000
0000
,
1001
0000
0001
0100
0010
0000
1000
0100
0010
0100
1000
0001
0100
0010
0100
0001
,
0010
0001
1000
0100
0010
0100
1000
0001
0010
0100
1000
0001
0100
0010
0100
0001
,
0010
0001
1000
0100
0010
0100
1000
0001
0100
0010
0100
0001
0010
0001
1000
0100
,
0010
0100
1000
0001
0010
0100
1000
0001
0100
0010
0100
0001
0010
0001
1000
0100
,
0010
0000
0001
1000
0001
0000
0100
0010
0100
0001
0100
0010
1000
0100
0010
0100
,
1000
0001
0010
0100
1000
0001
0100
0010
0100
0001
0010
0001
0100
0010
1000
0100
,
0010
0100
1000
0001
0100
0010
1000
0001
0010
0100
1000
0001
0100
0010
0100
0001
,
0010
0001
1000
0100
0010
0100
1002
0003
0010
0100
1000
0001
0010
0001
1000
0010
,
0100
0000
0000
0000
;
