#TITLE:Summer Vacation;
#SUBTITLE:(CU MIX);
#ARTIST:OutPhase;
#TITLETRANSLIT:;
#SUBTITLETRANSLIT:;
#ARTISTTRANSLIT:;
#CREDIT:;
#BANNER:Summer Vacation (CU Mix).png;
#BACKGROUND:Summer Vacation (CU Mix)-bg.png;
#LYRICSPATH:;
#CDTITLE:!toph-cdtitle.png;
#MUSIC:OutPhase - Summer Vacation (CU Mix).mp3;
#OFFSET:-0.478;
#SAMPLESTART:59.050;
#SAMPLELENGTH:14.200;
#SELECTABLE:YES;
#BPMS:0.000=135.000;
#STOPS:191.500=0.460
;
#BGCHANGES:;
// cache tags:
#FIRSTBEAT:0.000;
#LASTBEAT:227.000;
#SONGFILENAME:Songs/StepmaniaFreak's Favorites/Summer Vacation (CU Mix)/Summer Vacation (CU Mix).sm;
#HASMUSIC:1;
#HASBANNER:1;
#MUSICLENGTH:104.182;
// end cache tags

//---------------dance-single - ----------------
#NOTES:
     dance-single:
     :
     Hard:
     12:
     1.000,1.000,1.000,0.019,1.000,761.000,218.000,2.000,0.000,0.000:
0100
0000
0000
0000
0100
0000
0010
0001
1000
0010
0100
0000
0001
0000
1000
0100
,
0010
0000
0000
0000
0010
0001
1000
0100
0010
0100
1000
0000
0001
0010
0100
0000
,
1000
0100
1000
0100
0010
0100
1000
0001
0100
0010
1000
0000
0001
0010
0100
1000
,
0001
0000
0000
0000
0100
0000
0010
0000
1000
0000
0100
0000
0010
0000
0000
0000
0001
0000
0010
0100
1000
0000
0000
0000
0001
0000
1000
0000
0010
0000
1000
0000
,
0101
0000
0000
0000
1100
0000
0010
0001
0100
0001
1000
0000
0110
0000
0001
0000
,
1000
0010
1000
0010
0100
0010
1000
0010
1000
0010
0100
0000
0001
0010
0100
0000
,
1001
0000
0000
1000
0010
0100
0001
0010
0001
0100
0010
0000
1000
0001
0010
0000
,
0100
1000
0100
1000
0100
1000
0100
1000
0100
1000
0000
0000
0011
0000
0000
0000
,
1001
0000
0010
0000
0101
0000
1000
0100
1000
0001
1001
0000
0011
1000
0100
1000
,
0001
0100
0001
0100
1001
0100
0001
0100
0010
1000
1100
0000
0100
0011
1000
0010
,
0101
0000
1010
0000
0101
0000
1010
0001
1000
0001
0101
0000
1010
0001
0010
0001
,
1100
0010
0100
0010
1100
0010
0100
0010
0100
0010
0100
0010
1100
0001
0010
0100
,
1001
0000
0010
1000
0101
0000
0010
1000
0100
1000
1001
0000
0011
0100
1000
0100
,
0010
0001
0010
0001
1010
0001
0010
1001
0100
0010
0011
0000
1100
0001
0010
0001
,
0110
0000
0010
0001
1100
0000
0010
0001
1000
0010
0110
0000
1001
0100
0010
0100
,
1001
0100
1000
0100
1010
0100
1000
0100
1000
0100
1000
0100
1010
0100
1000
0100
,
1000
0100
1000
0100
1010
0100
1000
0100
1000
0100
2002
0000
3003
0100
0010
0100
,
1001
0000
0000
0010
0000
0000
0101
0000
0000
0010
0000
0100
1000
0000
1000
0001
0000
0000
0110
0000
0001
0010
0000
0001
,
1100
0000
0000
0010
0000
0000
1001
0000
0000
0010
0000
0100
0001
0000
0001
0010
0000
0000
1100
0000
0001
0010
0000
0001
,
1100
0000
0000
0100
0000
0000
0011
0000
0000
0001
0000
0100
0010
0000
0010
1000
0000
1000
0011
0000
0100
1000
0000
0100
,
1001
0000
0000
0010
0000
0000
1100
0000
0000
0001
0000
0100
0010
0000
0010
1000
0000
0100
1001
0000
0000
0110
0000
0000
,
0101
0000
0000
1010
0000
0000
0101
0000
0000
1010
0000
0001
1100
0000
1000
0101
0000
0000
1010
0000
0001
0010
0000
0001
,
1100
0000
0000
0011
0000
0100
1001
0000
0000
0011
0000
1000
0101
0000
0001
1010
0000
0000
1100
0000
0010
0001
0000
0010
,
1100
0000
0000
0110
0000
0001
1100
0000
0000
1001
0000
0001
0110
0000
0010
1100
0000
0000
1001
0000
0100
0010
0000
0100
,
1001
0000
0000
0110
0000
0000
1001
0000
0000
0110
0000
0001
1000
0000
1000
0010
0000
0000
1001
0000
0010
0001
0000
0010
,
1100
0001
0100
0001
1100
0000
0000
0001
0100
0010
1000
0001
0110
1000
0100
1000
,
0010
0100
0001
1000
0110
0000
0000
0010
0100
1000
0100
0010
1001
0100
0010
1000
,
0001
0010
0100
1000
0101
0000
0000
0010
1000
0100
1000
0010
1001
0100
0010
0100
,
0001
0010
0100
1000
0101
0000
0000
0100
1000
0001
0010
0100
1001
0010
0100
0010
,
1001
0000
0000
1010
0000
0000
0101
0000
0000
1010
0000
0100
1001
0000
0000
0011
0000
0000
1100
0000
0001
0010
0000
0100
,
1001
0000
0000
0110
0000
0000
1001
0000
0000
1010
0000
0100
1001
0000
0000
0110
0000
0000
1001
0000
0010
0001
0000
1000
,
0011
1100
0011
1100
1010
0101
1010
0101
,
1000
0000
0001
0000
1000
0000
0001
0000
1000
0000
0001
0000
1000
0000
0001
0000
1000
0000
0001
0000
1000
0000
0001
0000
1000
0100
0010
0001
1000
0100
0010
0001
,
1000
0000
0010
0100
1001
0100
0010
1000
0001
0010
1100
0000
0011
1000
0100
1000
,
0001
0000
1000
0001
0110
1000
0001
0100
0010
1000
0101
0000
1100
0001
0100
0010
,
1000
0000
0010
0100
1001
0010
0100
1000
0010
0100
0011
0000
1100
0001
0010
0100
,
1000
0000
0010
1000
0101
0010
1000
0100
0010
0001
1010
0000
0101
0010
1000
0001
,
0110
0000
1100
0010
0101
1000
0010
0100
0001
0010
1100
0000
0101
0010
1000
0001
,
0100
0000
0011
1000
0110
0001
1000
0010
1000
0001
0110
0000
1001
0100
0010
0001
,
1100
0000
0011
1000
0110
0001
0010
0100
1001
0000
1010
0001
0110
1000
0010
0100
,
1001
0000
0000
0000
0010
0000
0100
0000
1001
0000
0000
0000
0010
0000
0110
0000
1001
0000
0000
0000
1100
0000
0000
0000
1000
0100
0010
0001
1000
0100
0010
0001
,
1000
0000
0011
0100
1001
0100
1010
0001
0010
0100
1001
0000
1010
0100
0001
1000
,
0100
0000
0011
1000
0110
1000
0101
0010
1000
0001
0110
0000
1100
0010
0001
1000
,
0110
0000
0011
0100
1001
0100
1010
0001
0010
0100
1001
0000
0110
1000
0001
0100
,
0010
0000
1100
0010
0101
1000
0110
0001
0010
0100
1001
0000
0110
0001
1010
0100
,
1001
0000
0011
0100
1001
0100
1010
0001
0010
0100
1001
0000
0110
1000
0100
0010
,
0001
0000
1010
0100
1001
0010
0101
1000
0001
0010
1100
0000
0101
1010
0100
0010
,
1001
0000
0011
0100
1001
0100
0011
1000
0110
0000
1010
0100
1001
0010
0101
0000
,
1010
0000
1000
0010
0101
0000
0010
0000
1100
0000
0010
0000
1001
0100
0010
0100
,
1001
0000
0001
0100
0010
1000
1001
0000
0110
1000
0001
1000
0010
0100
0010
0100
,
0011
0100
0001
1000
0100
0010
0011
0000
1010
0001
0010
0001
1000
0000
0010
0100
,
1001
0000
0110
0001
1000
0001
0011
0000
0101
1000
0010
1000
0101
0000
1010
0101
,
1000
0000
0000
0000
0000
0000
0000
0000
0000
0000
0000
0000
0000
0000
0000
0000
0000
0000
0000
0000
0000
0000
0000
0000
0110
0000
0000
0000
0000
0000
0000
0000
0000
0000
0000
0000
0001
0000
0000
0000
0000
0000
0000
0000
0000
0000
0000
0000
1000
0000
0000
0000
0000
0000
0000
0000
0000
0000
0000
0000
0000
0000
0000
0000
0001
0000
0000
0000
0010
0000
0000
0000
0100
0000
0000
0000
0000
0000
0000
0000
0000
0000
0000
0000
0000
0000
0000
0000
0000
0000
0000
0000
0000
0000
0000
0000
1000
0000
0000
0000
0000
0000
0001
0000
0000
0000
0000
0000
0100
0000
0000
0000
0000
0000
0010
0000
0000
0000
0000
0000
1000
0000
0000
0000
0000
0000
0001
0000
0000
0000
0000
0000
0100
0000
0000
0000
0000
0000
0010
0000
0000
0000
0000
0000
1000
0000
0000
0000
0000
0000
0000
0000
0000
0000
0000
0000
0000
0000
0000
0000
0000
0000
0000
0000
0000
0000
0000
0000
0011
0000
0000
0000
0000
0000
0000
0000
0000
0000
0000
0000
0100
0000
0000
0000
0000
0000
0000
0000
0000
0000
0000
0000
,
1001
0100
1010
0001
0010
0100
1001
0000
0110
0001
0010
0001
1100
0000
0011
0100
,
1001
0010
0101
1000
0010
0100
1001
0000
0011
0100
1000
0100
1001
0000
0110
1000
,
0101
0010
1001
0100
0010
0001
1010
0000
0101
1000
0100
0010
0001
1000
0001
1000
,
0001
1000
0001
1000
0001
1000
0010
0100
0001
0010
0000
0000
1100
0000
0000
0000
;
