#TITLE:Shihen;
#SUBTITLE:(Piece of Poetry);
#ARTIST:DJ Sharpnel;
#TITLETRANSLIT:;
#SUBTITLETRANSLIT:;
#ARTISTTRANSLIT:;
#CREDIT:B. Abear;
#BANNER:shihen bn.png;
#BACKGROUND:shihen bg.png;
#LYRICSPATH:;
#CDTITLE:;
#MUSIC:Shihen.ogg;
#OFFSET:-4.307;
#SAMPLESTART:375.600;
#SAMPLELENGTH:19.413;
#SELECTABLE:YES;
#DISPLAYBPM:198.000;
#BPMS:0.000=197.800;
#STOPS:;
#BGCHANGES:;
// cache tags:
#FIRSTBEAT:0.000;
#LASTBEAT:1299.000;
#SONGFILENAME:Songs/SHARPNELSTREAMZ v2/Shihen/Shihen.sm;
#HASMUSIC:1;
#HASBANNER:1;
#MUSICLENGTH:399.516;
// end cache tags

//---------------dance-single - 16+ (Zylope)----------------
#NOTES:
     dance-single:
     16+ (Zylope):
     Hard:
     16:
     1.000,1.000,0.115,0.350,1.000,3526.000,46.000,140.000,47.000,0.000:
0000
0000
0000
0000
,
0000
0000
0000
0000
,
0000
0000
0000
0000
,
0000
0000
0000
0000
,
0000
0000
0000
0000
,
0000
0000
0000
0000
,
0000
0000
0000
0000
,
0000
0000
0000
0000
,
1001
0000
0001
0000
1000
0000
0100
0000
1000
0001
0100
0000
0010
0000
0100
0000
,
0001
0000
1000
0000
0100
0000
0010
0000
0001
1000
0100
0000
1000
0000
1000
0001
,
0100
0000
0010
0000
0100
0000
0001
0000
1000
0001
0010
0000
0100
0000
0010
0000
,
0001
0000
0100
0000
0010
0000
0100
0000
0001
1000
0010
0000
1000
0000
1000
0100
,
0010
0000
0001
0000
1000
0000
0100
0000
0010
0001
1000
0000
0001
0000
0100
0000
,
0001
0000
0010
0000
0100
0000
1000
0000
0001
0100
0010
0000
0100
0000
0100
0001
,
1000
0100
0010
0001
1000
0001
0100
0010
1000
0010
0100
0001
1000
0100
0010
0001
,
M000
0M00
00M0
000M
,
1001
0000
1000
0000
0010
0000
0100
0000
0001
1000
0100
0000
0010
0000
0100
0000
,
1000
0000
0010
0000
010M
0000
001M
0000
100M
0100
001M
0000
010M
0000
010M
1000
,
001M
0000
M100
0000
M001
0000
M010
0000
M001
0100
M010
0000
M100
0000
M001
0000
,
M010
0000
0100
0000
1000
0000
0001
0000
1M00
0010
0100
0000
0001
0000
0001
0000
,
0001
0000
1000
0000
0100
0000
0010
0000
0001
1000
01M0
0000
0010
0000
0100
0000
,
1000
0000
0001
0000
0100
0000
0010
0000
1000
0001
0010
0000
0001
0000
0100
0000
,
0010
0000
0100
0000
0001
0000
1000
0000
0001
0010
0100
0000
1000
0000
0001
0000
,
0100
0000
0010
0000
0100
0000
0001
0000
1000
0001
0100
0000
0010
0000
0010
0000
,
1010
0000
1000
0000
0001
0000
0010
0000
0100
1000
0001
0000
0100
0000
0010
0000
,
0100
0000
0001
0000
1000
0000
0001
0000
0010
0100
1000
0000
0001
0000
1000
0000
,
0010
0000
0100
0000
0010
0000
1000
0000
0001
1000
0100
0000
0010
0000
0001
0000
,
1000
0000
0010
0000
0100
0000
0001
0000
1000
0001
0100
0000
0001
0000
0001
0000
,
0001
0000
0010
0000
0100
0000
1000
0000
0001
1000
0010
0000
0100
0000
0001
0000
,
1000
0000
0100
0000
1000
0000
0010
0000
0100
0001
0010
0000
0100
0000
1000
0000
,
0001
0000
0010
0000
0001
0000
0100
0000
0010
1000
0100
0000
0010
0000
0001
0000
,
1000
0000
1000
0000
1000
0000
1000
1000
,
1001
0000
0001
0000
0010
0000
0100
1000
0001
1000
0001
0000
0100
0000
0010
1000
,
0001
0000
0010
0000
0100
0000
1000
0010
0100
0010
0100
0000
0001
0000
1000
0100
,
0010
0000
0001
0000
1000
0000
0001
0100
0010
0100
0010
0000
1000
0000
0001
0010
,
0100
0000
0010
0000
0001
0000
1000
0001
0100
0001
0100
0000
0010
0000
0010
1000
,
0010
0000
0100
0000
0001
0000
1000
0001
0010
0001
0010
0000
0100
0000
1000
0001
,
0100
0000
0010
0000
1000
0000
0001
0100
0010
0100
0010
0000
1000
0000
0001
1000
,
0100
0000
0010
0000
0001
0000
1000
0001
0100
0001
0100
0000
0010
0000
1000
0001
,
0100
0000
0010
0000
1000
0000
0001
1000
0100
1000
0100
0000
1000
0000
1000
0000
,
1001
0000
0001
0100
0001
0000
1000
0001
1000
0100
0010
0001
1000
0000
0001
0100
,
0001
0000
1000
0100
1000
0000
0001
0010
0100
1000
0001
0100
0001
0000
1000
0010
,
1000
0000
0001
0100
0001
0000
1000
0100
0010
0100
1000
0001
1000
0000
0001
0100
,
0001
0000
1000
0001
1000
0000
0010
0100
0001
1000
0100
0010
0001
0000
0001
0000
,
0001
0000
1000
0010
1000
0000
0001
0100
0010
1000
0010
0100
0001
0000
1000
0100
,
1000
0000
0001
0010
0001
0000
1000
0100
0010
0001
1000
0001
0100
0000
0010
0100
,
0010
0000
1000
0010
1000
0000
0001
0010
0100
1000
0001
0100
0001
0000
1000
0000
,
1002
0000
0000
0000
0000
0000
0000
0000
0000
0000
0000
0000
0000
0000
0000
0000
0023
0000
0000
0000
0000
0000
0000
0000
0000
0000
0000
0000
0000
0000
0000
0000
0230
0000
0000
0000
0000
0000
0000
0000
0000
0000
0000
0000
0000
0000
0000
0000
2300
0000
0000
0000
0000
0000
0000
3000
1000
0000
0000
0000
0100
0000
0000
0000
,
001M
0000
0010
0000
0001
0100
0010
1000
0001
0000
0001
0000
1000
0100
0010
0100
,
1000
0000
1000
0000
0001
0100
0010
1000
0100
0000
0100
0000
0010
0001
1000
0001
,
0100
0000
0100
0000
0001
1000
0100
0010
0001
0000
0001
0000
1000
0001
0010
0100
,
1000
0000
1000
0000
0010
0100
0001
1000
0001
0000
0001
0000
1000
0100
0010
0001
,
1000
0000
1000
0000
0010
0100
0001
1000
0100
0000
0100
0000
0010
0001
1000
0010
,
0100
0000
0100
0000
0001
0010
0100
1000
0010
0000
0010
0000
0100
0001
1000
0100
,
0010
0000
0010
0000
0001
1000
0010
0100
0001
0000
0001
0000
1000
0100
0010
0001
,
1000
0000
1000
0000
0010
0100
0001
0010
0100
0000
0100
0000
1000
0010
1000
0001
,
0M10
0000
0010
0000
0001
1000
0100
0010
0001
0000
0001
0000
1000
0001
0100
0010
,
1000
0000
1000
0000
0100
0010
0001
1000
0010
0000
0010
0000
0100
0001
1000
0100
,
0010
0000
0010
0000
0001
1000
0010
0100
0001
0000
0001
0000
1000
0100
0010
0001
,
1000
0000
1000
0000
0010
0100
0001
1000
0100
0000
0100
0000
1000
0001
1000
0010
,
0100
0000
0100
0000
0001
1000
0001
0010
0100
0000
0100
0000
1000
0001
0100
0010
,
1000
0000
1000
0000
0001
0010
0100
1000
0010
0000
0010
0000
1000
0100
0010
0001
,
1000
0010
1000
0001
0010
0100
0010
0001
1000
0010
0100
0010
1000
0001
0010
0100
,
2000
0000
0000
0000
0000
0000
0000
0000
0000
0000
0000
0000
0000
0000
0000
0000
3200
0000
0000
0000
0000
0000
0000
0000
0000
0000
0000
0000
0000
0000
0000
0000
0320
0000
0000
0000
0000
0000
0000
0000
0000
0000
0000
0000
0000
0000
0000
0000
0032
0000
0000
0000
0000
0000
0000
0000
0000
0000
0000
0000
0000
0000
0000
0003
,
1M01
0000
1000
0000
0001
0100
0010
1000
0001
0000
0001
0000
1000
0100
0010
0100
,
1000
0000
1000
0000
0001
0100
0010
1000
0100
0000
0100
0000
0010
0001
1000
0001
,
0100
0000
0100
0000
0001
1000
0100
0010
0001
0000
0001
0000
1000
0001
0010
0100
,
1000
0000
1000
0000
0010
0100
0001
1000
0001
0000
0001
0000
1000
0100
0010
0001
,
1000
0000
1000
0000
0010
0100
0001
1000
0100
0000
0100
0000
0010
0001
1000
0010
,
0100
0000
0100
0000
0001
0010
0100
1000
0010
0000
0010
0000
0100
0001
1000
0100
,
0010
0000
0010
0000
0001
1000
0010
0100
0001
0000
0001
0000
1000
0100
0010
0001
,
1000
0000
1000
0000
0010
0100
0001
0010
0100
0000
0100
1000
0010
0100
0001
1000
,
01M0
0000
0100
0000
1000
0001
0010
0100
1000
0000
1000
0000
0001
1000
0010
0100
,
0001
0000
0001
0000
0010
0100
1000
0001
0100
0000
0100
0000
0010
1000
0001
0010
,
0100
0000
0100
0000
1000
0001
0100
0010
1000
0000
1000
0000
0001
0010
0100
1000
,
0001
0000
0001
0000
0100
0010
1000
0001
0010
0000
0010
0000
0001
1000
0001
0100
,
0010
0000
0010
0000
1000
0001
1000
0100
0010
0000
0010
0000
0001
1000
0010
0100
,
0001
0000
0001
0000
1000
0100
0010
0001
0100
0000
0100
0000
0001
0010
0100
1000
,
0001
0000
0001
0000
0100
0010
1000
0001
1000
0000
1000
0000
0100
0010
0001
1000
,
0M02
0000
0000
0000
10M3
0000
0000
0000
0M02
0000
0000
0003
10M0
0000
0000
0000
0M02
0000
0003
0000
10M0
0000
0000
0000
0M02
0003
0000
0000
10M0
0000
0000
0000
,
1100
0000
0100
0000
0010
0001
1000
0001
0100
0000
0100
0000
0001
0010
0100
0010
,
0001
0000
0001
0000
1000
0010
0100
0001
0010
0000
0010
0000
0100
1000
0001
1000
,
0010
0000
0010
0000
1000
0001
0010
0100
1000
0000
1000
0000
0001
1000
0100
0010
,
0001
0000
0001
0000
0100
0010
1000
0001
1000
0000
1000
0000
0001
0010
0100
1000
,
0001
0000
0001
0000
0100
0010
1000
0001
0010
0000
0010
0000
0100
1000
0001
0100
,
0010
0000
0010
0000
1000
0100
0010
0001
0100
0000
0100
0000
0010
1000
0001
0010
,
0100
0000
0100
0000
1000
0001
0100
0010
1000
0000
1000
0000
0001
0010
0100
1000
,
0001
0000
0001
0000
0100
0010
1000
0100
0010
0000
0010
0001
0100
0010
1000
0001
,
0M10
0000
0010
0000
0001
1000
0100
0010
0001
0000
0001
0000
1000
0001
0100
0010
,
1000
0000
1000
0000
0100
0010
0001
1000
0010
0000
0010
0000
0100
0001
1000
0100
,
0010
0000
0010
0000
0001
1000
0010
0100
0001
0000
0001
0000
1000
0100
0010
0001
,
1000
0000
1000
0000
0010
0100
0001
1000
0100
0000
0100
0000
1000
0001
1000
0010
,
0100
0000
0100
0000
0001
1000
0001
0010
0100
0000
0100
0000
1000
0001
0100
0010
,
1000
0000
1000
0000
0001
0010
0100
1000
0010
0000
0010
0000
1000
0100
0010
0001
,
1000
0001
1000
0100
0010
0001
0010
0100
1000
0001
1000
0010
0100
0001
0100
0010
,
1000
0100
0010
0001
1000
0001
0010
0100
1000
0010
0100
0001
0010
0001
0100
0010
,
1000
0000
0000
0000
,
0000
0000
0000
0000
,
1000
0000
1000
0000
0001
0100
0010
1000
0001
0000
0001
0000
1000
0100
0010
0001
,
0000
0000
0000
0000
,
1000
0000
1000
0000
0010
0100
0001
1000
0000
0000
0000
0000
0000
0000
0000
0000
,
0000
0000
0000
0000
,
0001
0000
0001
0000
1000
0010
0100
0010
1000
0000
1000
0000
0001
0010
0100
1000
,
0000
0000
0000
0000
,
0001
0000
0001
0000
1000
0010
0100
0001
0000
0000
0000
0000
0000
0000
0000
0000
,
0000
0000
0000
0000
,
1000
0000
1000
0000
0100
1000
0001
0100
0010
0000
0010
0000
1000
0001
0010
0100
,
0000
0000
0000
0000
,
1000
0000
1000
0000
0001
0100
0010
1000
0000
0000
0000
0000
0000
0000
0000
0000
,
0000
0000
0000
0000
,
0001
0000
0001
0000
1000
0010
0100
0001
1000
0000
1000
0000
0100
0010
0001
1000
,
0010
0000
0010
0000
0100
0001
0010
0100
1000
0000
1000
0000
0001
0100
0001
0100
,
0020
0000
0000
0000
,
1030
0200
2300
3002
,
0103
0010
0000
1000
0100
0000
0010
0001
,
0010
0100
0000
1000
0001
0000
1000
0010
,
0100
0002
0000
2003
,
3200
2300
0000
3001
,
1000
0010
0000
0100
0001
0000
0100
0010
,
0100
0001
0000
0010
0100
0000
1000
0001
,
0200
0010
0001
0000
,
0310
2000
3002
0023
,
0130
1000
0000
0001
0100
0000
0010
0100
,
0001
0010
0000
0100
1000
0000
0001
1000
,
0200
0320
0031
2000
,
3020
0000
0000
0000
0230
0000
0000
0000
0301
0010
0100
1000
0001
0100
0001
1000
,
0100
0010
0001
1000
0010
0100
0001
1000
0100
1000
0001
0100
0010
1000
0001
1000
,
0100
0010
0001
1000
0010
1000
0001
0010
0001
1000
0100
0010
0001
1000
0001
1000
,
0001
0000
0000
0000
,
0000
0000
0MM0
0MM0
0MM0
0MM0
0MM0
0MM0
,
1001
0001
1000
0001
0001
0010
0001
0100
,
0010
1000
0100
0010
0010
0001
0100
0010
,
1000
0100
0010
0001
0001
1000
0010
0100
,
0001
0010
0100
1000
1000
0001
0100
0010
,
1000
0100
0010
0100
0100
1000
0001
0100
,
0001
0010
0100
0010
0010
0001
1000
0010
,
1000
0100
0010
0001
0001
1000
0001
0100
,
0001
0010
0100
1000
1000
0001
0100
0010
,
1010
1000
0001
0100
0100
0010
1000
0001
,
1000
0100
0010
0001
0001
1000
0010
0100
,
0001
0010
0100
0010
0010
0001
1000
0100
,
1000
0010
0100
0001
0001
1000
0100
0010
,
0001
0100
0010
1000
1000
0001
0010
0001
,
1000
0100
0010
0001
0001
1000
0010
0100
,
0001
0010
0100
1000
1000
0001
0100
0010
,
1000
0100
0010
0100
0100
1000
0001
0010
,
0011
0001
1000
0001
0001
0010
0001
0100
,
0010
0000
1000
0000
0100
0000
0010
0000
0010
0000
0002
0003
0100
0000
0020
0030
,
1000
0000
0100
0000
0020
0030
0001
0000
0001
0000
2000
3000
0010
0000
0200
0300
,
0002
0003
0010
0000
0200
0300
2000
3000
1000
0000
0001
0000
0200
0300
0010
0000
,
1000
0000
0100
0000
0020
0030
0100
0000
0100
0000
2000
3000
0001
0000
0200
0300
,
0001
0000
0010
0000
0200
0300
0020
0030
0010
0000
0002
0003
2000
3000
0020
0030
,
2000
3000
0100
0000
0020
0030
0002
0003
0001
0000
2000
3000
0002
0003
0200
0300
,
0002
0003
0010
0000
0100
0000
2000
3000
1000
0000
0001
0000
0200
0300
0010
0000
,
1010
0000
1000
0000
0002
0003
0100
0000
0100
0000
0020
0030
2000
3000
0002
0003
,
1000
0000
0100
0000
0020
0030
0002
0003
0001
0000
2000
3000
0020
0030
0200
0300
,
0002
0003
0010
0000
0200
0300
0020
0030
0010
0000
0002
0003
2000
3000
0200
0300
,
2000
3000
0010
0000
0100
0000
0002
0003
0001
0000
1000
0000
0200
0300
0010
0000
,
0001
0000
0100
0000
0020
0030
2000
3000
1000
0000
0002
0003
0020
0030
0002
0003
,
2000
3000
0100
0000
0020
0030
0002
0003
0001
0000
2000
3000
0020
0030
0200
0300
,
0101
0000
0101
0000
1001
0000
1001
0000
1100
0000
1100
0000
0100
0010
0001
1000
,
0002
0000
0000
0000
0000
0000
0000
0000
0103
0010
1000
0100
0010
0001
0100
0010
,
1000
0100
0010
0100
1000
0001
0010
0001
1000
0100
0010
0001
1000
0001
0010
0001
,
1000
0010
0100
0001
1000
0001
0100
0010
1000
0001
0100
0001
1000
0010
1000
0001
,
1000
0100
0010
0001
1000
0001
0010
0100
0010
0001
1000
0100
1000
0100
0010
0100
,
1000
0010
0100
0001
0010
0100
0010
0001
1000
0001
1000
0100
0010
0100
1000
0001
,
1000
0010
0100
0010
1000
0001
0100
0001
1000
0010
0100
0001
1000
0001
0100
0001
,
1000
0100
0010
0001
1000
0001
0010
0100
1000
0001
0010
0001
1000
0100
1000
0001
,
1000
0010
0100
0001
1000
0001
0100
0010
0100
0001
1000
0010
1000
0010
0100
0010
,
1000
0100
0010
0001
0100
0010
0100
0001
1000
0001
1000
0010
0100
0010
1000
0001
,
1000
0100
0010
0100
1000
0001
0010
0001
1000
0100
0010
0001
1000
0001
0010
0001
,
1000
0010
0100
0001
1000
0001
0100
0010
1000
0001
0100
0001
1000
0010
1000
0001
,
1000
0100
0010
0001
1000
0001
0010
0100
0010
0001
1000
0100
1000
0100
0010
0100
,
1000
0010
0100
0001
0010
0100
0010
0001
1000
0001
1000
0100
0010
0100
1000
0001
,
1000
0010
0100
0010
1000
0001
0100
0001
1000
0010
0100
0001
1000
0001
0100
0001
,
1000
0100
0010
0001
1000
0001
0010
0100
1000
0001
0010
0001
1000
0100
1000
0001
,
1000
0010
0100
0001
1000
0001
0100
0010
0100
0001
1000
0010
1000
0010
0100
0010
,
1000
0100
0010
0001
0100
0010
0100
0001
1000
0000
0000
0001
1000
0000
1000
0000
,
0001
0010
0100
0010
0001
1000
0100
1000
0001
0010
0100
1000
0001
1000
0100
1000
,
0001
0100
0010
1000
0001
1000
0010
0100
0001
1000
0010
1000
0001
0100
0001
1000
,
0001
0010
0100
1000
0001
1000
0100
0010
0100
1000
0001
0010
0001
0010
0100
0010
,
0001
0100
0010
1000
0100
0010
0100
1000
0001
1000
0001
0010
0100
0010
0001
1000
,
0001
0100
0010
0100
0001
1000
0010
1000
0001
0100
0010
1000
0001
1000
0010
1000
,
0001
0010
0100
1000
0001
1000
0100
0010
0001
1000
0100
1000
0001
0010
0001
1000
,
0001
0100
0010
1000
0001
1000
0010
0100
0010
1000
0001
0100
0001
0100
0010
0100
,
0001
0010
0100
1000
0010
0100
0010
1000
0001
1000
0001
0100
0010
0100
0001
1000
,
0001
0010
0100
0010
0001
1000
0100
1000
0001
0010
0100
1000
0001
1000
0100
1000
,
0001
0100
0010
1000
0001
1000
0010
0100
0001
1000
0010
1000
0001
0100
0001
1000
,
0001
0010
0100
1000
0001
1000
0100
0010
0100
1000
0001
0010
0001
0010
0100
0010
,
0001
0100
0010
1000
0100
0010
0100
1000
0001
1000
0001
0010
0100
0010
0001
1000
,
0001
0100
0010
0100
0001
1000
0010
1000
0001
0100
0010
1000
0001
1000
0010
1000
,
0001
0010
0100
1000
0001
1000
0100
0010
0001
1000
0100
1000
0001
0010
0001
1000
,
0001
0100
0010
1000
0001
1000
0010
0100
0010
1000
0001
0100
0001
1000
0100
0010
,
0002
0000
0000
0000
0000
0000
0000
0003
0002
0000
0000
0000
0000
0000
0000
0000
1003
0000
0000
0000
0000
0000
0000
0000
1000
0000
0000
0000
1000
0000
0001
0000
,
1000
0010
0100
0001
1000
0001
1000
0010
0100
0001
1000
0001
0100
0001
1000
0010
,
0100
0001
0010
0100
1000
0001
1000
0001
0010
0100
1000
0001
0010
0001
1000
0100
,
0010
0001
0100
0001
1000
0010
0100
0001
1000
0001
0100
0010
1000
0001
0100
0010
,
0100
0001
0010
0100
1000
0010
0100
0001
1000
0010
1000
0001
1000
0001
0100
0010
,
1000
0100
0010
0001
1000
0001
1000
0100
0010
0001
1000
0001
0010
0001
1000
0100
,
0010
0001
0100
0010
1000
0001
1000
0001
0100
0010
1000
0001
0100
0001
1000
0010
,
0100
0001
0010
0001
1000
0100
0010
0001
1000
0001
0010
0100
1000
0001
0010
0100
,
0010
0001
0100
0010
1000
0100
0010
0001
1000
0100
1000
0001
1000
0001
0010
0100
,
1000
0010
0100
0001
1000
0001
1000
0010
0100
0001
1000
0001
0100
0001
1000
0010
,
0100
0001
0010
0100
1000
0001
1000
0001
0010
0100
1000
0001
0010
0001
1000
0100
,
0010
0001
0100
0001
1000
0010
0100
0001
1000
0001
0100
0010
1000
0001
0100
0010
,
0100
0001
0010
0100
1000
0010
0100
0001
1000
0010
1000
0001
1000
0001
0100
0010
,
1000
0100
0010
0001
1000
0001
1000
0100
0010
0001
1000
0001
0010
0001
1000
0100
,
0010
0001
0100
0010
1000
0001
1000
0001
0100
0010
1000
0001
0100
0001
1000
0010
,
0100
0001
0010
0001
1000
0100
0010
0001
1000
0001
0010
0100
1000
0001
0010
0100
,
0010
0001
0100
0010
1000
0100
0010
0001
1000
0100
1000
0001
1000
0001
0010
0100
,
1000
0010
0100
0001
1000
0001
1000
0010
0100
0001
1000
0001
0100
0001
1000
0010
,
0100
0001
0010
0100
1000
0001
1000
0001
0010
0100
1000
0001
0010
0001
1000
0100
,
0010
0001
0100
0001
1000
0010
0100
0001
1000
0001
0100
0010
1000
0001
0100
0010
,
0100
0001
0010
0100
1000
0010
0100
0001
1000
0010
1000
0001
1000
0001
0100
0010
,
1000
0100
0010
0001
1000
0001
1000
0100
0010
0001
1000
0001
0010
0001
1000
0100
,
0010
0001
0100
0010
1000
0001
1000
0001
0100
0010
1000
0001
0100
0001
1000
0010
,
0100
0001
0010
0001
1000
0100
0010
0001
1000
0001
0010
0100
1000
0001
0010
0100
,
0010
0001
0100
0010
1000
0100
0010
0001
1000
0100
1000
0001
1000
0001
0010
0100
,
1000
0010
0100
0001
1000
0001
1000
0010
0100
0001
1000
0001
0100
0001
1000
0010
,
0100
0001
0010
0100
1000
0001
1000
0001
0010
0100
1000
0001
0010
0001
1000
0100
,
0010
0001
0100
0001
1000
0010
0100
0001
1000
0001
0100
0010
1000
0001
0100
0010
,
0100
0001
0010
0100
1000
0010
0100
0001
1000
0010
1000
0001
1000
0001
0100
0010
,
1000
0100
0010
0001
1000
0001
1000
0100
0010
0001
1000
0001
0010
0001
1000
0100
,
0010
0001
0100
0010
1000
0001
1000
0001
0100
0010
1000
0001
0100
0001
1000
0010
,
0100
0001
0010
0001
1000
0100
0010
0001
1000
0001
0010
0100
1000
0001
0010
0100
,
2000
0000
0000
0000
0000
0000
0000
0000
0000
0000
0000
0000
0000
0000
0000
3000
2000
0000
0000
0000
0000
0000
0000
0000
0000
0000
0000
0000
0000
0000
0000
0000
3001
0000
0000
0000
0100
0000
0000
0000
0010
0000
0000
0000
1000
0000
0000
0000
0100
0000
0000
0000
0010
0000
0000
0000
0001
0000
0000
0000
0100
0000
0000
0000
,
0010
0000
0010
0000
1000
0100
0010
0001
1000
0000
1000
0000
0001
0100
0010
1000
,
0001
0000
0001
0000
0010
0100
0010
0001
1000
0000
1000
0000
0100
1000
0010
0100
,
0010
0000
0010
0000
1000
0001
0010
0100
1000
0000
1000
0000
0001
0100
0010
1000
,
0010
0000
0010
0000
1000
0001
0010
0001
1000
0000
1000
0000
0100
0010
0001
1000
,
0010
0000
0010
0000
0100
0001
1000
0001
0010
0000
0010
0000
0100
1000
0001
1000
,
0001
0000
0001
0000
0100
0010
1000
0100
1000
0000
1000
0000
0001
0010
0100
1000
,
0100
0000
0100
0000
0010
0001
1000
0010
0100
0000
0100
0000
0001
1000
0100
0010
,
0001
0000
0001
0000
1000
0010
0100
0001
1000
0000
1000
0001
0010
0000
0010
0000
,
1001
0000
0001
0000
1000
0100
0010
0001
1000
0000
1000
0000
0001
0010
0100
1000
,
0001
0000
0001
0000
0100
0010
0100
0001
1000
0000
1000
0000
0100
0010
0001
0010
,
0100
0000
0100
0000
0010
0001
1000
0001
0100
0000
0100
0000
0010
1000
0001
0010
,
0001
0000
0001
0000
0100
0010
1000
0001
1000
0000
1000
0000
0100
0010
0001
1000
,
0010
0000
0010
0000
0100
0001
1000
0001
0010
0000
0010
0000
0100
1000
0001
1000
,
0010
0000
0010
0000
1000
0001
1000
0100
1000
0000
1000
0000
0001
0100
0010
1000
,
0001
0000
0001
0000
0010
0100
0010
0001
1000
0000
1000
0000
0010
0100
0001
0100
,
0010
0000
0010
0000
1000
0001
0010
0100
1000
0000
1000
0001
0100
0000
0100
0000
,
1001
0000
0001
0000
0100
0001
0100
0010
1000
0000
1000
0000
0001
0010
0100
1000
,
0001
0000
0001
0000
0010
0001
1000
0010
1000
0000
1000
0000
0010
0100
0001
0100
,
0010
0000
0010
0000
1000
0100
0010
0001
1000
0000
1000
0000
0100
0010
0001
1000
,
0100
0000
0100
0000
1000
0010
0100
0001
0100
0000
0100
0000
0010
1000
0001
0010
,
0001
0000
0001
0000
1000
0100
0010
0001
1000
0000
1000
0000
0001
0010
0100
1000
,
0001
0000
0001
0000
0010
0001
1000
0010
0100
0000
0100
0000
0010
1000
0100
0010
,
0001
0000
0001
0000
1000
0001
0010
0001
1000
0000
1000
0000
0010
0100
0001
0100
,
0010
0000
0010
0000
1000
0001
0010
0100
1000
0000
1000
0001
0100
0000
0100
0000
,
1010
0000
0010
0000
1000
0001
0010
0100
1000
0000
1000
0000
0001
0100
0010
1000
,
0001
0000
0001
0000
0010
0100
0010
0001
1000
0000
1000
0000
0100
1000
0010
0100
,
0010
0000
0010
0000
1000
0001
0010
0100
1000
0000
1000
0000
0001
0100
0010
1000
,
0010
0000
0010
0000
1000
0001
0010
0001
1000
0000
1000
0000
0100
0010
0001
1000
,
0010
0000
0010
0000
0100
0001
1000
0001
0010
0000
0010
0000
0100
1000
0001
1000
,
0001
0000
0001
0000
0100
0010
1000
0100
1000
0000
1000
0000
0001
0010
0100
1000
,
0001
0100
0001
0100
0010
0100
0010
0100
0001
1000
0001
1000
0100
1000
0100
1000
,
0001
0010
0100
1000
0010
0100
0001
0010
0100
1000
0010
0100
0001
0010
0100
1000
,
0002
0000
0000
0000
0000
0000
0000
0000
0000
0000
0000
0000
0000
0000
0000
0000
0000
0000
0000
0000
0000
0000
0000
0000
0000
0000
0000
0000
0000
0000
0000
0000
0000
0000
0000
0000
0000
0000
0000
0000
0000
0000
0000
0000
0000
0000
0000
0000
0000
0000
0000
0000
0000
0000
0000
0000
0000
0000
0000
0000
0000
0000
0000
0003
,
1001
0000
0000
0000
0000
0000
0000
0000
0000
0000
0000
0000
0000
0000
0000
0000
2000
0000
0000
0000
0000
0000
0000
0000
0000
0000
0000
0000
0000
0000
0000
0000
3020
0000
0000
0000
0000
0000
0000
0000
0000
0000
0000
0000
0000
0000
0000
0000
0230
0000
0000
0000
0000
0000
0000
0000
0000
0000
0000
0000
0000
0000
0000
0300
,
0101
0001
0000
1000
0100
0000
0010
0001
,
0010
0100
0000
1000
0010
0000
0100
0001
,
2001
0000
0000
0000
0000
0000
0000
0000
0000
0000
0000
0000
0000
0000
0000
0000
3200
0000
0000
0000
0000
0000
0000
0000
0000
0000
0000
0000
0000
0000
0000
0000
0000
0000
0000
0000
0000
0000
0000
0000
0000
0000
0000
0000
0000
0000
0000
0000
0320
0000
0000
0000
0000
0000
0000
0000
0000
0000
0000
0000
0000
0000
0000
0030
,
0012
0000
2003
0000
0000
0000
3010
0100
,
0101
0001
0000
0100
0010
0000
1000
0100
,
0010
0100
0000
0010
0001
0000
1000
0010
,
0210
0000
0000
0000
0301
0000
0100
0001
,
1001
1000
0000
0100
0010
0000
0100
1000
,
1001
0001
0000
0100
0010
0000
1000
0001
,
0010
0100
0000
0010
0001
0000
1000
0010
,
1010
1000
0000
0001
0010
0000
0100
1000
,
1001
0001
0000
0100
0010
0000
1000
1002
,
0000
0000
0000
0000
,
0000
0000
0000
0000
0000
0000
0000
0003
,
1001
1000
0001
1000
1000
0100
1000
0010
,
0110
0100
0001
1000
1000
0001
0010
0100
,
1100
0000
1000
0000
0002
0003
0100
0000
0100
0000
0002
0003
1000
0000
0200
0300
,
0120
0030
0010
0000
0001
0000
2000
3000
1000
0000
0001
0000
0020
0030
0100
0000
,
0110
0000
0010
0000
0002
0003
0100
0000
0100
0000
0020
0030
1000
0000
0002
0003
,
1001
0000
1000
0000
0200
0300
1000
0000
1000
0000
0002
0003
0100
0000
0020
0030
,
1010
0000
1000
0000
0002
0003
0010
0000
0010
0000
0200
0300
0010
0000
0002
0003
,
0021
0030
0010
0000
0100
0000
2000
3000
1000
0000
0001
0000
0200
0300
0001
0000
,
1001
0000
1000
0000
0020
0030
0100
0000
0100
0000
0002
0003
0010
0000
0200
0300
,
1100
0000
1000
0000
0002
0003
0010
0000
0010
0000
0002
0003
1000
0000
0020
0030
,
2010
3000
1000
0000
0002
0003
0010
0000
0010
0000
0200
0300
2000
3000
0002
0003
,
2001
3000
1000
0000
0010
0000
0200
0300
0100
0000
0001
0000
2000
3000
0010
0000
,
1010
0000
1000
0000
0002
0003
1000
0000
1000
0000
0200
0300
0010
0000
0002
0003
,
0011
0000
0010
0000
0200
0300
1000
0000
1000
0000
0002
0003
1000
0000
0020
0030
,
1000
0001
1000
0100
0010
0001
0010
0100
1000
0001
0100
0010
1000
0100
0010
0001
,
2000
0000
0000
0000
0000
0000
0000
0000
3001
0010
0001
1000
0010
0100
0010
1000
,
0001
0010
0100
0010
0001
1000
0100
1000
0001
0010
0100
1000
0001
1000
0100
1000
,
0001
0100
0010
1000
0001
1000
0010
0100
0001
1000
0010
1000
0001
0100
0001
1000
,
0001
0010
0100
1000
0001
1000
0100
0010
0100
1000
0001
0010
0001
0010
0100
0010
,
0001
0100
0010
1000
0100
0010
0100
1000
0001
1000
0001
0010
0100
0010
0001
1000
,
0001
0100
0010
0100
0001
1000
0010
1000
0001
0100
0010
1000
0001
1000
0010
1000
,
0001
0010
0100
1000
0001
1000
0100
0010
0001
1000
0100
1000
0001
0010
0001
1000
,
0001
0100
0010
1000
0001
1000
0010
0100
0010
1000
0001
0100
0001
0100
0010
0100
,
0001
0010
0100
1000
0010
0100
0010
1000
0001
1000
0001
0100
0010
0100
0001
1000
,
0001
0010
0100
0010
0001
1000
0100
1000
0001
0010
0100
1000
0001
1000
0100
1000
,
0001
0100
0010
1000
0001
1000
0010
0100
0001
1000
0010
1000
0001
0100
0001
1000
,
0001
0010
0100
1000
0001
1000
0100
0010
0100
1000
0001
0010
0001
0010
0100
0010
,
0001
0100
0010
1000
0100
0010
0100
1000
0001
1000
0001
0010
0100
0010
0001
1000
,
0001
0100
0010
0100
0001
1000
0010
1000
0001
0100
0010
1000
0001
1000
0010
1000
,
0001
0010
0100
1000
0001
1000
0100
0010
0001
1000
0100
1000
0001
0010
0001
1000
,
0001
0100
0010
1000
0001
1000
0010
0100
0010
1000
0001
0100
0001
0100
0010
0100
,
0001
0010
0100
1000
0010
0100
0010
1000
0001
0100
0010
1000
0001
1000
0001
0010
,
0100
1000
0001
1000
0100
1000
0001
0010
0100
1000
0010
0100
0001
1000
0001
1000
,
0010
0100
0001
1000
0010
1000
0001
0100
0010
1000
0100
1000
0001
0010
0100
1000
,
0001
1000
0100
0010
0001
1000
0100
0010
0100
1000
0010
0100
0001
0010
0100
1000
,
0001
0010
0001
1000
0001
1000
0100
0010
0001
0100
0010
1000
0001
1000
0001
0100
,
0010
1000
0001
1000
0010
1000
0001
0100
0010
1000
0100
0010
0001
1000
0001
1000
,
0100
0010
0001
1000
0100
1000
0001
0010
0100
1000
0010
1000
0001
0100
0010
1000
,
0001
1000
0010
0100
0001
1000
0010
0100
0010
1000
0100
0010
0001
0100
0010
1000
,
0001
0100
0001
1000
0001
1000
0010
0100
0001
0010
0100
1000
0001
1000
0001
0010
,
0100
1000
0001
1000
0100
1000
0001
0010
0100
1000
0010
0100
0001
1000
0001
1000
,
0010
0100
0001
1000
0010
1000
0001
0100
0010
1000
0100
1000
0001
0010
0100
1000
,
0001
1000
0100
0010
0001
1000
0100
0010
0100
1000
0010
0100
0001
0010
0100
1000
,
0001
0010
0001
1000
0001
1000
0100
0010
0001
0100
0010
1000
0001
1000
0001
0100
,
0010
1000
0001
1000
0010
1000
0001
0100
0010
1000
0100
0010
0001
1000
0001
1000
,
0100
0010
0001
1000
0100
1000
0001
0010
0100
1000
0010
1000
0001
0100
0010
1000
,
0001
1000
0010
0100
0001
1000
0010
0100
0010
1000
0100
0010
0001
0100
0010
1000
,
0001
0100
0001
1000
0001
1000
0010
0100
0001
1000
0100
1000
0001
0010
0100
1000
,
0002
0000
0000
0000
,
0000
0000
0000
0M00
0000
0000
0000
0000
0000
0000
0000
0000
0000
0000
0000
0000
,
0000
0000
0000
0003
;

//---------------dance-single - 17+ (Zaia)----------------
#NOTES:
     dance-single:
     17+ (Zaia):
     Challenge:
     17:
     1.000,1.000,0.015,0.115,1.000,4088.000,6.000,46.000,0.000,0.000:
1000
0001
1000
0010
0100
0001
1000
0100
1000
0010
0100
0001
1000
0010
0100
0001
,
1000
0001
0010
0100
0010
0001
1000
0100
1000
0010
0100
0001
1000
0010
0100
0001
,
1000
0001
0010
0100
0010
0001
1000
0100
1000
0010
0100
0001
1000
0010
0100
0001
,
1000
0001
0010
0100
0010
0001
1000
0100
1000
0010
0100
0001
1000
0010
0100
0001
,
1000
0001
0010
0100
0010
0001
1000
0100
1000
0010
0100
0001
1000
0100
0010
0001
,
1000
0001
0010
0100
0010
0001
1000
0100
1000
0010
0100
0001
1000
0100
0010
0001
,
1000
0001
0010
0100
0010
0001
1000
0100
1000
0010
0100
0001
1000
0100
0010
0001
,
1000
0001
0010
0100
0010
0001
1000
0100
1000
0010
0100
0001
1000
0100
0010
0001
,
1000
0001
0010
0100
0010
0001
1000
0010
1000
0100
0010
0001
1000
0010
1000
0001
,
1000
0001
0010
0100
0010
0001
1000
0010
1000
0100
0010
0001
1000
0010
1000
0001
,
1000
0001
0010
0100
0010
0001
1000
0010
1000
0100
0010
0001
1000
0010
1000
0001
,
1000
0001
0010
0100
0010
0001
1000
0010
1000
0100
0010
0001
1000
0010
1000
0001
,
1000
0001
0010
0100
0010
0001
1000
0010
1000
0100
0010
0001
1000
0010
1000
0001
,
1000
0001
0010
0100
0010
0001
1000
0010
1000
0100
0010
0001
1000
0010
1000
0001
,
1000
0001
0100
0010
0100
0001
1000
0010
1000
0001
0100
0001
1000
0010
1000
0001
,
2000
3000
0000
0000
0000
0000
0000
0000
0002
0003
0000
0000
0000
0000
0000
0000
2000
3000
0000
0000
0000
0000
0000
0000
0002
0003
0000
0000
1000
0000
0010
0000
,
0100
0000
0001
0000
0010
0000
0001
0100
0010
0100
0001
0000
0100
0000
0001
0000
,
1000
0000
0001
0000
0100
0000
0001
1000
0100
1000
0010
0000
1000
0000
0001
0000
,
0100
0000
0001
0000
0010
0000
0001
0100
0010
0100
0001
0000
0100
0000
0001
0000
,
1000
0000
0001
0000
0100
0000
0001
1000
0100
1000
0010
0000
1000
0000
0001
0000
,
0001
0000
1000
0000
0010
0000
1000
0100
0010
0100
1000
0000
0010
0000
1000
0000
,
0001
0000
1000
0000
0100
0000
1000
0001
0010
0001
0100
0000
0001
0000
1000
0000
,
0100
0000
1000
0000
0010
0000
1000
0100
0010
0100
1000
0000
0010
0000
1000
0000
,
0001
0000
1000
0000
0100
0000
1000
0001
0100
0001
0010
0000
0001
0000
1000
0000
,
1001
0000
0001
0000
0010
0000
0001
1000
0010
1000
0001
0000
1000
0000
0001
0000
,
0010
0000
0001
0000
0100
0000
0001
1000
0100
1000
0010
0000
1000
0000
0001
0000
,
0100
0000
0001
0000
0010
0000
0001
1000
0010
1000
0001
0000
1000
0000
0010
0000
,
1000
0000
0001
0000
0100
0000
0001
1000
0100
1000
0010
0000
1000
0000
0100
0000
,
0100
0000
1000
0000
0010
0000
1000
0001
0100
0001
1000
0000
0001
0000
1000
0000
,
0010
0000
1000
0000
0100
0000
1000
0001
0010
0001
0100
0000
0001
0000
0010
0000
,
0001
0000
1000
0000
0010
0000
1000
0001
0100
0001
1000
0000
0001
0000
1000
0000
,
0001
0000
1000
0000
0001
0000
1000
0001
,
1000
0100
1000
0100
0010
0100
1000
0001
1000
0001
0010
0100
1000
0001
0100
0010
,
1000
0001
1000
0001
0010
0001
1000
0010
1000
0010
0100
0001
1000
0010
0100
0001
,
1000
0010
1000
0010
0100
0001
0010
0100
0010
0100
1000
0100
0010
0001
1000
0001
,
0010
0100
0010
0100
1000
0001
1000
0100
1000
0100
0010
0100
1000
0001
0010
0001
,
1000
0100
1000
0100
0010
0001
1000
0010
1000
0010
0100
0001
1000
0010
0100
0001
,
1000
0010
1000
0010
0100
0010
1000
0001
1000
0001
0010
0001
1000
0001
0100
0010
,
1000
0001
1000
0001
0010
0001
1000
0100
1000
0100
0010
0001
1000
0010
0100
0001
,
1000
0100
1000
0100
0010
0001
0100
0010
0100
0010
1000
0001
0100
0001
1000
0001
,
0100
0010
0100
0010
1000
0100
0010
0001
0010
0001
1000
0010
0100
0001
1000
0100
,
0010
0001
0010
0001
1000
0010
0100
0001
0100
0001
1000
0100
0010
0100
1000
0010
,
0100
0001
0100
0001
1000
0001
0010
0100
0010
0100
1000
0001
1000
0010
0100
0001
,
0010
0100
0010
0100
1000
0001
1000
0010
1000
0010
0100
0001
1000
0100
0010
0100
,
1000
0010
1000
0010
0100
0010
1000
0001
1000
0001
0010
0100
0010
0001
1000
0010
,
1000
0001
1000
0001
0100
0010
0100
0001
0100
0001
1000
0001
0100
0001
1000
0010
,
0100
0001
0100
0001
1000
0001
0010
0100
0010
0100
1000
0001
0100
0010
1000
0001
,
0010
0100
1000
0001
,
1000
0100
0010
0001
1000
0001
1000
0010
0100
0001
1000
0100
1000
0010
0100
0001
,
1000
0100
0010
0100
1000
0001
1000
0010
0100
0010
1000
0001
0100
0001
1000
0010
,
1000
0100
0010
0001
1000
0001
1000
0010
0100
0001
1000
0100
1000
0010
0100
0001
,
1000
0010
0100
0010
1000
0001
1000
0100
0010
0100
1000
0001
0010
0001
1000
0010
,
1000
0100
0010
0001
1000
0001
1000
0010
0100
0001
1000
0100
1000
0010
0100
0001
,
1000
0100
0010
0100
1000
0001
1000
0010
0100
0010
1000
0001
0100
0001
1000
0010
,
1000
0100
0010
0001
1000
0001
1000
0010
0100
0001
1000
0100
1000
0010
0100
0001
,
1000
0010
0100
0010
1000
0001
1000
0100
0010
0100
1000
0001
0010
0001
1000
0100
,
1000
0010
0100
0001
1000
0001
1000
0100
0010
0001
1000
0010
1000
0100
0010
0001
,
1000
0010
0100
0010
1000
0001
1000
0100
0010
0100
1000
0001
0010
0001
1000
0100
,
1000
0010
0100
0001
1000
0001
1000
0100
0010
0001
1000
0010
1000
0100
0010
0001
,
1000
0100
0010
0100
1000
0001
1000
0010
0100
0010
1000
0001
0100
0001
1000
0100
,
1000
0010
0100
0001
1000
0001
1000
0100
0010
0001
1000
0010
1000
0100
0010
0001
,
1000
0010
0100
0010
1000
0001
1000
0100
0010
0100
1000
0001
0010
0001
1000
0100
,
1000
0010
0100
0001
1000
0001
1000
0100
0010
0001
1000
0010
1000
0100
0010
0001
,
1000
0001
1000
0001
,
1000
0010
1000
0001
0100
0010
0100
0001
0010
0001
1000
0001
0010
0100
0010
0001
,
1000
0010
1000
0001
0100
0010
0100
0001
0010
0001
1000
0001
0010
0100
0010
0001
,
1000
0010
1000
0001
0100
0010
0100
0001
0010
0001
1000
0001
0010
0100
0010
0001
,
1000
0010
1000
0001
0100
0010
0100
0001
0010
0001
1000
0001
0010
0100
0010
0001
,
1000
0100
1000
0001
0010
0100
0010
0001
0100
0001
1000
0001
0100
0010
0100
0001
,
1000
0100
1000
0001
0010
0100
0010
0001
0100
0001
1000
0001
0100
0010
0100
0001
,
1000
0100
1000
0001
0010
0100
0010
0001
0100
0001
1000
0001
0100
0010
0100
0001
,
1000
0100
1000
0001
0010
0100
0010
0001
0100
0001
1000
0001
0100
0010
0100
0001
,
1000
0010
1000
0001
0100
0010
0100
0001
0010
0001
1000
0001
0010
0100
0010
0001
,
1000
0010
1000
0001
0100
0010
0100
0001
0010
0001
1000
0001
0010
0100
0010
0001
,
1000
0010
1000
0001
0100
0010
0100
0001
0010
0001
1000
0001
0010
0100
0010
0001
,
1000
0010
1000
0001
0100
0010
0100
0001
0010
0001
1000
0001
0010
0100
0010
0001
,
1000
0100
1000
0001
0010
0100
0010
0001
0100
0001
1000
0001
0100
0010
0100
0001
,
1000
0100
1000
0001
0010
0100
0010
0001
0100
0001
1000
0001
0100
0010
0100
0001
,
1000
0100
1000
0001
0010
0100
0010
0001
0100
0001
1000
0001
0100
0010
0100
0001
,
1000
0100
1000
0001
1000
0001
0100
0010
0100
0001
1000
0100
0010
0100
1000
0001
,
0100
0010
0100
0001
1000
0010
0100
0001
0010
0001
1000
0100
0010
0100
1000
0001
,
0100
0010
0100
0001
1000
0010
0100
0001
0010
0001
1000
0100
0010
0100
1000
0001
,
0100
0010
0100
0001
1000
0010
0100
0001
0010
0001
1000
0100
0010
0100
1000
0001
,
0100
0010
0100
0001
1000
0010
0100
0001
0010
0001
1000
0100
0010
0100
1000
0001
,
0010
0100
0010
0001
1000
0100
0010
0001
0100
0001
1000
0010
0100
0010
1000
0001
,
0010
0100
0010
0001
1000
0100
0010
0001
0100
0001
1000
0010
0100
0010
1000
0001
,
0010
0100
0010
0001
1000
0100
0010
0001
0100
0001
1000
0010
0100
0010
1000
0001
,
0010
0100
0010
0001
1000
0100
0010
0001
0100
0001
1000
0010
0100
0010
1000
0001
,
0100
0010
0100
0001
1000
0010
0100
0001
0010
0001
1000
0100
0010
0100
1000
0001
,
0100
0010
0100
0001
1000
0010
0100
0001
0010
0001
1000
0100
0010
0100
1000
0001
,
0100
0010
0100
0001
1000
0010
0100
0001
0010
0001
1000
0100
0010
0100
1000
0001
,
0100
0010
0100
0001
1000
0010
0100
0001
0010
0001
1000
0100
0010
0100
1000
0001
,
0010
0100
0010
0001
1000
0100
0010
0001
0100
0001
1000
0010
0100
0010
1000
0001
,
0010
0100
0010
0001
1000
0100
0010
0001
0100
0001
1000
0010
0100
0010
1000
0001
,
0010
0100
1000
0001
1000
0001
0100
0010
0100
0001
1000
0100
0010
0100
1000
0001
,
0100
0010
1000
0001
1000
0001
0010
0100
0010
0001
1000
0010
0100
0010
1000
0001
,
0100
0000
0100
0000
0001
1000
0001
0100
0000
0000
0000
0000
0000
0000
0000
0000
,
0000
0000
0000
0000
,
1000
0000
1000
0000
0001
0100
0010
1000
0001
0000
0001
0000
1000
0100
0010
0001
,
0000
0000
0000
0000
,
0100
0000
0100
0000
0010
1000
0001
0010
0000
0000
0000
0000
0000
0000
0000
0000
,
0000
0000
0000
0000
,
0100
0000
0100
0000
1000
0001
0100
0010
1000
0000
1000
0000
0001
0010
0100
1000
,
0000
0000
0000
0000
,
0001
0000
0001
0000
1000
0010
0100
0001
0000
0000
0000
0000
0000
0000
0000
0000
,
0000
0000
0000
0000
,
0010
0000
0010
0000
0100
1000
0001
0100
0001
0000
0001
0000
1000
0100
0010
0001
,
0000
0000
0000
0000
,
1000
0000
1000
0000
0001
0100
0010
1000
0000
0000
0000
0000
0000
0000
0000
0000
,
0000
0000
0000
0000
,
0010
0000
0010
0000
0100
0001
1000
0001
0100
0000
0010
0000
1000
0001
0010
0001
,
1000
0000
0100
0000
0010
0100
1000
0100
0010
0001
1000
0001
1000
0001
1000
0001
,
0200
0000
0000
0000
,
0320
0000
0000
0000
,
2030
3000
0000
0000
0000
0000
0010
0000
0000
0000
0000
0000
0000
0000
0000
0000
0000
0000
1000
0000
0000
0000
0000
0000
0001
0000
0000
0000
0000
0000
0000
0000
0000
0000
0000
0000
1000
0000
0000
0000
0000
0000
0100
0000
0000
0000
0000
0000
,
0010
0100
0000
1000
0001
0000
0100
0010
,
2000
3000
0000
0000
0000
0000
0001
0000
0000
0000
0000
0000
0000
0000
0000
0000
0000
0000
0100
0000
0000
0000
0000
0000
0010
0000
0000
0000
0000
0000
0000
0000
0000
0000
0000
0000
1000
0000
0000
0000
0000
0000
0010
0000
0000
0000
0000
0000
,
2000
3000
0000
0000
0000
0000
0001
0000
0000
0000
0000
0000
0000
0000
0000
0000
0000
0000
0010
0000
0000
0000
0000
0000
0001
0000
0000
0000
0000
0000
0000
0000
0000
0000
0000
0000
0100
0000
0000
0000
0000
0000
0010
0000
0000
0000
0000
0000
,
0200
0300
0000
0000
0000
0000
0001
0000
0000
0000
0000
0000
0000
0000
0000
0000
0000
0000
1000
0000
0000
0000
0000
0000
0001
0000
0000
0000
0000
0000
0000
0000
0000
0000
0000
0000
0010
0000
0000
0000
0000
0000
0100
0000
0000
0000
0000
0000
,
0010
0001
0000
1000
0001
0000
0010
0100
,
2000
3000
0000
0000
0000
0000
0001
0000
0000
0000
0000
0000
0000
0000
0000
0000
0000
0000
0100
0000
0000
0000
0000
0000
0001
0000
0000
0000
0000
0000
0000
0000
0000
0000
0000
0000
0100
0000
0000
0000
0000
0000
0010
0000
0000
0000
0000
0000
,
2000
3000
0000
0000
0000
0000
0010
0000
0000
0000
0000
0000
0000
0000
0000
0000
0000
0000
1000
0000
0000
0000
0000
0000
0001
0000
0000
0000
0000
0000
0000
0000
0000
0000
0000
0000
0010
0000
0000
0000
0000
0000
0100
0000
0000
0000
0000
0000
,
2000
3000
0000
0000
0000
0000
0010
0000
0000
0000
0000
0000
0000
0000
0000
0000
0000
0000
0100
0000
0000
0000
0000
0000
0010
0000
0000
0000
0000
0000
0000
0000
0000
0000
0000
0000
0100
0000
0000
0000
0000
0000
0001
0000
0000
0000
0000
0000
,
0010
0001
0000
0010
0100
0000
1000
0001
,
0020
0030
0000
0000
0000
0000
0001
0000
0000
0000
0000
0000
0000
0000
0000
0000
0000
0000
0100
0000
0000
0000
0000
0000
0001
0000
0000
0000
0000
0000
0000
0000
0000
0000
0000
0000
0100
0000
0000
0000
0000
0000
0010
0000
0000
0000
0000
0000
,
2000
3000
0000
0000
0000
0000
0001
0000
0000
0000
0000
0000
0000
0000
0000
0000
0000
0000
1000
0000
0000
0000
0000
0000
0001
0000
0000
0100
0000
0000
0001
0000
0000
0100
0000
0000
0010
0000
0000
1000
0000
0000
0001
0000
0000
0010
0000
0000
,
0001
0010
0100
1000
0010
0100
0010
0100
0001
1000
0001
0010
0001
0010
0100
1000
,
0001
0100
0001
0100
0010
0100
0001
1000
0001
1000
0100
0010
0100
1000
0100
1000
,
0001
0000
0000
0000
,
0000
0000
0000
0000
,
1001
0001
0100
0001
0010
0100
0010
0001
,
0100
0010
1000
0100
0010
0001
1000
0010
,
1000
0001
0010
0100
0010
0001
0100
0010
,
0100
0001
0010
0100
0010
0001
0100
0010
,
0100
0001
1000
0010
1000
0001
0100
0001
,
0010
0100
1000
0100
0010
0001
1000
0100
,
1000
0010
0100
0001
0010
0100
1000
0010
,
1000
0100
1000
0001
0010
0001
1000
0001
,
0010
0100
1000
0010
0100
0001
0010
0100
,
0010
0001
0100
0010
1000
0100
0010
0100
,
1000
0010
0100
0010
1000
0100
0010
0100
,
1000
0010
0100
0010
1000
0100
0010
0100
,
1000
0010
0100
0001
0100
0010
1000
0010
,
0100
0001
0010
0100
0010
0001
1000
0100
,
1000
0010
0100
0001
0010
0100
1000
0001
,
1000
0010
1000
0100
1000
0001
0010
0001
,
1000
0010
0100
0001
0010
0001
1000
0010
,
0100
0001
1000
0100
0010
0001
0100
0010
,
1000
0010
0100
0001
0010
0100
1000
0001
,
0100
0001
0010
0100
1000
0010
1000
0001
,
0010
0001
1000
0100
1000
0001
0010
0100
,
1000
0010
0100
0001
1000
0010
0100
0001
,
1000
0100
1000
0001
0010
0001
0100
0001
,
0010
0100
1000
0010
0100
0001
0010
0001
,
1000
0100
0010
0001
0100
0010
1000
0100
,
0010
0100
1000
0010
0100
0001
0010
0100
,
0010
0001
0100
0010
0100
0001
0010
0100
,
0010
0001
0100
0010
0100
0001
0010
0100
,
0010
0001
0100
0010
1000
0100
0010
0001
,
0100
0001
0010
0001
1000
0100
1000
0001
,
0010
0100
1000
0001
0010
0100
1000
0001
1000
0001
0010
0100
1000
0001
0010
0100
,
2000
0000
3004
0000
,
1003
0100
0010
0100
1000
0001
0010
0001
1000
0100
0010
0001
1000
0001
0010
0001
,
1000
0010
0100
0001
1000
0001
0100
0010
1000
0001
0100
0001
1000
0010
1000
0001
,
1000
0100
0010
0001
1000
0001
0010
0100
0010
0001
1000
0100
1000
0100
0010
0100
,
1000
0010
0100
0001
0010
0100
0010
0001
1000
0001
1000
0100
0010
0100
1000
0001
,
1000
0010
0100
0010
1000
0001
0100
0001
1000
0010
0100
0001
1000
0001
0100
0001
,
1000
0100
0010
0001
1000
0001
0010
0100
1000
0001
0010
0001
1000
0100
1000
0001
,
1000
0010
0100
0001
1000
0001
0100
0010
0100
0001
1000
0010
1000
0010
0100
0010
,
1000
0100
0010
0001
0100
0010
0100
0001
1000
0001
1000
0010
0100
0010
1000
0001
,
1000
0100
0010
0100
1000
0001
0010
0001
1000
0100
0010
0001
1000
0001
0010
0001
,
1000
0010
0100
0001
1000
0001
0100
0010
1000
0001
0100
0001
1000
0010
1000
0001
,
1000
0100
0010
0001
1000
0001
0010
0100
0010
0001
1000
0100
1000
0100
0010
0100
,
1000
0010
0100
0001
0010
0100
0010
0001
1000
0001
1000
0100
0010
0100
1000
0001
,
1000
0010
0100
0010
1000
0001
0100
0001
1000
0010
0100
0001
1000
0001
0100
0001
,
1000
0100
0010
0001
1000
0001
0010
0100
1000
0001
0010
0001
1000
0100
1000
0001
,
1000
0010
0100
0001
1000
0001
0100
0010
0100
0001
1000
0010
1000
0010
0100
0010
,
1000
0100
0010
0001
0100
0010
0100
0001
1000
0001
1000
0010
0100
0010
1000
0001
,
1000
0100
0010
0100
1000
0001
0010
0001
1000
0100
0010
0001
1000
0001
0010
0001
,
1000
0010
0100
0001
1000
0001
0100
0010
1000
0001
0100
0001
1000
0010
1000
0001
,
1000
0100
0010
0001
1000
0001
0010
0100
0010
0001
1000
0100
1000
0100
0010
0100
,
1000
0010
0100
0001
0010
0100
0010
0001
1000
0001
1000
0100
0010
0100
1000
0001
,
1000
0010
0100
0010
1000
0001
0100
0001
1000
0010
0100
0001
1000
0001
0100
0001
,
1000
0100
0010
0001
1000
0001
0010
0100
1000
0001
0010
0001
1000
0100
1000
0001
,
1000
0010
0100
0001
1000
0001
0100
0010
0100
0001
1000
0010
1000
0010
0100
0010
,
1000
0100
0010
0001
0100
0010
0100
0001
1000
0001
1000
0010
0100
0010
1000
0001
,
1000
0100
0010
0100
1000
0001
0010
0001
1000
0100
0010
0001
1000
0001
0010
0001
,
1000
0010
0100
0001
1000
0001
0100
0010
1000
0001
0100
0001
1000
0010
1000
0001
,
1000
0100
0010
0001
1000
0001
0010
0100
0010
0001
1000
0100
1000
0100
0010
0100
,
1000
0010
0100
0001
0010
0100
0010
0001
1000
0001
1000
0100
0010
0100
1000
0001
,
1000
0010
0100
0010
1000
0001
0100
0001
1000
0010
0100
0001
1000
0001
0100
0001
,
1000
0100
0010
0001
1000
0001
0010
0100
1000
0001
0010
0001
1000
0100
1000
0001
,
1000
0010
0100
0001
1000
0001
0100
0010
0100
0001
1000
0010
1000
0010
0100
0010
,
2000
0000
3004
0000
,
1003
0010
0100
0001
1000
0001
1000
0010
0100
0001
1000
0001
0100
0001
1000
0010
,
0100
0001
0010
0100
1000
0001
1000
0001
0010
0100
1000
0001
0010
0001
1000
0100
,
0010
0001
0100
0001
1000
0010
0100
0001
1000
0001
0100
0010
1000
0001
0100
0010
,
0100
0001
0010
0100
1000
0010
0100
0001
1000
0010
1000
0001
1000
0001
0100
0010
,
1000
0100
0010
0001
1000
0001
1000
0100
0010
0001
1000
0001
0010
0001
1000
0100
,
0010
0001
0100
0010
1000
0001
1000
0001
0100
0010
1000
0001
0100
0001
1000
0010
,
0100
0001
0010
0001
1000
0100
0010
0001
1000
0001
0010
0100
1000
0001
0010
0100
,
0010
0001
0100
0010
1000
0100
0010
0001
1000
0100
1000
0001
1000
0001
0010
0100
,
1000
0010
0100
0001
1000
0001
1000
0010
0100
0001
1000
0001
0100
0001
1000
0010
,
0100
0001
0010
0100
1000
0001
1000
0001
0010
0100
1000
0001
0010
0001
1000
0100
,
0010
0001
0100
0001
1000
0010
0100
0001
1000
0001
0100
0010
1000
0001
0100
0010
,
0100
0001
0010
0100
1000
0010
0100
0001
1000
0010
1000
0001
1000
0001
0100
0010
,
1000
0100
0010
0001
1000
0001
1000
0100
0010
0001
1000
0001
0010
0001
1000
0100
,
0010
0001
0100
0010
1000
0001
1000
0001
0100
0010
1000
0001
0100
0001
1000
0010
,
0100
0001
0010
0001
1000
0100
0010
0001
1000
0001
0010
0100
1000
0001
0010
0100
,
0010
0001
0100
0010
1000
0100
0010
0001
1000
0100
1000
0001
1000
0001
0010
0100
,
1000
0010
0100
0001
1000
0001
1000
0010
0100
0001
1000
0001
0100
0001
1000
0010
,
0100
0001
0010
0100
1000
0001
1000
0001
0010
0100
1000
0001
0010
0001
1000
0100
,
0010
0001
0100
0001
1000
0010
0100
0001
1000
0001
0100
0010
1000
0001
0100
0010
,
0100
0001
0010
0100
1000
0010
0100
0001
1000
0010
1000
0001
1000
0001
0100
0010
,
1000
0100
0010
0001
1000
0001
1000
0100
0010
0001
1000
0001
0010
0001
1000
0100
,
0010
0001
0100
0010
1000
0001
1000
0001
0100
0010
1000
0001
0100
0001
1000
0010
,
0100
0001
0010
0001
1000
0100
0010
0001
1000
0001
0010
0100
1000
0001
0010
0100
,
0010
0001
0100
0010
1000
0100
0010
0001
1000
0100
1000
0001
1000
0001
0010
0100
,
1000
0010
0100
0001
1000
0001
1000
0010
0100
0001
1000
0001
0100
0001
1000
0010
,
0100
0001
0010
0100
1000
0001
1000
0001
0010
0100
1000
0001
0010
0001
1000
0100
,
0010
0001
0100
0001
1000
0010
0100
0001
1000
0001
0100
0010
1000
0001
0100
0010
,
0100
0001
0010
0100
1000
0010
0100
0001
1000
0010
1000
0001
1000
0001
0100
0010
,
1000
0100
0010
0001
1000
0001
1000
0100
0010
0001
1000
0001
0010
0001
1000
0100
,
0010
0001
0100
0010
1000
0001
1000
0001
0100
0010
1000
0001
0100
0001
1000
0010
,
0100
0001
0010
0001
1000
0100
0010
0001
1000
0001
0010
0100
1000
0001
0010
0100
,
2000
0000
3004
0000
,
1003
0010
1000
0001
0100
0010
0100
0001
0010
0001
1000
0001
0010
0100
0010
0001
,
1000
0010
1000
0001
0100
0010
0100
0001
0010
0001
1000
0001
0010
0100
0010
0001
,
1000
0010
1000
0001
0100
0010
0100
0001
0010
0001
1000
0001
0010
0100
0010
0001
,
1000
0010
1000
0001
0100
0010
0100
0001
0010
0001
1000
0001
0010
0100
0010
0001
,
1000
0100
1000
0001
0010
0100
0010
0001
0100
0001
1000
0001
0100
0010
0100
0001
,
1000
0100
1000
0001
0010
0100
0010
0001
0100
0001
1000
0001
0100
0010
0100
0001
,
1000
0100
1000
0001
0010
0100
0010
0001
0100
0001
1000
0001
0100
0010
0100
0001
,
1000
0100
1000
0001
0010
0100
0010
0001
0100
0001
1000
0001
0100
0010
0100
0001
,
1000
0010
1000
0001
0100
0010
0100
0001
0010
0001
1000
0001
0010
0100
0010
0001
,
1000
0010
1000
0001
0100
0010
0100
0001
0010
0001
1000
0001
0010
0100
0010
0001
,
1000
0010
1000
0001
0100
0010
0100
0001
0010
0001
1000
0001
0010
0100
0010
0001
,
1000
0010
1000
0001
0100
0010
0100
0001
0010
0001
1000
0001
0010
0100
0010
0001
,
1000
0100
1000
0001
0010
0100
0010
0001
0100
0001
1000
0001
0100
0010
0100
0001
,
1000
0100
1000
0001
0010
0100
0010
0001
0100
0001
1000
0001
0100
0010
0100
0001
,
1000
0100
1000
0001
0010
0100
0010
0001
0100
0001
1000
0001
0100
0010
0100
0001
,
1000
0100
1000
0001
1000
0001
0100
0010
0100
0001
1000
0100
0010
0100
1000
0001
,
0100
0010
0100
0001
1000
0010
0100
0001
0010
0001
1000
0100
0010
0100
1000
0001
,
0100
0010
0100
0001
1000
0010
0100
0001
0010
0001
1000
0100
0010
0100
1000
0001
,
0100
0010
0100
0001
1000
0010
0100
0001
0010
0001
1000
0100
0010
0100
1000
0001
,
0100
0010
0100
0001
1000
0010
0100
0001
0010
0001
1000
0100
0010
0100
1000
0001
,
0010
0100
0010
0001
1000
0100
0010
0001
0100
0001
1000
0010
0100
0010
1000
0001
,
0010
0100
0010
0001
1000
0100
0010
0001
0100
0001
1000
0010
0100
0010
1000
0001
,
0010
0100
0010
0001
1000
0100
0010
0001
0100
0001
1000
0010
0100
0010
1000
0001
,
0010
0100
0010
0001
1000
0100
0010
0001
0100
0001
1000
0010
0100
0010
1000
0001
,
0100
0010
0100
0001
1000
0010
0100
0001
0010
0001
1000
0100
0010
0100
1000
0001
,
0100
0010
0100
0001
1000
0010
0100
0001
0010
0001
1000
0100
0010
0100
1000
0001
,
0100
0010
0100
0001
1000
0010
0100
0001
0010
0001
1000
0100
0010
0100
1000
0001
,
0100
0010
0100
0001
1000
0010
0100
0001
0010
0001
1000
0100
0010
0100
1000
0001
,
0010
0100
0010
0001
1000
0100
0010
0001
0100
0001
1000
0010
0100
0010
1000
0001
,
0010
0100
0010
0001
1000
0100
0010
0001
0100
0001
1000
0010
0100
0010
1000
0001
,
0010
0100
1000
0001
1000
0001
0100
0010
0100
0001
1000
0100
0010
0100
1000
0001
,
0100
0010
1000
0001
1000
0001
0010
0100
0010
0001
1000
0010
0100
0010
1000
0001
,
0200
0300
0000
0000
0000
0000
0010
0000
0000
0000
0000
0000
0000
0000
0000
0000
0000
0000
1000
0000
0000
0000
0000
0000
0001
0000
0000
0000
0000
0000
0000
0000
0000
0000
0000
0000
0010
0000
0000
0000
0000
0000
0100
0000
0000
0000
0000
0000
,
2000
3000
0000
0000
0000
0000
0001
0000
0000
0000
0000
0000
0000
0000
0000
0000
0000
0000
0100
0000
0000
0000
0000
0000
0001
0000
0000
0000
0000
0000
0000
0000
0000
0000
0000
0000
1000
0000
0000
0000
0000
0000
0001
0000
0000
0000
0000
0000
,
2000
3000
0000
0000
0000
0000
0100
0000
0000
0000
0000
0000
0000
0000
0000
0000
0000
0000
1000
0000
0000
0000
0000
0000
0001
0000
0000
0000
0000
0000
0000
0000
0000
0000
0000
0000
1000
0000
0000
0000
0000
0000
0010
0000
0000
0000
0000
0000
,
0100
0010
0000
1000
0001
0000
0010
0100
,
2000
3000
0000
0000
0000
0000
0001
0000
0000
0000
0000
0000
0000
0000
0000
0000
0000
0000
0010
0000
0000
0000
0000
0000
0100
0000
0000
0000
0000
0000
0000
0000
0000
0000
0000
0000
1000
0000
0000
0000
0000
0000
0100
0000
0000
0000
0000
0000
,
2000
3000
0000
0000
0000
0000
0001
0000
0000
0000
0000
0000
0000
0000
0000
0000
0000
0000
0100
0000
0000
0000
0000
0000
0001
0000
0000
0000
0000
0000
0000
0000
0000
0000
0000
0000
0010
0000
0000
0000
0000
0000
0100
0000
0000
0000
0000
0000
,
0020
0030
0000
0000
0000
0000
0001
0000
0000
0000
0000
0000
0000
0000
0000
0000
0000
0000
1000
0000
0000
0000
0000
0000
0001
0000
0000
0000
0000
0000
0000
0000
0000
0000
0000
0000
0100
0000
0000
0000
0000
0000
0010
0000
0000
0000
0000
0000
,
0100
0001
0000
1000
0001
0000
0100
0010
,
2000
3000
0000
0000
0000
0000
0001
0000
0000
0000
0000
0000
0000
0000
0000
0000
0000
0000
0010
0000
0000
0000
0000
0000
0001
0000
0000
0000
0000
0000
0000
0000
0000
0000
0000
0000
0010
0000
0000
0000
0000
0000
0100
0000
0000
0000
0000
0000
,
2000
3000
0000
0000
0000
0000
0100
0000
0000
0000
0000
0000
0000
0000
0000
0000
0000
0000
1000
0000
0000
0000
0000
0000
0001
0000
0000
0000
0000
0000
0000
0000
0000
0000
0000
0000
0100
0000
0000
0000
0000
0000
0010
0000
0000
0000
0000
0000
,
2000
3000
0000
0000
0000
0000
0100
0000
0000
0000
0000
0000
0000
0000
0000
0000
0000
0000
0010
0000
0000
0000
0000
0000
0100
0000
0000
0000
0000
0000
0000
0000
0000
0000
0000
0000
0010
0000
0000
0000
0000
0000
0001
0000
0000
0000
0000
0000
,
0100
0001
0000
0100
0010
0000
1000
0001
,
0200
0300
0000
0000
0000
0000
0001
0000
0000
0000
0000
0000
0000
0000
0000
0000
0000
0000
0010
0000
0000
0000
0000
0000
0001
0000
0000
0000
0000
0000
0000
0000
0000
0000
0000
0000
0010
0000
0000
0000
0000
0000
0100
0000
0000
0000
0000
0000
,
2000
3000
0000
0000
0000
0000
0000
0000
0000
0000
0000
0000
0001
0000
0000
0000
0000
0000
0000
0000
0000
0000
0000
0000
0100
0000
0000
0000
0000
0000
0000
0000
0000
0000
0000
0000
0010
0000
0000
0000
0000
0000
1000
0000
0000
0000
0000
0000
,
0002
0000
0000
0000
,
0000
0000
0000
0003
,
2000
3000
0000
0000
0000
0000
0010
0000
0000
0000
0000
0000
0100
0000
0000
0000
0000
0000
0100
0000
0000
0000
0000
0000
0001
0000
0000
0000
0000
0000
1000
0000
0000
0000
0000
0000
1000
0000
0000
0000
0000
0000
0001
0000
0000
0000
0000
0000
,
0020
0030
0000
0000
0000
0000
0100
0000
0000
0000
0000
0000
0010
0000
0000
0000
0000
0000
0010
0000
0000
0000
0000
0000
0001
0000
0000
0000
0000
0000
1000
0000
0000
0000
0000
0000
1000
0000
0000
0000
0000
0000
0010
0000
0000
0000
0000
0000
,
0200
0300
0000
0000
0000
0000
0001
0000
0000
0000
0000
0000
0010
0000
0000
0000
0000
0000
0010
0000
0000
0000
0000
0000
0001
0000
0000
0000
0000
0000
0010
0000
0000
0000
0000
0000
0010
0000
0000
0000
0000
0000
0100
0000
0000
0000
0000
0000
,
2000
3000
0000
0000
0000
0000
0001
0000
0000
0000
0000
0000
0100
0000
0000
0000
0000
0000
0100
0000
0000
0000
0000
0000
0010
0000
0000
0000
0000
0000
0100
0000
0000
0000
0000
0000
0100
0000
0000
0000
0000
0000
0001
0000
0000
0000
0000
0000
,
2000
3000
0000
0000
0000
0000
0100
0000
0000
0000
0000
0000
1000
0000
0000
0000
0000
0000
1000
0000
0000
0000
0000
0000
0001
0000
0000
0000
0000
0000
0010
0000
0000
0000
0000
0000
0010
0000
0000
0000
0000
0000
0100
0000
0000
0000
0000
0000
,
2000
3000
0000
0000
0000
0000
0001
0000
0000
0000
0000
0000
0100
0000
0000
0000
0000
0000
0100
0000
0000
0000
0000
0000
0010
0000
0000
0000
0000
0000
1000
0000
0000
0000
0000
0000
1000
0000
0000
0000
0000
0000
0001
0000
0000
0000
0000
0000
,
0020
0030
0000
0000
0000
0000
0100
0000
0000
0000
0000
0000
0010
0000
0000
0000
0000
0000
0010
0000
0000
0000
0000
0000
0001
0000
0000
0000
0000
0000
1000
0000
0000
0000
0000
0000
1000
0000
0000
0000
0000
0000
0100
0000
0000
0000
0000
0000
,
2000
3000
0000
0000
0000
0000
0010
0000
0000
0000
0000
0000
0100
0000
0000
0000
0000
0000
0100
0000
0000
0000
0000
0000
0001
0000
0000
0000
0000
0000
1000
0000
0000
0000
0000
0000
1000
0000
0000
0000
0000
0000
0001
0000
0000
0000
0000
0000
,
0002
0003
0000
0000
0000
0000
0010
0000
0000
0000
0000
0000
0100
0000
0000
0000
0000
0000
0100
0000
0000
0000
0000
0000
1000
0000
0000
0000
0000
0000
0001
0000
0000
0000
0000
0000
0001
0000
0000
0000
0000
0000
1000
0000
0000
0000
0000
0000
,
0020
0030
0000
0000
0000
0000
0100
0000
0000
0000
0000
0000
0010
0000
0000
0000
0000
0000
0010
0000
0000
0000
0000
0000
1000
0000
0000
0000
0000
0000
0001
0000
0000
0000
0000
0000
0001
0000
0000
0000
0000
0000
0010
0000
0000
0000
0000
0000
,
0200
0300
0000
0000
0000
0000
1000
0000
0000
0000
0000
0000
0010
0000
0000
0000
0000
0000
0010
0000
0000
0000
0000
0000
1000
0000
0000
0000
0000
0000
0010
0000
0000
0000
0000
0000
0010
0000
0000
0000
0000
0000
0100
0000
0000
0000
0000
0000
,
0002
0003
0000
0000
0000
0000
1000
0000
0000
0000
0000
0000
0100
0000
0000
0000
0000
0000
0100
0000
0000
0000
0000
0000
0010
0000
0000
0000
0000
0000
0100
0000
0000
0000
0000
0000
0100
0000
0000
0000
0000
0000
1000
0000
0000
0000
0000
0000
,
0002
0003
0000
0000
0000
0000
0100
0000
0000
0000
0000
0000
0001
0000
0000
0000
0000
0000
0001
0000
0000
0000
0000
0000
1000
0000
0000
0000
0000
0000
0010
0000
0000
0000
0000
0000
0010
0000
0000
0000
0000
0000
0100
0000
0000
0000
0000
0000
,
0002
0003
0000
0000
0000
0000
1000
0000
0000
0000
0000
0000
0100
0000
0000
0000
0000
0000
0100
0000
0000
0000
0000
0000
0010
0000
0000
0000
0000
0000
0100
0000
0000
0000
0000
0000
0100
0000
0000
0000
0000
0000
1000
0000
0000
0000
0000
0000
,
0001
1000
0001
1000
0001
1000
0001
1000
0001
1000
0001
1000
0001
1000
0001
1000
,
0002
0000
4003
0000
,
3001
0010
0100
0010
0001
1000
0100
1000
0001
0010
0100
1000
0001
1000
0100
1000
,
0001
0100
0010
1000
0001
1000
0010
0100
0001
1000
0010
1000
0001
0100
0001
1000
,
0001
0010
0100
1000
0001
1000
0100
0010
0100
1000
0001
0010
0001
0010
0100
0010
,
0001
0100
0010
1000
0100
0010
0100
1000
0001
1000
0001
0010
0100
0010
0001
1000
,
0001
0100
0010
0100
0001
1000
0010
1000
0001
0100
0010
1000
0001
1000
0010
1000
,
0001
0010
0100
1000
0001
1000
0100
0010
0001
1000
0100
1000
0001
0010
0001
1000
,
0001
0100
0010
1000
0001
1000
0010
0100
0010
1000
0001
0100
0001
0100
0010
0100
,
0001
0010
0100
1000
0010
0100
0010
1000
0001
1000
0001
0100
0010
0100
0001
1000
,
0001
0010
0100
0010
0001
1000
0100
1000
0001
0010
0100
1000
0001
1000
0100
1000
,
0001
0100
0010
1000
0001
1000
0010
0100
0001
1000
0010
1000
0001
0100
0001
1000
,
0001
0010
0100
1000
0001
1000
0100
0010
0100
1000
0001
0010
0001
0010
0100
0010
,
0001
0100
0010
1000
0100
0010
0100
1000
0001
1000
0001
0010
0100
0010
0001
1000
,
0001
0100
0010
0100
0001
1000
0010
1000
0001
0100
0010
1000
0001
1000
0010
1000
,
0001
0010
0100
1000
0001
1000
0100
0010
0001
1000
0100
1000
0001
0010
0001
1000
,
0001
0100
0010
1000
0001
1000
0010
0100
0010
1000
0001
0100
0001
0100
0010
0100
,
0001
0010
0100
1000
0010
0100
0010
1000
0001
0100
0010
1000
0001
1000
0001
0010
,
0100
1000
0001
1000
0100
1000
0001
0010
0100
1000
0010
0100
0001
1000
0001
1000
,
0010
0100
0001
1000
0010
1000
0001
0100
0010
1000
0100
1000
0001
0010
0100
1000
,
0001
1000
0100
0010
0001
1000
0100
0010
0100
1000
0010
0100
0001
0010
0100
1000
,
0001
0010
0001
1000
0001
1000
0100
0010
0001
0100
0010
1000
0001
1000
0001
0100
,
0010
1000
0001
1000
0010
1000
0001
0100
0010
1000
0100
0010
0001
1000
0001
1000
,
0100
0010
0001
1000
0100
1000
0001
0010
0100
1000
0010
1000
0001
0100
0010
1000
,
0001
1000
0010
0100
0001
1000
0010
0100
0010
1000
0100
0010
0001
0100
0010
1000
,
0001
0100
0001
1000
0001
1000
0010
0100
0001
0010
0100
1000
0001
1000
0001
0010
,
0100
1000
0001
1000
0100
1000
0001
0010
0100
1000
0010
0100
0001
1000
0001
1000
,
0010
0100
0001
1000
0010
1000
0001
0100
0010
1000
0100
1000
0001
0010
0100
1000
,
0001
1000
0100
0010
0001
1000
0100
0010
0100
1000
0010
0100
0001
0010
0100
1000
,
0001
0010
0001
1000
0001
1000
0100
0010
0001
0100
0010
1000
0001
1000
0001
0100
,
0010
1000
0001
1000
0010
1000
0001
0100
0010
1000
0100
0010
0001
1000
0001
1000
,
0100
0010
0001
1000
0100
1000
0001
0010
0100
1000
0010
1000
0001
0100
0010
1000
,
0001
1000
0010
0100
0001
1000
0010
0100
0010
1000
0100
0010
0001
0100
0010
1000
,
0001
0100
0001
1000
0001
1000
0010
0100
0001
1000
0100
1000
0001
0010
0100
1000
,
0002
0000
0000
0000
,
0000
0003
0000
0000
;

//---------------dance-single - 15+ (Pope)----------------
#NOTES:
     dance-single:
     15+ (Pope):
     Medium:
     15:
     1.000,1.000,0.175,0.360,1.000,3325.000,70.000,144.000,40.000,0.000:
0000
0000
0000
0000
,
0000
0000
0000
0000
,
0000
0000
0000
0000
,
0000
0000
0000
0000
,
0000
0000
0000
0000
,
0000
0000
0000
0000
,
0000
0000
0000
0000
,
0000
0000
0000
0000
,
1001
0000
0001
0000
1000
0000
0100
0000
1000
0001
0100
0000
0010
0000
0100
0000
,
0001
0000
1000
0000
0100
0000
0010
0000
0001
1000
0100
0000
1000
0000
1000
0001
,
0100
0000
0010
0000
0100
0000
0001
0000
1000
0001
0010
0000
0100
0000
0010
0000
,
0001
0000
0100
0000
0010
0000
0100
0000
0001
1000
0010
0000
1000
0000
1000
0100
,
0010
0000
0001
0000
1000
0000
0100
0000
0010
0001
1000
0000
0001
0000
0100
0000
,
0001
0000
0010
0000
0100
0000
1000
0000
0001
0100
0010
0000
0100
0000
0100
0001
,
1000
0100
0010
0001
1000
0001
0100
0010
1000
0010
0100
0001
1000
0100
0010
0001
,
M000
0M00
00M0
000M
,
1001
0000
1000
0000
0010
0000
0100
0000
0001
1000
0100
0000
0010
0000
0100
0000
,
1000
0000
0010
0000
010M
0000
001M
0000
100M
0100
001M
0000
010M
0000
010M
1000
,
001M
0000
M100
0000
M001
0000
M010
0000
M001
0100
M010
0000
M100
0000
M001
0000
,
M010
0000
0100
0000
1000
0000
0001
0000
1M00
0010
0100
0000
0001
0000
0001
0000
,
0001
0000
1000
0000
0100
0000
0010
0000
0001
1000
01M0
0000
0010
0000
0100
0000
,
1000
0000
0001
0000
0100
0000
0010
0000
1000
0001
0010
0000
0001
0000
0100
0000
,
0010
0000
0100
0000
0001
0000
1000
0000
0001
0010
0100
0000
1000
0000
0001
0000
,
0100
0000
0010
0000
0100
0000
0001
0000
1000
0001
0100
0000
0010
0000
0010
0000
,
1010
0000
1000
0000
0001
0000
0010
0000
0100
1000
0001
0000
0100
0000
0010
0000
,
0100
0000
0001
0000
1000
0000
0001
0000
0010
0100
1000
0000
0001
0000
1000
0000
,
0010
0000
0100
0000
0010
0000
1000
0000
0001
1000
0100
0000
0010
0000
0001
0000
,
1000
0000
0010
0000
0100
0000
0001
0000
1000
0001
0100
0000
0001
0000
0001
0000
,
0001
0000
0010
0000
0100
0000
1000
0000
0001
1000
0010
0000
0100
0000
0001
0000
,
1000
0000
0100
0000
1000
0000
0010
0000
0100
0001
0010
0000
0100
0000
1000
0000
,
0001
0000
0010
0000
0001
0000
0100
0000
0010
1000
0100
0000
0010
0000
0001
0000
,
1000
0000
1000
0000
1000
0000
1000
1000
,
1001
0000
0001
0000
0010
0000
0100
1000
0001
1000
0001
0000
0100
0000
0010
1000
,
0001
0000
0010
0000
0100
0000
1000
0010
0100
0010
0100
0000
0001
0000
1000
0100
,
0010
0000
0001
0000
1000
0000
0001
0100
0010
0100
0010
0000
1000
0000
0001
0010
,
0100
0000
0010
0000
0001
0000
1000
0001
0100
0001
0100
0000
0010
0000
0010
1000
,
0010
0000
0100
0000
0001
0000
1000
0001
0010
0001
0010
0000
0100
0000
1000
0001
,
0100
0000
0010
0000
1000
0000
0001
0100
0010
0100
0010
0000
1000
0000
0001
1000
,
0100
0000
0010
0000
0001
0000
1000
0001
0100
0001
0100
0000
0010
0000
1000
0001
,
0100
0000
0010
0000
1000
0000
0001
1000
0100
1000
0100
0000
1000
0000
1000
0000
,
1001
0000
0001
0100
0001
0000
1000
0001
1000
0100
0010
0001
1000
0000
0001
0100
,
0001
0000
1000
0100
1000
0000
0001
0010
0100
1000
0001
0100
0001
0000
1000
0010
,
1000
0000
0001
0100
0001
0000
1000
0100
0010
0100
1000
0001
1000
0000
0001
0100
,
0001
0000
1000
0001
1000
0000
0010
0100
0001
1000
0100
0010
0001
0000
0001
0000
,
0001
0000
1000
0010
1000
0000
0001
0100
0010
1000
0010
0100
0001
0000
1000
0100
,
1000
0000
0001
0010
0001
0000
1000
0100
0010
0001
1000
0001
0100
0000
0010
0100
,
0010
0000
1000
0010
1000
0000
0001
0010
0100
1000
0001
0100
0001
0000
1000
0000
,
1002
0000
0000
0000
0000
0000
0000
0000
0000
0000
0000
0000
0000
0000
0000
0000
0023
0000
0000
0000
0000
0000
0000
0000
0000
0000
0000
0000
0000
0000
0000
0000
0230
0000
0000
0000
0000
0000
0000
0000
0000
0000
0000
0000
0000
0000
0000
0000
2300
0000
0000
0000
0000
0000
0000
3000
1000
0000
0000
0000
0100
0000
0000
0000
,
0010
0000
0010
0000
0001
0100
0010
1000
0001
0000
0001
0000
1000
0100
0010
0100
,
1000
0000
1000
0000
0001
0100
0010
1000
0001
0000
0001
0000
1000
0000
0001
1000
,
0100
0000
0100
0000
0010
0001
1000
0010
0100
0000
0100
0000
0001
0100
0010
1000
,
0001
0000
0001
0000
0010
0100
1000
0001
1000
0000
1000
0000
0001
0000
0001
0000
,
1000
0000
1000
0000
0010
1000
0100
0010
0001
0000
0001
0000
1000
0001
0100
0010
,
0100
0000
0100
0000
0001
1000
0100
0010
0100
0000
0100
0000
1000
0010
0100
0001
,
1000
0000
1000
0000
0001
0100
0010
1000
0001
0000
0001
0000
0010
0100
1000
0001
,
1000
0000
1000
0000
0001
0100
0010
1000
0001
0000
0001
0000
0100
0000
0100
0000
,
0101
0000
0001
0000
1000
0001
0100
0010
1000
0000
1000
0000
0001
0010
0100
0010
,
0001
0000
0001
0000
0100
0010
1000
0001
1000
0000
1000
0000
0100
0010
0001
1000
,
0001
0000
0001
0000
0010
0001
1000
0010
0100
0000
0100
0000
0001
1000
0100
0010
,
0001
0000
0001
0000
1000
0100
0010
0001
1000
0000
1000
0000
0001
0000
0001
0000
,
0100
0000
0100
0000
0001
1000
0100
0010
0001
0000
0001
0000
1000
0010
0100
0010
,
1000
0000
1000
0000
0010
0100
0001
1000
0100
0000
0100
0000
1000
0001
0010
0100
,
1000
0000
1000
0000
0001
0010
0100
1000
0001
0100
0010
1000
0001
1000
0100
0010
,
0002
0000
0000
0000
0000
0000
0000
0000
0000
0000
0000
0000
0000
0000
0000
0000
0023
0000
0000
0000
0000
0000
0000
0000
0000
0000
0000
0000
0000
0000
0000
0000
0230
0000
0000
0000
0000
0000
0000
0000
0000
0000
0000
0000
0000
0000
0000
0000
2300
0000
0000
0000
0000
0000
0000
0000
0000
0000
0000
0000
0000
0000
0000
3000
,
1001
0000
0001
0000
1000
0100
0010
0001
1000
0000
0010
0000
0100
0001
0010
0100
,
1000
0000
0001
0000
0100
0010
1000
0001
0010
0000
0001
0000
0010
0100
1000
0001
,
0100
0000
0010
0000
0100
0010
1000
0001
0010
0000
0100
0000
1000
0001
0100
0010
,
1000
0000
0001
0000
0010
0100
1000
0001
0010
0000
0100
0000
0010
0001
1000
0001
,
0100
0000
0010
0000
0100
0001
0010
0100
1000
0000
0001
0000
0100
0010
0100
0001
,
0010
0000
0001
0000
1000
0100
0010
0001
1000
0000
0001
0000
0100
0010
1000
0001
,
1000
0000
0100
0000
0010
0001
1000
0001
0100
0000
0001
0000
1000
0001
1000
0100
,
0010
0000
0001
0000
1000
0001
1000
0010
0100
0000
0000
0001
1000
0000
1000
0000
,
1001
0000
0001
0000
1000
0100
0010
0001
1000
0000
0010
0000
0100
0001
0010
0100
,
1000
0000
0001
0000
0100
0010
1000
0001
0010
0000
0001
0000
0010
0100
1000
0001
,
0100
0000
0010
0000
0100
0010
1000
0001
0010
0000
0100
0000
1000
0001
0100
0010
,
1000
0000
0001
0000
0010
0100
1000
0001
0010
0000
0100
0000
0010
0001
1000
0001
,
0100
0000
0010
0000
0100
0001
0010
0100
1000
0000
0001
0000
0100
0010
0100
0001
,
0010
0000
0001
0000
1000
0100
0010
0001
1000
0000
0001
0000
0100
0010
1000
0001
,
1000
0000
0100
0000
0010
0001
1000
0001
0100
0000
0001
0000
1000
0001
0010
0100
,
1000
0M01
10M0
0M01
10M0
0M01
10M0
0M01
,
1001
0000
1000
0000
0001
0010
0100
1000
0001
0000
0100
0000
0010
1000
0100
0010
,
0001
0000
1000
0000
0010
0100
0001
1000
0100
0000
1000
0000
0100
0010
0001
1000
,
0010
0000
0100
0000
0010
0100
0001
1000
0100
0000
0010
0000
0001
1000
0010
0100
,
0001
0000
1000
0000
0100
0010
0001
1000
0100
0000
0010
0000
0100
1000
0001
1000
,
0010
0000
0100
0000
0010
1000
0100
0010
0001
0000
1000
0000
0010
0100
0010
1000
,
0100
0000
1000
0000
0001
0010
0100
1000
0001
0000
1000
0000
0010
0100
0001
1000
,
0001
0000
0010
0000
0100
1000
0001
1000
0010
0000
1000
0000
0001
1000
0100
0010
,
0001
0000
1000
0000
0001
0100
0010
1000
0001
0000
0010
0000
0001
1000
0100
1000
,
0001
0000
0001
0000
1000
0100
0010
0001
1000
0000
0010
0000
0100
0001
0010
0100
,
1000
0000
0001
0000
0100
0010
1000
0001
0010
0000
0001
0000
0010
0100
1000
0001
,
0100
0000
0010
0000
0100
0010
1000
0001
0010
0000
0100
0000
1000
0001
0100
0010
,
1000
0000
0001
0000
0010
0100
1000
0001
0010
0000
0100
0000
0010
0001
1000
0001
,
0100
0000
0010
0000
0100
0001
0010
0100
1000
0000
0001
0000
0100
0010
0100
0001
,
0010
0000
0001
0000
1000
0100
0010
0001
1000
0000
0001
0000
0100
0010
1000
0000
,
1010
1010
1001
1001
0011
0011
0110
0110
,
0100
1000
0001
0100
0010
0100
0001
1000
0001
0010
0100
1000
0001
0100
0010
1000
,
0001
0000
0000
0000
,
0000
0000
0000
0000
,
1000
0000
1000
0000
0001
0100
0010
1000
0001
0000
0001
0000
1000
0100
0010
0001
,
0000
0000
0000
0000
,
0100
0000
0100
0000
0010
1000
0001
0010
0000
0000
0000
0000
0000
0000
0000
0000
,
0000
0000
0000
0000
,
0100
0000
0100
0000
1000
0001
0100
0010
1000
0000
1000
0000
0001
0010
0100
1000
,
0000
0000
0000
0000
,
0001
0000
0001
0000
1000
0010
0100
0001
0000
0000
0000
0000
0000
0000
0000
0000
,
0000
0000
0000
0000
,
0010
0000
0010
0000
0100
1000
0001
0100
0001
0000
0001
0000
1000
0100
0010
0001
,
0000
0000
0000
0000
,
1000
0000
1000
0000
0001
0100
0010
1000
0000
0000
0000
0000
0000
0000
0000
0000
,
0000
0000
0000
0000
,
0002
0000
2003
0000
3001
0010
0100
1000
0020
0000
0230
0000
0301
1000
0100
1000
,
0002
0000
0203
0000
0310
1000
0001
0010
0200
0000
2300
0000
3001
0100
0001
0100
,
0002
0000
0000
0000
,
1003
0200
2300
3002
,
0103
0010
0000
1000
0100
0000
0010
0001
,
0010
0100
0000
1000
0001
0000
1000
0010
,
0100
0002
0000
2003
,
3200
2300
0000
3001
,
1000
0010
0000
0100
0001
0000
0100
0010
,
0100
0001
0000
0010
0100
0000
1000
0001
,
0200
0010
0001
0000
,
0310
2000
3002
0023
,
0130
1000
0000
0001
0100
0000
0010
0100
,
0001
0010
0000
0100
1000
0000
0001
1000
,
0200
0320
0031
2000
,
3020
0000
0000
0000
0230
0000
0000
0000
0301
0010
0100
1000
0001
0100
0001
1000
,
0100
0010
0001
1000
0010
0100
0001
1000
0100
1000
0001
0100
0010
1000
0001
1000
,
0100
0010
0001
1000
0010
1000
0001
0010
0001
1000
0100
0010
0001
1000
0001
0000
,
1001
0000
0000
0000
,
0000
0000
0MM0
0MM0
0MM0
0MM0
0MM0
0MM0
,
1001
0001
1000
0001
0001
0010
0001
0100
,
0010
1000
0100
0010
0010
0001
0100
0010
,
1000
0100
0010
0001
0001
1000
0010
0100
,
0001
0010
0100
1000
1000
0001
0100
0010
,
1000
0100
0010
0100
0100
1000
0001
0100
,
0001
0010
0100
0010
0010
0001
1000
0010
,
1000
0100
0010
0001
0001
1000
0001
0100
,
0001
0010
0100
1000
1000
0001
0100
0010
,
1010
1000
0001
0100
0100
0010
1000
0001
,
1000
0100
0010
0001
0001
1000
0010
0100
,
0001
0010
0100
0010
0010
0001
1000
0100
,
1000
0010
0100
0001
0001
1000
0100
0010
,
0001
0100
0010
1000
1000
0001
0010
0001
,
1000
0100
0010
0001
0001
1000
0010
0100
,
0001
0010
0100
1000
1000
0001
0100
0010
,
1000
0100
0010
0100
0100
1000
0001
0010
,
0011
0001
1000
0001
0001
0010
0001
0100
,
0010
0000
1000
0000
0100
0000
0010
0000
0010
0000
0002
0003
0100
0000
0020
0030
,
1000
0000
0100
0000
0020
0030
0001
0000
0001
0000
2000
3000
0010
0000
0200
0300
,
0002
0003
0010
0000
0200
0300
2000
3000
1000
0000
0001
0000
0200
0300
0010
0000
,
1000
0000
0100
0000
0020
0030
0100
0000
0100
0000
2000
3000
0001
0000
0200
0300
,
0001
0000
0010
0000
0200
0300
0020
0030
0010
0000
0002
0003
2000
3000
0020
0030
,
2000
3000
0100
0000
0020
0030
0002
0003
0001
0000
2000
3000
0002
0003
0200
0300
,
0002
0003
0010
0000
0100
0000
2000
3000
1000
0000
0001
0000
0200
0300
0010
0000
,
1010
0000
1000
0000
0002
0003
0100
0000
0100
0000
0020
0030
2000
3000
0002
0003
,
1000
0000
0100
0000
0020
0030
0002
0003
0001
0000
2000
3000
0020
0030
0200
0300
,
0002
0003
0010
0000
0200
0300
0020
0030
0010
0000
0002
0003
2000
3000
0200
0300
,
2000
3000
0010
0000
0100
0000
0002
0003
0001
0000
1000
0000
0200
0300
0010
0000
,
0001
0000
0100
0000
0020
0030
2000
3000
1000
0000
0002
0003
0020
0030
0002
0003
,
2000
3000
0100
0000
0020
0030
0002
0003
0001
0000
2000
3000
0020
0030
0200
0300
,
0101
0000
0101
0000
1001
0000
1001
0000
1100
0000
1100
0000
0100
0010
0001
1000
,
0002
0000
0000
0000
0000
0000
0000
0000
0103
0010
1000
0100
0010
0001
0100
0010
,
1000
0000
0001
0000
0010
0000
0100
1000
0010
0100
0001
0000
1000
0000
0001
1000
,
0100
0000
0010
0000
0001
0000
1000
0010
0100
0010
1000
0000
0001
0000
1000
0100
,
0010
0000
0001
0000
1000
0000
0001
0100
0010
1000
0010
0000
0100
0000
0001
1000
,
0100
0000
0010
0000
0100
0000
1000
0001
0100
0010
0100
0000
0001
0000
1000
0001
,
0010
0000
0100
0000
1000
0000
0010
0100
0001
0100
0001
0000
1000
0000
0001
0010
,
0100
0000
1000
0000
0001
0000
0010
0100
1000
0001
0100
0000
0010
0000
1000
0001
,
0100
0000
0001
0000
0010
0000
0100
1000
0001
1000
0100
0000
0010
0000
0001
1000
,
0100
0000
1000
0000
0010
0000
0100
0001
1000
0000
0000
0001
1000
0000
1000
0000
,
1001
0000
0001
0000
0010
0000
0100
1000
0001
0100
0001
0000
1000
0000
0010
0100
,
0001
0000
1000
0000
0001
0000
1000
0100
0010
0001
1000
0000
0001
0000
1000
0001
,
0100
0000
0001
0000
0010
0000
0100
1000
0001
0010
0001
0000
1000
0000
0001
0100
,
0010
0000
0100
0000
0001
0000
1000
0010
1000
0001
1000
0000
0100
0000
0100
0000
,
0100
0000
0010
0000
0001
0000
1000
0010
0100
0010
1000
0000
0001
0000
1000
0100
,
0010
0000
0001
0000
1000
0000
0100
1000
0001
1000
0001
0000
0100
0000
0010
1000
,
0001
0000
0100
0000
0010
0000
1000
0001
1000
0100
0010
0000
0001
0000
1000
0001
,
0100
0000
0010
0000
0100
0000
0010
1000
0001
0000
0000
1000
0001
0000
0001
0000
,
1001
0000
1000
0000
0100
0000
0010
0001
0100
0010
1000
0000
0001
0000
1000
0001
,
0010
0000
0100
0000
1000
0000
0001
0100
0010
0100
0001
0000
1000
0000
0001
0010
,
0100
0000
1000
0000
0001
0000
1000
0010
0100
0001
0100
0000
0010
0000
1000
0001
,
0010
0000
0100
0000
0010
0000
0001
1000
0010
0100
0010
0000
1000
0000
1000
0000
,
1000
0000
0100
0000
1000
0000
0010
0100
0001
0100
0001
0000
1000
0000
0001
0010
,
0100
0000
1000
0000
0001
0000
0010
0100
1000
0001
0100
0000
0010
0000
1000
0001
,
0100
0000
0001
0000
0010
0000
0100
1000
0001
1000
0100
0000
0010
0000
0001
1000
,
0100
0000
1000
0000
0010
0000
0100
0001
1000
0000
0000
0001
1000
0000
1000
0000
,
1001
0000
0001
0000
0010
0000
0100
1000
0001
0100
0001
0000
1000
0000
0010
0100
,
0001
0000
1000
0000
0001
0000
1000
0100
0010
0001
1000
0000
0001
0000
1000
0001
,
0100
0000
0001
0000
0010
0000
0100
1000
0001
0010
0001
0000
1000
0000
0001
0100
,
0010
0000
0100
0000
0001
0000
1000
0010
1000
0001
1000
0000
0100
0000
0100
0000
,
0100
0000
0010
0000
0001
0000
1000
0010
0100
0010
1000
0000
0001
0000
1000
0100
,
0010
0000
0001
0000
1000
0000
0100
1000
0001
1000
0001
0000
0100
0000
0010
1000
,
0001
0000
0100
0000
0001
0010
0100
1000
0010
0100
0001
0010
0100
1000
0010
0100
,
0002
0000
0000
0000
0000
0000
0000
0000
0000
0000
0000
0000
0000
0000
0000
0003
0002
0000
0000
0000
0000
0000
0000
0000
0000
0000
0000
0000
0000
0000
0000
0000
1003
0000
0000
0000
0010
0000
0000
0000
0100
0000
0000
0000
0001
0000
0000
0000
0010
0000
0000
0000
0100
0000
0000
0000
1000
0000
0000
0000
0010
0000
0000
0000
,
0100
0001
0100
0001
1000
0001
1000
0001
0010
0100
1000
0001
0100
0001
1000
0100
,
0010
0001
0010
0001
1000
0001
1000
0001
0100
0010
1000
0001
0100
0001
1000
0100
,
1000
0001
1000
0001
0100
0001
0100
0001
1000
0010
0100
0001
1000
0001
0010
0100
,
1000
0010
1000
0010
0100
0010
0100
0010
1000
0001
0010
0100
1000
0001
0010
0001
,
1000
0100
1000
0100
0010
0100
0010
0100
1000
0001
0100
0001
1000
0100
0010
0001
,
1000
0100
1000
0100
1000
0001
1000
0001
0100
0010
0100
0001
1000
0100
0010
0100
,
1000
0001
1000
0001
0100
0001
0100
0001
0010
0100
1000
0001
0100
0010
0100
0001
,
1000
0001
1000
0001
0100
0001
0100
0001
1000
0000
0000
0001
1000
0000
1000
0000
,
0001
0010
0001
0010
0001
1000
0001
1000
0010
0100
0001
1000
0001
0010
0100
1000
,
0001
0100
0001
0100
0010
0100
0010
0100
0001
0010
0100
1000
0001
0100
0001
0010
,
0100
1000
0100
1000
0001
1000
0001
1000
0010
0100
0001
0100
0010
1000
0001
0010
,
0100
1000
0100
1000
0100
0010
0100
0010
0001
1000
0001
0100
0010
0100
0001
1000
,
0001
0010
0001
0010
0100
0010
0100
0010
0001
1000
0010
0100
0001
1000
0010
1000
,
0001
0100
0001
0100
0001
1000
0001
1000
0100
0010
0001
1000
0001
0100
0001
1000
,
0010
0100
0010
0100
0010
1000
0010
1000
0001
0010
0001
1000
0100
0010
0001
1000
,
0001
0100
0001
0100
0001
1000
0001
1000
0100
0000
0000
1000
0100
0000
0100
0000
,
1000
0001
1000
0001
0100
0001
0100
0001
0010
0100
1000
0010
1000
0001
0010
0100
,
1000
0001
1000
0001
1000
0100
1000
0100
0010
0001
0100
0010
0100
0001
1000
0100
,
0010
0001
0010
0001
1000
0001
1000
0001
0100
0010
1000
0001
0100
0010
1000
0100
,
0010
0001
0010
0001
0010
0100
0010
0100
1000
0001
0100
0010
0100
0001
1000
0010
,
0100
0001
0100
0001
1000
0001
1000
0001
0010
0100
0010
0001
1000
0010
1000
0001
,
0100
0010
0100
0010
0100
0001
0100
0001
1000
0100
1000
0001
0010
0100
1000
0001
,
1000
0010
1000
0010
0100
0010
0100
0010
1000
0001
1000
0100
0010
0001
1000
0100
,
1000
0001
1000
0001
0100
0001
0100
0001
1000
0000
0000
0001
1000
0000
1000
0000
,
0001
0010
0001
0010
0001
1000
0001
1000
0010
0100
0001
1000
0001
0010
0100
1000
,
0001
0100
0001
0100
0010
0100
0010
0100
0001
0010
0100
1000
0001
0100
0001
0010
,
0100
1000
0100
1000
0001
1000
0001
1000
0010
0100
0001
0100
0010
1000
0001
0010
,
0100
1000
0100
1000
0100
0010
0100
0010
0001
1000
0001
0100
0010
0100
0001
1000
,
0001
0010
0001
0010
0100
0010
0100
0010
0001
1000
0010
0100
0001
1000
0010
1000
,
0001
0100
0001
0100
0001
1000
0001
1000
0100
0010
0001
1000
0001
0100
0001
1000
,
0010
0100
0001
1000
0100
0010
0001
1000
0010
1000
0001
0010
0100
1000
0010
0100
,
0002
0000
0000
0000
0000
0000
0000
0000
0000
0000
0000
0000
0000
0000
0000
0003
0002
0000
0000
0000
0000
0000
0000
0000
0000
0000
0000
0000
0000
0000
0000
0000
1003
0000
0000
0000
0010
0000
0000
0000
0100
0000
0000
0000
0001
0000
0000
0000
0010
0000
0000
0000
0100
0000
0000
0000
1000
0000
0000
0000
0010
0000
0000
0000
,
0100
0000
0100
0000
0001
0010
0100
1000
0001
0000
0001
0000
1000
0010
0100
0001
,
1000
0000
1000
0000
0100
0010
0100
1000
0001
0000
0001
0000
0010
0001
0100
0010
,
0100
0000
0100
0000
0001
1000
0100
0010
0001
0000
0001
0000
1000
0010
0100
0001
,
0100
0000
0100
0000
0001
1000
0100
1000
0001
0000
0001
0000
0010
0100
1000
0001
,
0100
0000
0100
0000
0010
1000
0001
1000
0100
0000
0100
0000
0010
0001
1000
0001
,
1000
0000
1000
0000
0010
0100
0001
0010
0001
0000
0001
0000
1000
0100
0010
0001
,
0010
0000
0010
0000
0100
1000
0001
0100
0010
0000
0010
0000
1000
0001
0010
0100
,
1000
0000
1000
0000
0001
0100
0010
1000
0001
0000
0000
1000
0001
0000
0001
0000
,
1001
0000
1000
0000
0001
0010
0100
1000
0001
0000
0001
0000
1000
0100
0010
0001
,
1000
0000
1000
0000
0010
0100
0010
1000
0001
0000
0001
0000
0010
0100
1000
0100
,
0010
0000
0010
0000
0100
1000
0001
1000
0010
0000
0010
0000
0100
0001
1000
0100
,
1000
0000
1000
0000
0010
0100
0001
1000
0001
0000
0001
0000
0010
0100
1000
0001
,
0100
0000
0100
0000
0010
1000
0001
1000
0100
0000
0100
0000
0010
0001
1000
0001
,
0100
0000
0100
0000
0001
1000
0001
0010
0001
0000
0001
0000
1000
0010
0100
0001
,
1000
0000
1000
0000
0100
0010
0100
1000
0001
0000
0001
0000
0100
0010
1000
0010
,
0100
0000
0100
0000
0001
1000
0100
0010
0001
0000
0000
1000
0001
0000
0001
0000
,
1001
0000
1000
0000
0010
1000
0010
0100
0001
0000
0001
0000
1000
0100
0010
0001
,
1000
0000
1000
0000
0100
1000
0001
0100
0001
0000
0001
0000
0100
0010
1000
0010
,
0100
0000
0100
0000
0001
0010
0100
1000
0001
0000
0001
0000
0010
0100
1000
0001
,
0010
0000
0010
0000
0001
0100
0010
1000
0010
0000
0010
0000
0100
0001
1000
0100
,
1000
0000
1000
0000
0001
0010
0100
1000
0001
0000
0001
0000
1000
0100
0010
0001
,
1000
0000
1000
0000
0100
1000
0001
0100
0010
0000
0010
0000
0100
0001
0010
0100
,
1000
0000
1000
0000
0001
1000
0100
1000
0001
0000
0001
0000
0100
0010
1000
0010
,
0100
0000
0100
0000
0001
1000
0100
0010
0001
0000
0000
1000
0001
0000
0001
0000
,
1001
0000
1000
0000
0001
0010
0100
1000
0001
0000
0001
0000
1000
0010
0100
0001
,
1000
0000
1000
0000
0100
0010
0100
1000
0001
0000
0001
0000
0010
0001
0100
0010
,
0100
0000
0100
0000
0001
1000
0100
0010
0001
0000
0001
0000
1000
0010
0100
0001
,
0100
0000
0100
0000
0001
1000
0100
1000
0001
0000
0001
0000
0010
0100
1000
0001
,
0100
0000
0100
0000
0010
1000
0001
1000
0100
0000
0100
0000
0010
0001
1000
0001
,
1000
0000
1000
0000
0010
0100
0001
0010
0001
0000
0001
0000
1000
0100
0010
0001
,
1000
0010
1000
0010
0100
0010
0100
0010
1000
0001
1000
0001
0010
0001
0010
0001
,
1000
0100
0010
0001
0100
0010
1000
0100
0010
0001
0100
0010
1000
0100
0010
0001
,
2000
0000
0000
0000
0000
0000
0000
0000
0000
0000
0000
0000
0000
0000
0000
0000
0000
0000
0000
0000
0000
0000
0000
0000
0000
0000
0000
0000
0000
0000
0000
0000
0000
0000
0000
0000
0000
0000
0000
0000
0000
0000
0000
0000
0000
0000
0000
0000
0000
0000
0000
0000
0000
0000
0000
0000
0000
0000
0000
0000
0000
0000
0000
3000
,
1001
0000
0000
0000
0000
0000
0000
0000
0000
0000
0000
0000
0000
0000
0000
0000
0002
0000
0000
0000
0000
0000
0000
0000
0000
0000
0000
0000
0000
0000
0000
0000
0203
0000
0000
0000
0000
0000
0000
0000
0000
0000
0000
0000
0000
0000
0000
0000
0320
0000
0000
0000
0000
0000
0000
0000
0000
0000
0000
0000
0000
0000
0000
0030
,
1010
1000
0000
0001
0010
0000
0100
1000
,
0100
0010
0000
0001
0100
0000
0010
1000
,
1002
0000
0000
0000
0000
0000
0000
0000
0000
0000
0000
0000
0000
0000
0000
0000
0023
0000
0000
0000
0000
0000
0000
0000
0000
0000
0000
0000
0000
0000
0000
0000
0000
0000
0000
0000
0000
0000
0000
0000
0000
0000
0000
0000
0000
0000
0000
0000
0230
0000
0000
0000
0000
0000
0000
0000
0000
0000
0000
0000
0000
0000
0000
0300
,
2100
0000
3002
0000
0000
0000
0103
0010
,
1010
1000
0000
0010
0100
0000
0001
0010
,
0100
0010
0000
0100
1000
0000
0001
0100
,
0120
0000
0000
0000
1030
0000
0010
1000
,
1001
0001
0000
0010
0100
0000
0010
0001
,
1001
1000
0000
0010
0100
0000
0001
1000
,
0100
0010
0000
0100
1000
0000
0001
0100
,
0101
0001
0000
1000
0100
0000
0010
0001
,
1001
1000
0000
0010
0100
0000
0001
2001
,
0000
0000
0000
0000
,
0000
0000
0000
0000
0000
0000
0000
3000
,
1001
0001
1000
0001
0001
0010
0001
0100
,
0110
0010
1000
0001
0001
1000
0100
0010
,
0011
0000
0001
0000
2000
3000
0010
0000
0010
0000
2000
3000
0001
0000
0020
0030
,
0210
0300
0100
0000
1000
0000
0002
0003
0001
0000
1000
0000
0200
0300
0010
0000
,
0110
0000
0100
0000
2000
3000
0010
0000
0010
0000
0200
0300
0001
0000
2000
3000
,
1001
0000
0001
0000
0020
0030
0001
0000
0001
0000
2000
3000
0010
0000
0200
0300
,
0101
0000
0001
0000
2000
3000
0100
0000
0100
0000
0020
0030
0100
0000
2000
3000
,
1200
0300
0100
0000
0010
0000
0002
0003
0001
0000
1000
0000
0020
0030
1000
0000
,
1001
0000
0001
0000
0200
0300
0010
0000
0010
0000
2000
3000
0100
0000
0020
0030
,
0011
0000
0001
0000
2000
3000
0100
0000
0100
0000
2000
3000
0001
0000
0200
0300
,
0102
0003
0001
0000
2000
3000
0100
0000
0100
0000
0020
0030
0002
0003
2000
3000
,
1002
0003
0001
0000
0100
0000
0020
0030
0010
0000
1000
0000
0002
0003
0100
0000
,
0101
0000
0001
0000
2000
3000
0001
0000
0001
0000
0020
0030
0100
0000
2000
3000
,
1100
0000
0100
0000
0020
0030
0001
0000
0001
0000
2000
3000
0001
0000
0200
0300
,
0101
0101
1001
1001
1100
1100
0110
0011
,
2001
0000
0000
0000
0000
0000
0000
0000
3001
0100
0010
1000
0100
0010
0001
0100
,
0010
1000
0010
1000
0001
1000
0001
1000
0010
0100
0001
1000
0010
0100
0001
1000
,
0001
0010
0001
0010
0100
0010
0100
0010
0001
1000
0010
1000
0001
1000
0010
1000
,
0001
0100
0001
0100
0010
0100
0010
0100
0001
0010
0100
1000
0001
0010
0100
1000
,
0001
1000
0001
1000
0100
1000
0100
1000
0001
0100
0010
0100
0001
0100
0010
1000
,
0001
0100
0001
0100
0001
1000
0001
1000
0100
0010
0100
1000
0100
0010
0100
1000
,
0001
0010
0001
0010
0001
1000
0001
1000
0010
0100
0001
1000
0010
0100
0001
1000
,
0001
0100
0001
0100
0001
1000
0001
1000
0100
0010
0001
1000
0100
0010
0001
1000
,
0010
0100
0010
0100
0010
1000
0010
1000
0001
0010
0100
0010
0001
1000
0010
0100
,
0001
1000
0001
1000
0100
1000
0100
1000
0001
0010
0100
1000
0001
0010
0100
1000
,
0001
0100
0001
0100
0001
1000
0001
1000
0010
0100
0001
1000
0010
0100
0001
1000
,
0001
0010
0001
0010
0100
0010
0100
0010
0001
0100
0010
1000
0001
0100
0010
1000
,
0001
0100
0001
0100
0001
1000
0001
1000
0100
0010
0001
1000
0100
0010
0100
1000
,
0001
0100
0001
0100
0001
1000
0001
1000
0010
0100
0010
1000
0010
0100
0010
1000
,
0100
0010
0100
0010
0100
1000
0100
1000
0001
0100
0010
1000
0001
0100
0010
1000
,
0001
0100
0001
0100
0001
1000
0001
1000
0100
0010
0001
1000
0100
0010
0001
1000
,
0010
0100
0010
0100
0010
1000
0010
1000
0001
0010
0100
1000
0001
0100
0001
0000
,
1001
0000
1000
0000
0001
0010
0100
1000
0001
0100
0001
1000
0010
0100
0001
1000
,
0100
1000
0001
0010
0100
1000
0001
0100
0010
0100
0001
1000
0100
1000
0001
0010
,
0100
1000
0001
0010
0001
1000
0010
0100
0001
1000
0001
1000
0100
0010
0001
1000
,
0010
0100
0001
0100
0010
1000
0001
0100
0001
0100
0010
1000
0001
0010
0100
1000
,
0001
0010
0001
1000
0100
0010
0001
1000
0100
0010
0100
0010
0100
1000
0001
0100
,
0010
0100
0001
1000
0100
1000
0001
0100
0010
0100
0001
1000
0001
1000
0001
0010
,
0100
1000
0100
0010
0001
1000
0010
0100
0001
0100
0010
1000
0001
1000
0100
0010
,
0001
1000
0100
0010
0001
1000
0100
1000
0010
0100
0001
0100
0010
0100
0001
1000
,
0100
0010
0001
1000
0010
0100
0010
1000
0001
0010
0100
1000
0010
0100
0001
1000
,
0100
1000
0001
0010
0100
1000
0001
0100
0010
0100
0001
1000
0100
0010
0001
1000
,
0010
1000
0001
0010
0100
1000
0010
0100
0001
1000
0100
1000
0001
0010
0001
1000
,
0010
0100
0001
1000
0100
0010
0100
1000
0001
0100
0010
1000
0001
0100
0001
1000
,
0100
1000
0001
0010
0001
1000
0010
0100
0001
0010
0100
1000
0001
0100
0001
1000
,
0100
1000
0001
0010
0100
1000
0010
0100
0001
1000
0100
0010
0001
0010
0100
1000
,
0001
0100
0001
1000
0010
0100
0001
1000
0010
1000
0001
0100
0001
0010
0100
1000
,
0001
0010
0100
1000
0010
0100
0001
0010
0001
1000
0100
0010
0001
1000
0001
1000
,
0200
0000
0000
0000
,
0000
0000
0000
0001
0000
0000
0000
0000
0000
0000
0000
0000
0000
0000
0000
0000
,
0000
0000
0000
0300
;
