#TITLE:Our Xenopittan;
#SUBTITLE:;
#ARTIST:Xenosaga Freaks;
#TITLETRANSLIT:;
#SUBTITLETRANSLIT:;
#ARTISTTRANSLIT:;
#CREDIT:;
#BANNER:banner.jpg;
#BACKGROUND:background.jpg;
#LYRICSPATH:;
#CDTITLE:!kilgacdtitle.png;
#MUSIC:Our Xenopittan (OS-tan song).mp3;
#OFFSET:-0.140;
#SAMPLESTART:45.220;
#SAMPLELENGTH:17.000;
#SELECTABLE:YES;
#BPMS:0.000=170.000;
#STOPS:;
#BGCHANGES:;
// cache tags:
#FIRSTBEAT:0.000;
#LASTBEAT:364.000;
#SONGFILENAME:Songs/Community Keyboard Megapack - Volume 2/(Kilgamayan) Our Xenopittan/Our Xenopittan.sm;
#HASMUSIC:1;
#HASBANNER:1;
#MUSICLENGTH:134.455;
// end cache tags

//---------------dance-single - Heavy----------------
#NOTES:
     dance-single:
     Heavy:
     Hard:
     10:
     1.000,1.000,1.000,1.000,0.498,812.000,341.000,145.000,0.000,38.000:
0100
0000
1001
1100
0010
0000
1001
0001
,
0000
0001
0110
0101
0010
0000
0110
0000
,
0100
0000
1100
1001
0010
0010
1001
0001
,
0000
0000
0000
0000
0110
0000
0110
0000
0000
0000
0001
0010
2100
0000
3001
0000
,
1020
0230
0302
0123
2031
3200
2300
3012
,
0203
1320
0032
1203
2310
3002
0203
1320
,
0231
0302
2103
3020
0231
2301
3020
1230
,
0301
0010
0010
0100
0010
1000
0010
0010
,
1100
0000
0010
0000
0101
0000
0100
0010
2001
0000
3010
0000
0012
0000
1003
0000
,
2100
0000
3100
0000
0012
0003
1010
0100
1001
0000
1100
0000
1010
0000
0110
1000
,
0011
0000
1000
0000
1100
0000
0012
0100
1003
0000
0010
0000
1100
0000
0012
0000
,
0103
0000
0010
0000
1100
0000
0012
1000
0103
0000
0010
0000
1000
0000
0001
0100
,
1010
0000
0001
0000
0101
0000
1000
0100
0021
0000
0130
0000
1200
0000
0301
0000
,
0120
0000
1030
0000
0201
0300
0110
0001
1100
0000
0101
0000
1100
0000
0101
0010
,
1001
0000
0010
0000
1000
0000
0101
0010
2001
0000
3100
0000
0010
0000
1010
0000
,
1002
0000
0103
0000
1000
0000
0110
0001
1000
0000
0001
0010
0001
1000
0010
0100
,
1001
0000
0010
0000
1100
0000
0110
0000
1002
0000
0013
0000
2100
3000
0110
0000
,
1002
0003
0110
0000
2100
3000
0110
0000
0011
0000
0110
0000
1100
0000
0110
0000
,
0101
0000
1000
0000
1010
0000
0210
0300
0011
0000
0011
0000
1010
0000
0210
0000
,
1300
0000
0010
0000
0100
0000
1000
0001
1100
0000
0010
0000
0100
0000
0001
1000
,
0011
0000
1000
0000
0110
0000
1100
0000
0012
0000
1003
0000
0210
0300
1010
0000
,
0012
0000
1013
0000
0210
0300
1001
0000
0011
0000
1010
0000
0110
0000
1100
0000
,
0110
0010
1001
1001
0101
0101
1000
0011
,
0001
0010
0100
1000
0010
1000
0100
0010
1000
0001
1100
0001
1010
0001
0110
0001
,
1100
0010
0001
0110
0011
0100
0010
0110
,
1100
0010
0101
0011
1000
0100
1000
0011
,
0100
0101
1001
1010
1100
1010
0011
0101
,
0110
0000
0000
0000
1001
0000
0000
0000
0110
1000
0100
0010
0001
0000
0100
0000
,
1010
0001
0010
1100
0011
1000
0101
1001
,
1010
0100
0101
0110
1000
0001
0001
1100
,
0110
0001
1100
0010
1001
0100
0011
0100
,
1001
0010
0100
0010
1100
0010
0001
0100
0011
0100
1000
0100
1010
0100
0001
0010
,
1001
0100
0110
1000
0100
0011
1000
0011
,
0110
0000
0011
0000
0101
0000
1000
0000
0011
0000
0100
0100
0010
0000
0100
0000
,
0001
1100
0010
1100
0110
0110
0001
0011
,
0010
0000
0101
0000
0010
0000
0001
0000
1100
0000
0010
0010
0101
0000
0010
0000
,
1001
0001
0110
0001
0100
1100
0001
1100
,
0110
0000
1100
0000
1010
0000
0010
0000
1100
0000
0001
0001
1000
0000
0001
0000
,
1000
0110
1000
0110
0101
0101
0010
0011
,
0100
0000
1100
0000
0010
0000
0100
0000
0001
0100
0011
1000
0110
1000
0102
1000
,
0200
0320
2030
3203
2300
3002
0203
0302
,
0023
0000
0230
0000
0302
0000
2003
0000
3002
0000
0123
0100
2030
0000
3102
0000
,
2003
3020
0032
0023
2030
3200
2300
3002
,
0203
0000
0320
0000
0032
0000
2003
0000
3100
0100
0100
0100
0010
0000
0100
0000
,
1001
0000
0010
0000
0100
0000
1010
0001
1100
0000
0010
0000
1000
0000
0011
0000
,
0100
0000
0011
1000
0100
0000
0011
0000
0110
0000
0001
0000
0100
0000
0010
0000
,
1100
0000
0001
0010
1100
0000
0001
0000
0110
0000
0110
0000
1000
0000
0101
0000
,
2002
0000
0000
0000
0000
0000
0000
3003
,
0011
0100
0010
0101
0010
0100
0001
0010
0100
0010
1000
0010
,
0100
0000
0010
0000
0001
0000
1000
0000
0010
0101
0000
0000
1100
0000
0000
0110
0000
0000
1100
0000
0000
1001
0000
0000
,
1010
0000
0001
0000
1000
0000
0010
0000
0100
1001
0000
0000
0101
0000
1000
0000
0100
0000
0010
0000
0001
0000
0100
0000
,
0010
0000
0000
0000
0100
0000
0000
0000
1000
0000
0000
0000
0010
0000
0000
0000
0100
0000
0000
0000
0010
0000
0000
0000
0002
0000
0000
0000
0100
0000
0000
0000
0010
0000
0000
0000
0100
0000
0000
0000
1000
0000
0000
0000
0100
0003
0000
0000
,
1010
0100
1000
0101
1000
0100
0010
0001
0010
0100
1000
0010
,
0100
0000
0010
0000
0001
0000
1000
0000
0010
1100
0000
0000
0011
0000
0000
1100
0000
0000
0110
0000
0000
0101
0000
0000
,
1010
0000
0100
0000
0001
0000
1000
0000
0000
1010
0000
0000
0001
0000
0010
0000
0001
0000
0100
0000
1000
0000
0100
0000
,
0001
0000
1000
0000
0010
0000
1000
0000
0100
0000
0010
0000
0100
0000
0000
0100
0000
0000
0020
0000
0000
1031
0000
0000
,
1100
0000
1000
0000
0011
0000
0010
0001
2100
0000
3010
0000
0012
0000
0103
0000
,
2100
0000
3010
0000
0012
0000
0113
1000
0101
0000
0110
0000
1100
0000
0110
0001
,
1010
0000
0010
0000
0101
0000
0210
0001
0310
0000
0010
0000
0101
0000
0210
0000
,
0301
0000
0010
0000
0101
0000
0110
1000
0001
0000
0010
0000
0100
0000
0010
0100
,
1001
0000
0010
0000
0101
0000
0010
0001
2100
0000
3010
0000
0102
0000
1003
0000
,
1020
0000
0130
0000
0102
0000
1103
0010
1100
0000
0101
0000
0011
0000
0101
0010
,
1001
0000
0010
0000
1100
0000
0110
0001
0010
0000
0001
0000
1100
0000
0110
0000
,
0010
0100
0001
0100
0010
0100
1000
0100
0010
0001
1010
0100
0011
0100
1010
0001
,
1100
0010
0001
0110
0011
0100
1000
0011
,
1010
0100
0110
1001
0010
0010
0001
1100
,
0010
0110
0011
0101
1001
0101
0011
1010
,
1001
0000
0000
0000
0110
0000
0000
0000
1001
0010
0100
1000
0010
0000
0100
0000
,
1001
0010
1000
0101
0011
1000
0101
1001
,
1010
0001
1100
0110
1000
0100
0001
0110
,
1010
0001
0110
1000
0101
0010
0110
0001
,
1100
0001
0010
0100
0011
0100
0001
0010
1001
0100
0001
0010
1100
0010
0100
0001
,
0110
0100
1001
0010
1000
0101
0010
0101
,
0011
0000
0101
0000
1001
0000
0100
0000
0101
0000
0010
0010
0100
0000
0010
0000
,
0001
1100
0010
1100
0110
0110
1000
0011
,
0100
0000
0011
0000
1000
0000
0001
0000
1010
0000
0100
0100
0011
0000
0100
0000
,
0110
0010
1001
0100
0001
1010
0100
1010
,
1100
0000
1010
0000
1001
0000
0010
0000
1010
0000
0001
0001
1000
0000
0001
0000
,
1000
0101
0010
0101
0110
0110
0001
1010
,
0100
0000
1010
0000
0001
0000
0100
0000
1000
0010
0101
0010
1001
0100
2010
0001
,
0200
0320
0032
3023
0230
0302
2003
3200
,
0320
0000
0230
0000
0302
0000
2003
0000
3002
0000
2013
0010
3200
0000
0312
0000
,
2003
3020
0230
2300
3020
0230
0302
0023
,
0230
0000
0302
0000
2003
0000
3200
0000
0310
0010
0010
0010
0100
0000
0010
0000
,
0010
0000
0011
1010
0100
0000
0011
1000
,
0000
1000
1010
1010
0100
0000
1010
0000
,
0010
0000
1010
1100
0100
0100
1100
1000
,
0000
0000
0000
0000
0101
0000
0101
0000
0000
0000
0010
1000
0102
0000
1003
0000
,
1002
0203
0320
1032
2103
3020
2030
3201
,
2300
3201
0320
0132
1203
0320
0230
0312
,
2013
0000
3020
0000
2130
0000
3002
0000
0213
0000
0321
0000
2030
0000
3210
0300
,
1001
0000
0000
0000
;
