#TITLE:Whine Up;
#SUBTITLE:IT'S RYZEN ! ! !;
#ARTIST:Kat Deluna ft. Elephant Man;
#TITLETRANSLIT:;
#SUBTITLETRANSLIT:;
#ARTISTTRANSLIT:;
#CREDIT:;
#BANNER:Whine up - bn.png;
#BACKGROUND:Whine up - bg.png;
#LYRICSPATH:;
#CDTITLE:../aCD.png;
#MUSIC:Whine Up.ogg;
#OFFSET:-0.030;
#SAMPLESTART:45.686;
#SAMPLELENGTH:12.000;
#SELECTABLE:YES;
#BPMS:0.000=125.000;
#STOPS:;
#BGCHANGES:;
// cache tags:
#FIRSTBEAT:16.000;
#LASTBEAT:408.000;
#SONGFILENAME:Songs/Aoreo's Index Jawn/Whine Up - [Aoreo]/Whine Up.sm;
#HASMUSIC:1;
#HASBANNER:1;
#MUSICLENGTH:203.295;
// end cache tags

//---------------dance-single - J. Nero----------------
#NOTES:
     dance-single:
     J. Nero:
     Challenge:
     22:
     1.000,1.000,0.241,0.221,1.000,2182.000,49.000,45.000,0.000,11.000:
0000
0000
0000
0000
,
0000
0000
0000
0000
,
0000
0000
0000
0000
,
0000
0000
0000
0000
,
1100
0000
1000
0001
0010
0000
0100
0000
1100
0000
1000
0010
0100
0000
0001
0000
,
1001
0000
0000
0000
1000
0000
0010
0000
0100
0000
0000
0000
0001
0000
0000
0000
1000
0000
0000
0000
0001
0100
0001
0010
0100
1000
0010
1000
0001
0100
0001
1000
,
0100
0000
0010
0001
1000
0000
0100
0000
1100
0000
1000
0001
0100
0000
0001
0000
,
0011
0000
0000
0000
0010
0000
0100
0000
1000
0000
0000
0000
0001
0000
0000
0000
1000
0000
0000
0000
0001
0100
0001
0010
0100
1000
0010
0100
0001
1000
0100
0010
,
0001
0000
1000
0010
0100
0000
0001
0010
0100
0000
1000
0010
0100
0000
0001
0100
,
0001
0000
0000
0000
0000
0000
0000
0000
0010
0000
0000
0000
0000
0000
0000
0000
0100
0000
0000
0000
0000
0000
0000
0000
1000
0000
0000
0000
0000
0000
0000
0000
0010
0000
0000
0000
0000
0000
0000
0000
0100
0000
0000
0000
0000
0000
0000
0000
0001
0000
0000
0000
0000
0000
0000
0000
1000
0000
0000
0000
0000
0000
0000
0000
0100
0000
0000
0000
0000
0000
0000
0000
0010
0000
0000
0000
0000
0000
0000
0000
0001
0000
0000
0000
0000
0000
0000
0000
1000
0000
0000
0000
0000
0000
0000
0000
0001
0000
0000
0000
0000
0000
0000
0000
0000
0000
0000
0000
0000
0000
0000
0000
0000
0000
0000
0000
0000
0000
0000
0000
1000
0000
0000
0000
0000
0000
0100
0000
0000
0000
0000
0000
0010
0000
0000
0000
0000
0000
0100
0000
0000
0000
0000
0000
1000
0000
0000
0000
0000
0000
0010
0000
0000
0000
0000
0000
0100
0000
0000
0000
0000
0000
0001
0000
0000
0000
0000
0000
1000
0000
0000
0000
0000
0000
0000
0000
0000
0000
0000
0000
0100
0000
0000
0000
0000
0000
0000
0000
0000
0000
0000
0000
,
1000
0000
0010
0100
0001
0000
1000
0100
0010
0000
0100
1000
0010
0000
1000
0001
,
0100
0000
0000
0000
0001
0000
0010
0000
0100
0000
0000
0000
1000
0000
0001
0000
0200
0000
0300
0000
0200
0000
0300
0000
0200
0000
0300
0000
0200
0300
0200
0300
,
0001
1000
0001
0010
0100
1000
0010
0100
0001
1000
0100
1000
0010
0100
0001
1000
,
0001
0100
0001
0000
1000
0100
0010
0000
0001
0010
0100
0000
1000
0100
0010
0000
0001
0100
0001
1000
0100
1000
0010
0100
0001
0000
0000
0000
1000
0000
0100
0000
,
1000
0100
1000
0000
0001
0100
0001
0000
1000
0100
0010
0000
0001
0010
0100
0000
1000
0100
1000
0001
0010
0100
1000
0001
1000
0000
0000
0000
0001
0000
0100
0000
,
0001
0000
0010
0100
1000
0000
0001
0100
0010
0000
0000
0000
0010
0000
0000
0000
,
1000
0000
0000
0000
0001
0000
0000
0000
1000
0000
0000
0000
0000
0000
0000
0000
0000
0000
0000
0000
0000
0000
0000
0000
0000
0000
0000
0000
0000
0000
0000
0000
0000
0000
0000
0000
0000
0000
0000
0000
0000
0000
0000
0000
0000
0000
0000
0000
0001
0000
0000
0000
0100
0000
0000
0000
0001
0000
0000
0000
0000
0000
0000
0000
0000
0000
0000
0000
0000
0000
0000
0000
0000
0000
0000
0000
0000
0000
0000
0000
0000
0000
0000
0000
0000
0000
0000
0000
0000
0000
0000
0000
0000
0000
0000
0000
1000
0000
0000
0000
0000
0001
0000
0000
0000
0100
0000
0000
0000
0000
0001
0000
0000
0000
0000
0010
0000
0000
0000
0000
0100
0000
0000
0000
0000
1000
0000
0000
0000
0000
0010
0000
0000
0000
0100
0000
0000
0000
0000
0001
0000
0000
0000
0000
1000
0000
0000
0000
0000
0100
0000
0000
0000
0000
0010
0000
0000
0000
0000
0001
0000
0000
0000
1000
0000
0000
0000
0000
0001
0000
0000
0000
0000
0000
0000
0000
0000
0000
0000
0000
0000
0000
0000
0000
0000
0000
0000
0000
0000
0000
0000
0000
,
1000
0100
1000
0001
0010
0100
1000
0001
0100
0010
0100
0001
0010
0100
1000
0001
0100
0001
0010
0001
1000
0100
0010
0001
1000
0010
1000
0100
1000
0001
0100
0001
,
1000
0000
0000
0000
0001
0000
0000
0000
1000
0000
0000
0000
0000
0000
0000
0000
0000
0000
0000
0000
0000
0000
0000
0000
0000
0000
0000
0000
0000
0000
0000
0000
0000
0000
0000
0000
0000
0000
0000
0000
0000
0000
0000
0000
0000
0000
0000
0000
0001
0000
0000
0000
0100
0000
0000
0000
0001
0000
0000
0000
0000
0000
0000
0000
0000
0000
0000
0000
0000
0000
0000
0000
0000
0000
0000
0000
0000
0000
0000
0000
0000
0000
0000
0000
0000
0000
0000
0000
0000
0000
0000
0000
0000
0000
0000
0000
1000
0000
0000
0000
0000
0001
0000
0000
0000
0100
0000
0000
0000
0000
0001
0000
0000
0000
0000
0010
0000
0000
0000
0000
0100
0000
0000
0000
0000
1000
0000
0000
0000
0000
0010
0000
0000
0000
0100
0000
0000
0000
0000
0001
0000
0000
0000
0000
1000
0000
0000
0000
0000
0100
0000
0000
0000
0000
0010
0000
0000
0000
0000
0001
0000
0000
0000
1000
0000
0000
0000
0000
0002
0000
0000
0000
0000
0000
0000
0000
0000
0000
0000
0000
0000
0000
0000
0000
0000
0000
0000
0000
0000
0000
0000
0000
,
1003
0000
0000
0000
0000
0000
0000
0000
0100
0000
0000
0000
0000
0000
0000
0000
0010
0000
0000
0000
0000
0000
0000
0000
0100
0000
0000
0000
0000
0000
0000
0000
1000
0000
0000
0000
0000
0000
0000
0000
0010
0000
0000
0000
0000
0000
0000
0000
0100
0000
0000
0000
0000
0000
0000
0000
0010
0000
0000
0000
0000
0000
0000
0000
1000
0000
0000
0000
0000
0000
0000
0000
0100
0000
0000
0000
0000
0000
0000
0000
0010
0000
0000
0000
0000
0000
0000
0000
0001
0000
0000
0000
0000
0000
0000
0000
1000
0000
0000
0000
0000
0000
0100
0000
0000
0000
0000
0000
0010
0000
0000
0000
0000
0000
0100
0000
0000
0000
0000
0000
1000
0000
0000
0000
0000
0000
0001
0000
0000
0000
0000
0000
0100
0000
0000
0000
0000
0000
0001
0000
0000
0000
0000
0000
0010
0000
0000
0000
0000
0000
0100
0000
0000
0000
0000
0000
1000
0000
0000
0000
0000
0000
0001
0000
0000
0000
0000
0000
0100
0000
0000
0000
0000
0000
0010
0000
0000
0000
0000
0000
0100
0000
0000
0000
0000
0000
0001
0000
0000
0000
0000
0000
,
1000
1000
0010
0010
0100
0100
0001
0001
0010
0010
0100
0100
1000
1000
0010
0010
,
0100
0100
0001
0001
0010
0010
0100
0100
1000
1000
0001
0001
0100
0100
0001
0001
,
1000
0100
1000
0010
0100
0001
0100
0001
1000
0100
0010
0001
1000
0100
1000
0010
0100
0010
1000
0001
0010
0100
1000
0001
0100
0001
0010
0001
1000
0100
0010
0001
,
1000
0100
1000
0010
1000
0001
0100
0001
0010
0100
1000
0001
0100
0001
0010
0100
1000
0001
1000
0100
1000
0010
0100
0001
1000
0100
1000
0001
0100
0010
0100
0001
,
1000
1000
0010
0010
0100
0100
0001
0001
0010
0010
0100
0100
1000
1000
0010
0010
,
0100
0100
0001
0001
1000
1000
0100
0100
1000
1000
0010
0010
0100
0100
0001
0001
,
1000
0100
1000
0001
0100
0001
1000
0100
0010
0001
1000
0100
1000
0001
0100
0010
0100
0001
1000
0001
0010
0100
1000
0001
1000
0100
1000
0001
0100
0010
0100
0001
,
1100
0010
0100
0001
1010
0001
1000
0010
1100
0001
0010
0100
2002
0000
0000
3003
,
1000
0100
1000
0001
0010
0100
1000
0001
0100
0010
0100
0001
1000
0100
0010
0001
1000
0100
1000
0010
0100
0001
1000
0100
1000
0001
0100
0001
1000
0001
0010
0100
,
1000
0001
1000
0010
0100
0010
1000
0001
1000
0100
0010
0001
1000
0100
1000
0001
1000
0000
0000
0000
0001
0010
0100
1000
0001
1000
0001
1000
0001
1000
0001
1000
,
0010
0100
0001
1000
0001
0100
0010
0100
0001
1000
0100
0010
0001
1000
0100
1000
0001
1000
0010
0100
0010
1000
0001
0010
0100
1000
0001
0100
0010
0100
0001
1000
,
0100
0010
0001
1000
0100
1000
0010
0100
0010
1000
0001
0010
0100
1000
0001
0100
0001
0000
0000
0000
1000
0010
0100
0010
1000
0001
1000
0001
1000
0001
1000
0001
,
1000
0100
0010
0001
1000
0100
1000
0010
0100
0001
0100
0010
1000
0100
0010
0001
1000
0100
0010
0100
1000
0001
0100
0010
0100
0001
0010
0100
1000
0001
0100
0001
,
1000
0100
0010
0001
1000
0100
1000
0001
0100
0001
0010
0100
1000
0001
0100
0001
1000
0000
0000
0000
0001
0100
0010
0100
0001
1000
0001
1000
0001
1000
0001
1000
,
0001
0100
0010
1000
0100
0010
0001
1000
0100
1000
0010
1000
0001
0010
0100
1000
0001
0100
0010
0100
0001
0010
0100
1000
0001
0100
0010
0100
0001
0010
0100
1000
,
0001
0100
0010
0100
0001
0010
0100
1000
0001
0100
0001
0010
0100
1000
0010
0100
0001
0000
0000
0000
1000
0100
0010
0100
1000
0001
1000
0001
1000
0001
1000
0001
,
1000
0000
0000
0000
0000
0000
0000
0000
0000
0000
0000
0000
0100
0000
0000
0000
0000
0000
0000
0000
0000
0000
0000
0000
0010
0000
0000
0000
0000
0000
0000
0000
0000
0000
0000
0000
0100
0000
0000
0000
0000
0000
0000
0000
0000
0000
0000
0000
1000
0000
0000
0000
0000
0000
0000
0000
0000
0000
0000
0000
0010
0000
0000
0000
0000
0000
0000
0000
0000
0000
0000
0000
0100
0000
0000
0000
0000
0000
0000
0000
0000
0000
0000
0000
0001
0000
0000
0000
0000
0000
0000
0000
0000
0000
0000
0000
0010
0000
0000
0000
0000
0000
0000
0000
0000
0000
0000
0000
0100
0000
0000
0000
0000
0000
0000
0000
0000
0000
0000
0000
1000
0000
0000
0000
0000
0000
0000
0000
0000
0000
0000
0000
0001
0000
0000
0000
0000
0000
0000
0000
0000
0000
0000
0000
1000
0000
0000
0000
0000
0000
0001
0000
0000
0000
0000
0000
0100
0000
0000
0000
0010
0000
0000
0000
0000
0000
0000
0000
0000
0000
0000
0000
0000
0000
0000
0000
0000
0000
0000
0000
0000
0000
0000
0000
0000
0000
0000
0000
0000
0000
0000
0000
,
0001
0000
0100
0000
0010
0000
1000
0000
0100
0000
0010
0000
0001
0000
0100
0000
0001
0000
1000
0000
0100
0000
1000
0000
0001
0100
0010
0000
0000
0000
0000
0000
,
0000
0000
0000
2000
0000
0000
3000
0000
0000
0001
0000
0000
0100
0000
0000
0001
0010
0100
1000
0000
0000
0001
0000
0000
0100
0000
0000
0000
0001
0000
0000
0000
1000
0000
0000
0000
1111
0000
0000
0000
0000
0000
0000
0000
0000
0000
0000
0000
,
0000
0000
0001
0100
0001
1000
0100
1000
0001
0010
0100
1000
0001
0100
0001
0010
0001
1000
0100
1000
0001
0100
0010
1000
0001
0000
0100
0000
0010
0000
0100
0000
,
0001
1000
0001
0010
1000
0010
0001
0100
0001
0100
0010
1000
0100
0001
0100
1000
,
0001
0000
0000
0100
0000
0000
1000
0000
0000
0001
0000
0000
0010
0000
0000
0100
0000
0000
0001
0000
0000
1000
0000
0000
1002
0000
0000
0000
0000
0000
0000
0000
0000
0003
0000
1100
0022
2200
0000
0000
0000
0000
0000
0000
0000
0000
3333
0000
,
1000
0100
0010
0100
1000
0001
0100
1000
0001
1000
0100
0001
1000
0001
0100
0001
,
1000
0010
0100
0010
1000
0001
0100
0001
1000
0100
0010
0001
1000
0100
1000
0001
0200
0000
0300
0000
0200
0000
0300
0000
0200
0000
0300
0000
0200
0300
0200
0300
,
0001
1000
0001
0000
1000
0100
1000
0000
0001
0010
0100
0000
1000
0100
1000
0000
0001
0100
0001
0010
0100
1000
0001
0100
0010
0000
0000
0000
1000
0100
1000
0000
,
0001
0000
0000
0000
0000
0000
0100
0000
0000
0000
0000
0000
0001
0000
0000
0000
0000
0000
0000
0000
0000
0000
0000
0000
1000
0000
0000
0000
0000
0000
0100
0000
0000
0000
0000
0000
0010
0000
0000
0000
0000
0000
0000
0000
0000
0000
0000
0000
0001
0000
0000
0000
0000
0000
1000
0000
0000
0000
0000
0000
0001
0000
0000
0000
0000
0000
0000
0000
0000
0000
0000
0000
1000
0000
0000
0000
0000
0000
0010
0000
0000
0000
0000
0000
0100
0000
0000
0000
0000
0000
0000
0000
0000
0000
0000
0000
0001
0000
0000
0000
0000
0000
1000
0000
0000
0000
0000
0000
0001
0000
0000
0000
0000
0000
0010
0000
0000
0000
0000
0000
0100
0000
0000
0000
0000
0000
1000
0000
0000
0000
0000
0000
0010
0000
0000
0000
0000
0000
0100
0000
0000
0000
0000
0000
0001
0000
0000
0000
0000
0000
0000
0000
0000
0000
0000
0000
0000
0000
0000
0000
0000
0000
0000
0000
1000
0000
0000
0000
0100
0000
0000
0000
0000
0000
0000
0000
0000
0000
0000
0000
0000
0000
0000
0000
0000
0000
0000
0000
0000
0000
0000
0000
,
1000
0000
0000
0010
0000
0000
0000
0000
0000
0000
0000
0000
0000
0000
0000
0000
0000
0000
0000
0000
0000
0000
0000
0000
0100
0000
0000
0001
0000
0000
0000
0000
0000
0000
0000
0000
0000
0000
0000
0000
0000
0000
0000
0000
0000
0000
0000
0000
0010
0000
0000
0000
0001
0000
0000
0000
0000
0000
0000
0000
0000
0000
0000
0000
0000
0000
0000
0000
0000
0000
0000
0000
1000
0000
0000
0000
0100
0000
0000
0000
0000
0000
0000
0000
0000
0000
0000
0000
0000
0000
0000
0000
0000
0000
0000
0000
1000
0000
0000
0000
0000
0000
0001
0000
0000
0000
0000
0000
1000
0000
0000
0000
0000
0000
0100
0000
0000
0000
0000
0000
1000
0000
0000
0000
0000
0000
0001
0000
0000
0000
0000
0000
0100
0000
0000
0000
0000
0000
0001
0000
0000
0000
0000
0000
1000
0000
0000
0000
0000
0000
0000
0000
0000
0000
0000
0000
0001
0000
0000
0000
0000
0000
0000
0000
0000
0000
0000
0000
0100
0000
0000
0000
0000
0000
0000
0000
0000
0000
0000
0000
0000
0000
0000
0000
0000
0000
0000
0000
0000
0000
0000
0000
,
0001
0000
0000
0000
0100
0000
0000
0000
1000
0000
0000
0000
0000
0000
0000
0000
0100
0000
0000
0000
0001
0000
0000
0000
1000
0000
0000
0000
0000
0000
0000
0000
0200
0000
0000
0000
0000
0000
0000
0000
0300
0000
0000
0000
0000
0000
0000
0000
2000
0002
0020
0200
3000
0003
0030
0300
0000
0000
0000
0000
0000
0000
0000
0000
,
1000
0000
0000
0000
0001
0000
0000
0000
1000
0000
0000
0000
0000
0000
0000
0000
0000
0000
0000
0000
0000
0000
0000
0000
0000
0000
0000
0000
0000
0000
0000
0000
0000
0000
0000
0000
0000
0000
0000
0000
0000
0000
0000
0000
0000
0000
0000
0000
0001
0000
0000
0000
1000
0000
0000
0000
0001
0000
0000
0000
0000
0000
0000
0000
0000
0000
0000
0000
0000
0000
0000
0000
0000
0000
0000
0000
0000
0000
0000
0000
0000
0000
0000
0000
0000
0000
0000
0000
0000
0000
0000
0000
0000
0000
0000
0000
1000
0000
0000
0000
0000
0100
0000
0000
0000
0000
0010
0000
0000
0000
0000
0001
0000
0000
0000
1000
0000
0000
0000
0000
0010
0000
0000
0000
0000
1000
0000
0000
0000
0000
0100
0000
0000
0000
0000
0010
0000
0000
0000
0001
0000
0000
0000
0000
1000
0000
0000
0000
0000
0000
0000
0000
0000
0000
0000
0000
0100
0000
0000
0000
0000
0000
0000
0000
0000
0000
0000
0000
0010
0000
0000
0000
0000
0000
0000
0000
0000
0000
0000
0000
0100
0000
0000
0000
0000
0000
0000
0000
0000
0000
0000
0000
,
1000
0000
0010
0000
0100
0000
0001
0000
0010
0000
0100
0000
1000
0000
0001
0000
0100
0001
1000
0001
0010
0100
1000
0001
0100
0001
0010
0001
1000
0100
1000
0001
,
1000
0000
0000
0000
0100
0000
0000
0000
1000
0000
0000
0000
0000
0000
0000
0000
0000
0000
0000
0000
0000
0000
0000
0000
0000
0000
0000
0000
0000
0000
0000
0000
0000
0000
0000
0000
0000
0000
0000
0000
0000
0000
0000
0000
0000
0000
0000
0000
0001
0000
0000
0000
0010
0000
0000
0000
0100
0000
0000
0000
0000
0000
0000
0000
0000
0000
0000
0000
0000
0000
0000
0000
0000
0000
0000
0000
0000
0000
0000
0000
0000
0000
0000
0000
0000
0000
0000
0000
0000
0000
0000
0000
0000
0000
0000
0000
1000
0000
0000
0000
0000
0100
0000
0000
0000
0000
1000
0000
0000
0000
0000
0001
0000
0000
0000
0100
0000
0000
0000
0000
0010
0000
0000
0000
0000
1000
0000
0000
0000
0000
0001
0000
0000
0000
0000
0100
0000
0000
0000
0010
0000
0000
0000
0000
1000
0000
0000
0000
0000
0100
0000
0000
0000
0000
0010
0000
0000
0000
0000
0001
0000
0000
0000
1000
0000
0000
0000
0000
0001
0000
0000
0000
0000
0000
0000
0000
0000
0000
0000
0000
0000
0000
0000
0000
0000
0000
0000
0000
0000
0000
0000
0000
,
0101
0000
0000
0000
0100
0000
0001
0000
0010
0000
0000
0000
0100
0000
0000
0000
1000
0100
1000
0010
1000
0001
0100
0001
0010
0000
0100
0000
1000
0000
0001
0000
,
0100
0100
0001
0001
0010
0010
0100
0100
1000
1000
0010
0010
0100
0100
0001
0001
,
1000
1000
0010
0010
0100
0100
0001
0001
0010
0010
0100
0100
1000
1000
0001
0001
,
1000
0100
1000
0001
1000
0010
0100
0001
1000
0001
0010
0100
1000
0001
0100
0010
0100
0001
1000
0100
1000
0010
1000
0001
0100
0001
1000
0001
0010
0100
1000
0001
,
1000
0010
0100
0010
1000
0001
1000
0100
0010
0001
1000
0100
1000
0010
1000
0001
0100
0001
0010
0100
1000
0001
0100
0010
0100
0001
1000
0100
0010
0001
1000
0001
,
0100
0100
0001
0001
0010
0010
0100
0100
1000
1000
0010
0010
0100
0100
0001
0001
,
1000
1000
0010
0010
0100
0100
0001
0001
0010
0010
0100
0100
1000
1000
0010
0010
,
1000
0100
1000
0010
1000
0001
0010
0100
1000
0001
0100
0001
0010
0100
1000
0010
1000
0001
0100
0001
0010
0001
1000
0100
0010
0001
1000
0100
1000
0010
0100
0001
,
1100
0010
0100
0001
1010
0001
1000
0010
1100
0001
0100
0010
2002
0000
0000
3003
,
1000
0100
1000
0010
0100
0010
1000
0001
0100
0001
1000
0001
0010
0100
1000
0001
0100
0010
0100
0001
0010
0001
1000
0010
0100
0010
1000
0001
0010
0100
1000
0001
,
0100
0010
0100
0001
1000
0100
1000
0010
0100
0010
1000
0001
0010
0100
1000
0001
0100
0000
0000
0000
0001
0010
0100
1000
0001
1000
0001
1000
0001
1000
0001
1000
,
0001
0100
0010
0100
0001
0010
0100
1000
0001
0100
0010
0100
0001
1000
0100
1000
0010
1000
0001
0100
0001
1000
0001
0010
0100
1000
0001
0100
0010
0100
0001
1000
,
0100
0010
0001
1000
0100
1000
0001
0100
0010
0100
0001
1000
0001
0010
0100
1000
0001
0000
0000
0000
0100
0001
0010
0100
1000
0001
1000
0001
1000
0001
1000
0001
,
0100
0010
0100
0001
0010
0100
1000
0001
1000
0100
1000
0010
0100
0010
1000
0001
0100
0001
1000
0001
0010
0100
1000
0010
0100
0001
0100
0010
1000
0001
1000
0100
,
0010
0001
1000
0100
1000
0010
0100
0010
1000
0001
0010
0100
1000
0010
0100
0001
1000
0000
0000
0000
0010
1000
0100
0010
0001
1000
0001
1000
0001
1000
0001
1000
,
0100
0010
0001
0100
0001
1000
0100
1000
0010
0100
0010
1000
0001
0010
0100
0010
0001
1000
0001
0100
0010
0100
0001
1000
0100
1000
0001
0100
0010
0100
0001
0010
,
0100
1000
0001
1000
0100
0010
0001
0100
0010
0100
0001
1000
0100
1000
0010
0100
0001
0000
0000
0000
0100
0001
0010
0100
1000
0001
1000
0001
1000
0001
1000
0001
,
2000
0000
3000
0000
0002
0003
0100
0100
0010
0100
0100
0001
0100
0100
1000
0000
,
1111
0000
0000
0000
0000
0000
0000
0000
0000
0000
0000
0000
0001
0000
0000
0000
0100
0000
0000
0000
0001
0000
0000
0000
1001
0000
0000
0000
0000
0000
1000
0000
0000
0100
0000
0000
0010
0000
0000
0001
0000
0000
0010
0000
0000
0100
0000
0000
,
1111
0000
0000
0000
2000
3000
0001
1000
0100
0100
0001
0010
0010
1000
0001
0000
,
1111
0000
0001
1000
0001
0100
0100
1000
1001
0000
0001
0000
1000
0000
0010
0000
,
1111
0000
0000
1000
0100
0100
0001
0000
1001
0000
1000
0010
0100
0000
0100
0000
,
1111
0000
0000
0001
0100
0100
1000
0001
0020
0000
0130
1000
0000
1000
0001
0000
,
1111
0000
0000
0000
0000
0000
0000
0000
0000
1000
0000
0000
0000
0000
0000
0001
0000
0000
0100
0000
0000
0000
0000
0000
0001
0000
0000
0000
0010
0000
0000
0000
0100
0000
0000
0000
1000
0000
0000
0000
0000
0000
1001
0000
0000
0000
0000
0000
,
1111
0000
0000
0000
0000
0000
0001
0000
0000
0000
0000
0000
0010
0000
0000
0000
0100
0000
0000
0000
0000
0100
0000
0000
1000
0000
0000
0000
0000
0000
0001
0000
0000
0100
0000
0000
0010
0000
0000
0000
0000
0000
1001
0000
0000
0000
0000
0000
,
2000
0000
0000
3100
2000
0000
0000
3100
2000
0000
0000
3100
2000
0000
0000
3100
,
0020
0000
0000
0000
0000
0000
0000
0000
0000
0000
0000
0000
0000
0000
0000
0000
0030
0000
0000
0000
0000
0000
0000
0000
0011
0000
0000
0000
0000
0000
0000
0000
0001
0100
0010
1000
0000
0000
0000
0000
0000
0000
0000
0000
0001
0010
0100
1000
0000
0000
0000
0000
0000
0000
0000
0000
0000
0000
0000
0000
0000
0000
0000
0000
,
0002
0000
0000
0013
0002
0000
0000
0013
0002
1000
0100
0013
0002
0000
0000
0013
,
0002
0000
0000
0000
0000
0000
0000
0000
0000
0000
0003
0000
0100
0000
0000
0000
0010
0000
0000
0000
1100
0011
1100
0011
2100
0000
0000
0000
0000
0000
0000
0000
,
3001
0100
0001
1000
0100
1000
0010
1000
0001
0100
0001
1000
0001
0010
0100
1000
0001
0100
0010
0100
0001
1000
0001
0010
0100
1000
0001
1000
0100
1000
0010
0100
,
0010
1000
0001
0100
0001
0010
0100
1000
0001
0100
0010
0100
0001
1000
0100
0010
0001
1000
0001
0100
0010
1000
0100
0010
0001
1000
0001
1000
0010
1000
0100
0010
,
0001
1000
0001
1000
0001
1000
0001
1000
0010
0100
0001
0010
0100
1000
0001
0100
0001
1000
0100
1000
0010
0100
0001
1000
0001
0010
0100
1000
0001
0100
0001
0010
,
0001
1000
0100
1000
0010
0100
0010
1000
0001
0010
0100
1000
0001
1000
0100
1000
0010
0100
0001
1000
0010
1000
0100
0010
0001
1000
0001
1000
0001
0100
0010
0100
,
0001
1000
0001
1000
0001
1000
0001
0100
0010
1000
0100
0010
0001
0100
0001
1000
0100
1000
0001
1000
0010
0100
0010
1000
0001
0010
0100
1000
0001
0100
0010
1000
,
0100
0010
0001
1000
0100
1000
0010
1000
0001
0100
0001
0010
0100
1000
0001
0100
0010
0100
0001
1000
0010
1000
0100
0010
0001
1000
0001
1000
0001
0100
0010
0100
,
0001
1000
0001
1000
0001
1000
0001
1000
0100
0010
0001
1000
0001
0100
0001
1000
0010
0100
0010
1000
0001
0010
0100
1000
0001
0100
0010
0100
0001
1000
0100
0010
,
0001
1000
0100
1000
0001
1000
0010
0100
0010
1000
0001
0010
0100
1000
0001
0100
0010
0100
0001
1000
0010
1000
0100
0010
0001
1000
0001
1000
0001
0100
0010
0100
,
0001
1000
0001
1000
0001
1000
0001
0100
0010
1000
0100
1000
0010
0100
0001
0010
0001
0100
0010
1000
0100
0010
0001
0100
0001
0010
0001
1000
0100
1000
0010
1000
,
0001
0100
0001
0010
0100
1000
0001
1000
0010
0100
0001
1000
0001
0010
0100
1000
0001
0100
0010
0100
0001
1000
0100
0010
0001
1000
0100
1000
0010
0100
0010
1000
,
0001
0010
0100
1000
0001
0100
0010
0100
0001
1000
0100
0010
0001
0100
0001
1000
0010
0100
0010
1000
0100
0010
0001
1000
0100
1000
0001
0100
0001
0010
0100
1000
,
0001
0100
0010
0100
0001
1000
0100
0010
0100
0010
0001
1000
0100
1000
0001
1000
0010
0100
0010
1000
0001
0100
0001
0010
0100
1000
0001
0100
0010
0100
0001
1000
,
0100
0010
0001
1000
0100
1000
0001
0100
0010
0100
0001
0010
0100
1000
0001
1000
0100
1000
0010
0100
0010
1000
0001
0100
0001
0010
0100
1000
0001
0100
0001
1000
,
0100
1000
0010
0100
0001
1000
0001
0010
0100
1000
0001
0100
0010
0100
0001
1000
0100
1000
0001
1000
0010
0100
0010
1000
0100
0010
0001
1000
0100
1000
0010
0100
,
0010
1000
0001
0100
0001
0010
0001
1000
0100
1000
0001
0100
0010
0100
0001
1000
0001
0010
0100
1000
0001
0100
0001
0010
0100
1000
0001
1000
0010
0100
0010
1000
,
0100
0010
0001
1000
0100
1000
0001
0100
0010
0100
0001
1000
0100
0010
0001
0100
0010
1000
0001
0010
0100
1000
0010
0100
0001
1000
0100
1000
0010
1000
0001
0100
,
0001
1000
0001
0010
0100
1000
0001
0100
0010
0100
0001
1000
0100
1000
0001
1000
0010
0100
0010
1000
0001
0100
0001
1000
0100
0010
0001
1000
0100
1000
0001
0010
,
0100
1000
0001
0100
0010
0100
0001
1000
0100
0010
0100
1000
0001
0100
0010
0100
0001
1000
0100
0010
0001
1000
0010
0100
0010
1000
0001
0100
0001
0010
0100
1000
,
0001
0100
0001
0010
0100
1000
0001
0100
0010
0100
0001
1000
0100
0010
0001
1000
0100
1000
0001
1000
0010
0100
0010
1000
0001
0010
0100
1000
0001
0100
0010
0100
,
0001
0000
0000
0000
0000
0000
1000
0000
0000
0000
0000
0000
0100
0000
0000
0000
0000
0000
0010
0000
0000
0000
0000
0000
0001
0000
0000
0000
0000
0000
1000
0000
0000
0000
0000
0000
0100
0000
0000
0000
0000
0000
1000
0000
0000
0000
0000
0000
0010
0000
0000
0000
0000
0000
0100
0000
0000
0000
0000
0000
0010
0000
0000
0000
0000
0000
1000
0000
0000
0000
0000
0000
0001
0000
0000
0000
0000
0000
0010
0000
0000
0000
0000
0000
0100
0000
0000
0000
0000
0000
1000
0000
0000
0000
0000
0000
0001
0000
0000
0000
0000
0000
0000
0000
0000
0000
0000
0000
0000
0000
0000
0000
0101
0000
0000
0000
0000
0000
0000
0000
0000
0000
0000
0000
0000
0000
0000
0000
0110
0000
0000
0000
0000
0000
0000
0000
0000
0000
0000
0000
0000
0000
0000
0000
1001
0000
0000
0000
0000
0000
0000
0000
0000
0000
0000
0000
0000
0000
0000
0000
0000
0000
0000
0000
0000
0000
0000
0000
0110
0000
0000
0000
0000
0000
0000
0000
0000
0000
0000
0000
0000
0000
0000
0000
0000
0000
0000
0000
0000
0000
0000
0000
,
2002
0000
0000
0000
0000
0000
0000
0000
3003
0000
0000
0000
1001
0000
0000
0000
0000
0000
1000
0000
0000
0000
0000
0000
1010
0000
0000
0000
0000
0000
0010
0000
0000
0100
0000
0000
0001
0000
0000
0000
0000
0000
0010
0000
0000
0000
0000
0000
,
0110
0000
0000
0000
0000
0000
0100
0000
0000
1000
0000
0000
0010
0000
0000
0000
0000
0000
0100
0000
0000
0000
0000
0000
0101
0000
0000
0000
1001
0000
0000
0000
1010
0000
0000
0000
0220
0000
0000
0000
0000
0000
0000
0000
0000
0000
0000
0000
,
0330
0000
0000
0000
;
