#TITLE:The Final Conflict;
#SUBTITLE:Shadow Dancer;
#ARTIST:RushJet1;
#TITLETRANSLIT:;
#SUBTITLETRANSLIT:;
#ARTISTTRANSLIT:;
#CREDIT:;
#BANNER:The Final Conflict.png;
#BACKGROUND:The Final Conflict-bg.png;
#LYRICSPATH:;
#CDTITLE:!yesssss-cdtitle.png;
#MUSIC:The Final Conflict.mp3;
#OFFSET:-0.477;
#SAMPLESTART:85.000;
#SAMPLELENGTH:12.000;
#SELECTABLE:YES;
#BPMS:0.000=150.500,260.000=180.500,292.000=226.000;
#STOPS:;
#BGCHANGES:;
// cache tags:
#FIRSTBEAT:0.000;
#LASTBEAT:340.000;
#SONGFILENAME:Songs/VGMP 2/The Final Conflict (Yesssss)/The Final Conflict.sm;
#HASMUSIC:1;
#HASBANNER:1;
#MUSICLENGTH:129.468;
// end cache tags

//---------------dance-single - Copied from----------------
#NOTES:
     dance-single:
     Copied from:
     Challenge:
     14:
     1.000,1.000,1.000,0.000,1.000,963.000,436.000,0.000,0.000,0.000:




0001
1000
0010
1000
0001
1000
0010
1000
,
0100
0010
1000
0010
0100
0010
1000
0010
,
0001
1000
0010
1000
0001
1000
0010
1000
,
0100
0010
1000
0010
0100
0010
1000
0010
,
1100
0010
1001
1100
0011
1100
0001
0110
,
1010
0100
0101
1001
0110
1001
0001
0110
,
0101
1000
1001
1010
0101
1010
0001
0110
,
1010
0100
0011
1010
0101
1010
1001
1001
,
1100
0010
1001
1100
0011
1100
0001
0110
,
1010
0100
0101
1001
0110
1001
0001
0110
,
0101
1000
1001
1010
0101
1010
0001
0110
,
1010
0100
0011
1010
0101
1010
1001
1001
,
1100
0000
0101
0001
1000
0000
0001
0001
1010
0000
0100
0100
1001
0000
1100
0000
,
1000
0000
0101
0100
1000
0000
0010
0010
1001
0000
1000
1000
0011
0000
1100
0000
,
1000
0000
0001
0001
0100
0000
1000
1000
0101
0000
0001
0001
0010
0000
1001
0000
,
0010
0000
0010
0010
1000
0000
0100
0100
0011
0000
0001
0001
0100
0000
0110
0000
,
0001
0000
0001
0010
0100
0000
0100
0000
0100
0000
1000
0000
1000
0000
1000
0100
0010
0000
0000
0000
1000
0000
0000
0000
0101
0000
0000
0000
0110
0000
1000
0000
,
0010
0100
1001
1000
0001
0000
0011
1000
0001
0000
0110
0000
1001
0000
0010
1000
,
0010
0100
1001
0001
1100
0000
0110
0001
1010
0000
0100
0000
1001
0000
0110
1000
,
0010
0100
1010
1000
0001
0000
0101
0010
0100
0000
0101
1000
0011
0100
0011
1100
,
0011
0000
0000
0000
0000
0000
0000
0000
0000
0000
0000
0000
1100
0000
0000
0000
0000
0000
0000
0000
0000
0000
0000
0000
0011
0000
0000
0000
0000
0000
0000
0000
0000
0000
0000
0000
0110
0000
0000
0000
0000
0000
0000
0000
0000
0000
0000
0000
1001
0000
0000
0000
0000
0000
0000
0000
0000
0000
0000
0000
0100
0000
0000
0000
0000
0000
0001
0000
0000
0000
0000
0000
1010
0000
0000
0000
0000
0000
0000
0000
0000
0000
0000
0000
0100
0000
0000
0000
0000
0000
0000
0000
0000
0000
0000
0000
0011
0000
0000
0000
0000
0000
0000
0000
1000
0000
0000
0000
0000
0000
0000
0000
0000
0000
0000
0000
0000
0000
0000
0000
0100
0000
0000
0000
0000
0000
0000
0000
0000
0000
0000
0000
0000
0000
0000
0000
0000
0000
0000
0000
0000
0000
0000
0000
1010
0000
0000
0000
0000
0000
0000
0000
0001
0000
0000
0000
0000
0000
0000
0000
0100
0000
0000
0000
0000
0000
0000
0000
1010
0000
0000
0000
0000
0000
0000
0000
0000
0000
0000
0000
0001
0000
0000
0000
0000
0000
0000
0000
0000
0000
0000
0000
,
0100
0000
0000
0010
0000
0000
1010
0000
0001
1000
0010
0000
0101
0000
0000
0000
0000
0000
1010
0000
0000
0001
0000
0000
1100
0000
0000
0000
0000
0000
1010
0000
0000
0000
0000
0000
0101
0000
0000
0000
0000
0000
0110
0000
0001
1000
0000
0000
,
0010
0100
1001
0001
1100
0000
0011
0100
1010
0000
0100
0000
0011
0000
1001
0010
,
0100
0000
0000
0001
0000
0000
1010
0000
0000
0010
0000
0000
0101
0000
0000
0000
0000
0000
1010
0000
0100
0001
1000
0000
0110
0000
0000
0000
0000
0000
0010
0000
0000
0000
0000
0000
1000
0000
0000
0000
0000
0000
0110
0000
0000
1000
0000
0000
,
0001
0000
0000
0000
0000
0000
0000
0000
0000
0000
0000
0000
0100
0000
0000
0000
0000
0000
0000
0000
0000
0000
0000
0000
0010
0000
0000
0000
0000
0000
0000
0000
0000
0000
0000
0000
0010
0000
0000
0000
0000
0000
0000
0000
0000
0000
0000
0000
1001
0000
0000
0000
0000
0000
0000
0000
0000
0000
0000
0000
0010
0000
0000
0000
0000
0000
1000
0000
0000
0000
0000
0000
0100
0000
0000
0000
0000
0000
0000
0000
0000
0000
0000
0000
0001
0000
0000
0000
0000
0000
0000
0000
0000
0000
0000
0000
0101
0000
0000
0000
0000
0000
0000
0000
0000
0000
0000
0000
0000
0000
0000
0000
0000
0000
0000
0000
0000
0000
0000
0000
0001
0000
0000
0000
0000
0000
0000
0000
0001
0000
0000
0000
0000
0000
0000
0000
0001
0000
0000
0000
0000
0000
0000
0000
0011
0000
0000
0000
0000
0000
0000
0000
0000
0000
0000
0000
0000
0000
0000
0000
0000
0000
0000
0000
0000
0000
0000
0000
1001
0000
0000
0000
0000
0000
0000
0000
0000
0000
0000
0000
0000
0000
0000
0000
0000
0000
0000
0000
0000
0000
0000
0000
,
0100
0000
0000
0100
0000
0000
1100
0000
0000
0000
0000
0000
0010
0000
0000
0010
0000
0000
1010
0000
0000
0010
0000
0000
0010
0000
0000
0000
0000
0000
1001
0000
0001
0000
0001
0000
0001
0000
0000
0000
0000
0000
1010
0000
0000
0000
0000
0000
,
0110
0000
0000
0100
0000
0000
0100
0000
0000
0000
0000
0000
0011
0000
0000
0010
0000
0000
0010
0000
0000
0010
0000
0000
0110
0000
0000
0000
0000
0000
0100
0000
0100
0000
0100
0000
0101
0000
0000
0000
0000
0000
1010
0000
0000
0000
0000
0000
,
0001
0000
0000
0001
0000
0000
1001
0000
0000
0000
0000
0000
0100
0000
0000
0100
0000
0000
1100
0000
0000
0100
0000
0000
0100
0000
0000
0000
0000
0000
1010
0000
0010
0000
0010
0000
0010
0000
0000
0000
0000
0000
1100
0000
0000
0000
0000
0000
,
0101
0100
0100
0000
0011
0001
0001
0001
1001
0000
0010
0000
0101
0000
1010
0001
,
0100
0001
0110
0100
1000
0000
1010
0100
0001
0000
1001
0000
0010
0000
1100
0001
,
1100
0010
0100
0100
1010
0000
0100
0100
0101
0000
0010
0000
0011
0000
0010
0100
,
0001
0001
0101
0001
0001
0001
1001
0001
0001
0000
1100
0000
0001
0000
1010
0001
,
1100
0000
0010
0000
0100
0000
0100
0000
0101
0000
0100
0010
0001
0000
0001
0000
1001
0000
0000
0000
1100
0000
0000
0000
0011
0000
0000
0000
1100
0000
0010
0000
,
1001
0100
1001
0001
1010
0000
1001
0010
1100
0000
1010
0000
1001
0000
0110
0001
,
1100
0001
0110
0010
1001
0000
0110
1000
0101
0000
1100
0000
0011
0000
1100
0010
,
1001
0001
1001
0001
0101
0001
1001
0001
1001
0000
0110
0000
1001
0000
0110
1000
,
0101
0000
1000
0000
0110
0000
0100
0000
1001
0000
0100
0010
0001
0000
0001
0000
0110
0000
0000
0000
1010
0000
0000
0000
0101
0000
0000
0000
1001
0000
0100
0000
,
0011
0100
1010
0010
0101
0000
1010
0100
1001
0000
0110
0000
1010
0000
0110
1000
,
0101
1000
0110
0100
1000
0000
0110
1000
0011
0000
1010
0000
0011
0000
1100
0010
,
1001
0100
1001
0001
0101
0001
1001
0001
0101
0000
0110
0000
0011
0000
1100
0010
,
1100
0000
0001
0000
0110
0000
0100
0000
0101
0000
0100
1000
0010
0000
0010
0000
0101
0000
0000
0000
1100
0000
0000
0000
0011
0000
0000
0000
1010
0000
0100
0000
,
1001
0100
1010
0010
0101
0000
1100
0010
0101
0000
1010
0000
1001
0000
0110
1000
,
0101
1000
0011
0001
1010
0000
0110
1000
0101
0000
1100
0000
0011
0000
1010
0100
,
1001
1000
1100
1000
1010
1000
1001
1000
1100
0000
0110
0000
0011
0000
0110
1000
,
0101
0000
1000
0000
0101
0000
0001
0000
1001
0000
0001
0010
0100
0000
0100
0000
0101
0000
0000
0000
1100
0000
0000
0000
0011
0000
0000
0000
1100
0000
0010
0000
,
1001
0100
1001
0001
1010
0000
1001
0010
1100
0000
1010
0000
1001
0000
0110
0001
,
1100
0001
0110
0010
1001
0000
0110
1000
0101
0000
1100
0000
0011
0000
1100
0010
,
1001
0001
1001
0001
0101
0001
1001
0001
1001
0000
0110
0000
1001
0000
0110
1000
,
0101
0000
1000
0000
0110
0000
0100
0000
1001
0000
0100
0010
0001
0000
0001
0000
1000
0000
1000
0100
0010
0000
0010
0000
0010
0000
0100
0000
0100
0000
0100
0010
,
0001
0000
0001
0000
1010
0000
0110
0001
0100
0010
1001
0001
1000
0000
1100
0001
,
1000
0000
0000
0000
0110
0000
0000
0000
1001
0010
0000
0000
0100
0000
0001
0000
0100
0000
0010
0000
1001
0000
1000
0000
0011
0000
0000
0000
0110
0000
1000
0000
,
0101
0000
0010
0000
1001
0000
0110
0001
0100
0010
0101
0001
1000
0000
1010
0100
,
0010
0000
0000
0000
1010
0000
0001
0000
1100
0000
0010
0000
1100
0000
0011
0000
1100
0000
0011
0000
1100
0000
0110
0000
1001
0000
0010
1000
0101
0000
0010
0000
,
1100
0000
0001
0000
0000
0000
0010
0000
0000
0000
0000
0000
0101
0000
1000
0000
0010
0000
0101
0000
0000
1000
0000
0000
0010
0000
0000
0100
0000
0000
0101
0000
1000
0001
0100
0000
1010
0000
0000
0000
0000
0000
0101
0000
0000
1000
0000
0000
,
0011
0000
0000
0000
0000
0000
0101
0000
0000
0000
0000
0000
1010
0000
0000
0000
0000
0000
0110
0000
1000
0001
0000
0000
0100
0000
0000
0010
0000
0000
1001
0000
0000
1000
0000
0000
0011
0000
0000
0000
0000
0000
1100
0000
0000
0010
0000
0000
,
0101
0000
0000
0000
0000
0000
0010
0000
0000
0000
0000
0000
1100
0000
0000
0000
0000
0000
1001
0000
0000
0100
0000
0000
0010
0000
0000
1000
0000
0000
0101
0000
0000
0100
0000
0000
1010
0000
0000
0000
0000
0000
0101
0000
0010
1000
0001
0000
,
1010
0000
0000
0000
0100
0000
0000
0000
0001
0000
0000
0000
0110
0000
0001
0000
1000
0000
0010
0000
0100
0000
0100
0000
1001
0000
0100
0001
0010
0100
1000
0010
,
0100
0000
1000
0100
0000
0100
0000
0001
,
0000
0001
0000
0001
0010
0000
0100
0000
,
1000
0000
1000
0100
0000
0100
0000
0001
,
0000
0001
0000
0001
0010
0000
0100
0000
,
0001
0000
0001
0010
0000
0010
0000
1000
,
0000
1000
0000
1000
0100
0000
0010
0000
,
0001
0000
0001
0010
0000
0010
0000
1000
,
0000
1000
0000
1000
0100
0000
0010
0000
,
1001
0000
1100
0000
0011
0000
1100
0010
1001
0100
1001
0001
1010
0000
1001
0010
,
1100
0000
1010
0000
1001
0000
0110
0001
1100
0001
0110
0010
1001
0000
0110
1000
,
0101
0000
1100
0000
0011
0000
1100
0010
1001
0001
1001
0001
0101
0001
1001
0001
,
1001
0000
0000
0000
0110
0000
0000
0000
1001
0000
0000
0000
0110
0000
1000
0000
0101
0000
1000
0000
0110
0000
0100
0000
1001
0000
0100
0010
0001
0000
0001
0000
,
0110
0000
1010
0000
0101
0000
1001
0100
0011
0100
1010
0010
0101
0000
1010
0100
,
1001
0000
0110
0000
1010
0000
0110
1000
0101
1000
0110
0100
1000
0000
0110
1000
,
0011
0000
1010
0000
0011
0000
1100
0010
1001
0100
1001
0001
0101
0001
1001
0001
,
0101
0000
0000
0000
0110
0000
0000
0000
0011
0000
0000
0000
1100
0000
0010
0000
1100
0000
0001
0000
0110
0000
0100
0000
0101
0000
0100
1000
0010
0000
0010
0000
,
0101
0000
1100
0000
0011
0000
1010
0100
1001
0100
1010
0010
0101
0000
1100
0010
,
0101
0000
1010
0000
1001
0000
0110
1000
0101
1000
0011
0001
1010
0000
0110
1000
,
0101
0000
1100
0000
0011
0000
1010
0100
1001
0001
0101
0001
1001
0001
0101
0001
,
1001
0000
0000
0000
0110
0000
0000
0000
0011
0000
0000
0000
0110
0000
1000
0000
0101
0000
1000
0000
0101
0000
0001
0000
1001
0000
0001
0010
0100
0000
0100
0000
,
0101
0000
1100
0000
0011
0000
1100
0010
1001
0100
1001
0001
1010
0000
1001
0010
,
1100
0000
1010
0000
1001
0000
0110
0001
1100
0001
0110
0010
1001
0000
0110
1000
,
0101
0000
1100
0000
0011
0000
1100
0010
1001
0001
1001
0001
0101
0001
1001
0001
,
1001
0000
0000
0000
0110
0000
0000
0000
1001
0000
0000
0000
0110
0000
1000
0000
0101
0000
1000
0000
0110
0000
0100
0000
1001
0000
0100
0010
0001
0000
0001
0000
,
0001
1000
0010
1000
0001
1000
0010
1000
,
0100
0001
0100
0010
0100
0001
0100
0010
,
0100
0010
0100
0010
0100
0010
0100
0010
,
0100
0010
0100
0010
0100
0010
0100
0010
,
0100
0000
0000
0000
;

//---------------dance-single - Copied from Copied f----------------
#NOTES:
     dance-single:
     Copied from Copied f:
     Hard:
     12:
     1.000,1.000,1.000,0.000,1.000,958.000,139.000,0.000,0.000,0.000:




0001
1000
0010
1000
0001
1000
0010
1000
,
0100
0010
1000
0010
0100
0010
1000
0010
,
0001
1000
0010
1000
0001
1000
0010
1000
,
0100
0010
1000
0010
0100
0010
1000
0010
,
1100
0010
1001
1100
0011
1100
0001
0110
,
1010
0100
0101
1001
0110
1001
0001
0110
,
0101
1000
1001
1010
0101
1010
0001
0110
,
1010
0100
0011
1010
0101
1010
1001
1001
,
1100
0010
1001
1100
0011
1100
0001
0110
,
1010
0100
0101
1001
0110
1001
0001
0110
,
0101
1000
1001
1010
0101
1010
0001
0110
,
1010
0100
0011
1010
0101
1010
1001
1001
,
1100
0000
0001
0001
1000
0000
0001
0001
0010
0000
0100
0100
0001
0000
1100
0000
,
1000
0000
0100
0100
0010
0000
0010
0010
1000
0000
1000
1000
0010
0000
1100
0000
,
1000
0000
0001
0001
0100
0000
1000
1000
0100
0000
0001
0001
0010
0000
1001
0000
,
0010
0000
0010
0010
1000
0000
0100
0100
0010
0000
0001
0001
0100
0000
0110
0000
,
0001
0000
1000
0100
0010
0000
0100
0000
0010
0000
0001
0000
1000
0000
0001
0010
0100
0000
0000
0000
1000
0000
0000
0000
0101
0000
0000
0000
0010
0000
1000
0000
,
0010
0100
1000
1000
0001
0000
0001
1000
0001
0000
0110
0000
1001
0000
0010
1000
,
0010
0100
0001
0001
1000
0000
0100
0001
1000
0000
0100
0000
1001
0000
0010
1000
,
0010
0100
1000
1000
0001
0000
0001
0010
0100
0000
0001
1000
0001
0100
0001
1000
,
0001
0000
0000
0000
0000
0000
0000
0000
0000
0000
0000
0000
1000
0000
0000
0000
0000
0000
0000
0000
0000
0000
0000
0000
0010
0000
0000
0000
0000
0000
0000
0000
0000
0000
0000
0000
0010
0000
0000
0000
0000
0000
0000
0000
0000
0000
0000
0000
0001
0000
0000
0000
0000
0000
0000
0000
0000
0000
0000
0000
0010
0000
0000
0000
0000
0000
0100
0000
0000
0000
0000
0000
1000
0000
0000
0000
0000
0000
0000
0000
0000
0000
0000
0000
0100
0000
0000
0000
0000
0000
0000
0000
0000
0000
0000
0000
0010
0000
0000
0000
0000
0000
0000
0000
1000
0000
0000
0000
0000
0000
0000
0000
0000
0000
0000
0000
0000
0000
0000
0000
0100
0000
0000
0000
0000
0000
0000
0000
0000
0000
0000
0000
0000
0000
0000
0000
0000
0000
0000
0000
0000
0000
0000
0000
1000
0000
0000
0000
0000
0000
0000
0000
0001
0000
0000
0000
0000
0000
0000
0000
0100
0000
0000
0000
0000
0000
0000
0000
0010
0000
0000
0000
0000
0000
0000
0000
0000
0000
0000
0000
0001
0000
0000
0000
0000
0000
0000
0000
0000
0000
0000
0000
,
0100
0000
0000
0010
0000
0000
0100
0000
1000
0000
0010
0000
0100
0000
0000
0000
0000
0000
0010
0000
0000
0001
0000
0000
0100
0000
0000
0000
0000
0000
1010
0000
0000
0000
0000
0000
0101
0000
0000
0000
0000
0000
0010
0000
0100
0000
0000
0000
,
0010
0100
0001
0001
0100
0000
0010
0100
0010
0000
0100
0000
0011
0000
0001
0010
,
0100
0000
0000
0001
0000
0000
1000
0000
0000
1000
0000
0000
0001
0000
0000
0000
0000
0000
0010
0000
0100
0000
1000
0000
0010
0000
0000
0000
0000
0000
0010
0000
0000
0000
0000
0000
1000
0000
0000
0000
0000
0000
0010
0000
0000
1000
0000
0000
,
0001
0000
0000
0000
0000
0000
0000
0000
0000
0000
0000
0000
0100
0000
0000
0000
0000
0000
0000
0000
0000
0000
0000
0000
0010
0000
0000
0000
0000
0000
0000
0000
0000
0000
0000
0000
0010
0000
0000
0000
0000
0000
0000
0000
0000
0000
0000
0000
0001
0000
0000
0000
0000
0000
0000
0000
0000
0000
0000
0000
0010
0000
0000
0000
0000
0000
1000
0000
0000
0000
0000
0000
0100
0000
0000
0000
0000
0000
0000
0000
0000
0000
0000
0000
0001
0000
0000
0000
0000
0000
0000
0000
0000
0000
0000
0000
0001
0000
0000
0000
0000
0000
0000
0000
0000
0000
0000
0000
0000
0000
0000
0000
0000
0000
0000
0000
0000
0000
0000
0000
0001
0000
0000
0000
0000
0000
0000
0000
1000
0000
0000
0000
0000
0000
0000
0000
0001
0000
0000
0000
0000
0000
0000
0000
0100
0000
0000
0000
0000
0000
0000
0000
0000
0000
0000
0000
0000
0000
0000
0000
0000
0000
0000
0000
0000
0000
0000
0000
1001
0000
0000
0000
0000
0000
0000
0000
0000
0000
0000
0000
0000
0000
0000
0000
0000
0000
0000
0000
0000
0000
0000
0000
,
0100
0000
0000
0010
0000
0000
1000
0000
0000
0000
0000
0000
0010
0000
0000
0001
0000
0000
1000
0000
0000
0001
0000
0000
0010
0000
0000
0000
0000
0000
0001
0000
0100
0000
0001
0000
0100
0000
0000
0000
0000
0000
1010
0000
0000
0000
0000
0000
,
0100
0000
0000
0001
0000
0000
0100
0000
0000
0000
0000
0000
0001
0000
0000
1000
0000
0000
0010
0000
0000
1000
0000
0000
0001
0000
0000
0000
0000
0000
0100
0000
0001
0000
0100
0000
0010
0000
0000
0000
0000
0000
1010
0000
0000
0000
0000
0000
,
0001
0000
0000
0010
0000
0000
0001
0000
0000
0000
0000
0000
0100
0000
0000
0001
0000
0000
1000
0000
0000
0001
0000
0000
0100
0000
0000
0000
0000
0000
1000
0000
0100
0000
0010
0000
0100
0000
0000
0000
0000
0000
1100
0000
0000
0000
0000
0000
,
0100
0001
0100
0000
1000
0001
0010
0001
1000
0000
0010
0000
0101
0000
0010
0001
,
0100
0001
0100
0100
1000
0000
0010
0100
0001
0000
1001
0000
0010
0000
0100
0001
,
0100
0010
0100
0100
0010
0000
0100
0010
0100
0000
0010
0000
0011
0000
0010
0100
,
0001
1000
0001
0100
0001
0010
0001
0100
0001
0000
1100
0000
0001
0000
1000
0001
,
1000
0000
0010
0000
0100
0000
0001
0000
0100
0000
0001
0010
0100
0000
1000
0000
0001
0000
0000
0000
1100
0000
0000
0000
0011
0000
0000
0000
0100
0000
0010
0000
,
1000
0100
1000
1000
0010
0000
0001
0010
0100
0000
1010
0000
1001
0000
0010
0001
,
1000
0001
0010
0010
0100
0000
0010
1000
0001
0000
1100
0000
0011
0000
0100
0010
,
0001
0100
0001
0010
0001
0100
0001
1000
0001
0000
0110
0000
1001
0000
0010
1000
,
0001
0000
1000
0000
0100
0000
0100
0000
0001
0000
0010
0100
1000
0000
0001
0000
0100
0000
0000
0000
1010
0000
0000
0000
0101
0000
0000
0000
1000
0000
0100
0000
,
0010
0100
1000
0010
0100
0000
0010
0100
1000
0000
0110
0000
1010
0000
0010
1000
,
0001
1000
0010
0010
1000
0000
0010
1000
0010
0000
1010
0000
0011
0000
0100
0010
,
1000
0100
1000
0010
1000
0100
1000
0001
1000
0000
0110
0000
0011
0000
0100
0010
,
0100
0000
0001
0000
0100
0000
0010
0000
0100
0000
0001
1000
0010
0000
0010
0000
0100
0000
0000
0000
1100
0000
0000
0000
0011
0000
0000
0000
0010
0000
0100
0000
,
1000
0100
0010
0010
0100
0000
0100
0010
0001
0000
1010
0000
1001
0000
0100
1000
,
0100
1000
0001
0001
0010
0000
0010
1000
0100
0000
1100
0000
0011
0000
0010
0100
,
1000
0001
1000
0100
1000
0010
1000
0001
1000
0000
0110
0000
0011
0000
0010
1000
,
0100
0000
1000
0000
0100
0000
0010
0000
0100
0000
1000
0010
0100
0000
0100
0000
0010
0000
0000
0000
1100
0000
0000
0000
0011
0000
0000
0000
0100
0000
0010
0000
,
0001
0100
0001
0001
0010
0000
0001
0010
0100
0000
1010
0000
1001
0000
0100
0001
,
0100
0001
0010
0010
1000
0000
0010
1000
0001
0000
1100
0000
0011
0000
0100
0010
,
0001
0010
0001
1000
0001
0100
0001
0010
0001
0000
0110
0000
1001
0000
0010
1000
,
0001
0000
1000
0000
0100
0000
0100
0000
1000
0000
0100
0010
0001
0000
0010
0000
0100
0000
1000
0100
0010
0000
0001
0000
0010
0000
0100
0000
1000
0000
0100
0010
,
0001
0000
0001
0000
1010
0000
0010
0001
0100
0010
0001
0001
1000
0000
0100
0001
,
1000
0000
0000
0000
0010
0000
0000
0000
0001
0010
0000
0000
0100
0000
0001
0000
0100
0000
0010
0000
0001
0000
0001
0000
0010
0000
0000
0000
0010
0000
1000
0000
,
0001
0000
0010
0000
1001
0000
0100
0001
0100
0010
0100
0100
1000
0000
0010
0100
,
0010
0000
0000
0000
1000
0000
0001
0000
1000
0000
0010
0000
1000
0000
0001
0000
1000
0000
0001
0000
0100
0000
0100
0000
0001
0000
0010
0100
1000
0000
0001
0000
,
0100
0000
0001
0000
0000
0000
0010
0000
0000
0000
0000
0000
0001
0000
1000
0000
0010
0000
0100
0000
0000
0001
0000
0000
0010
0000
0000
0100
0000
0000
0100
0000
0010
0000
0001
0000
0010
0000
0000
0000
0000
0000
0100
0000
0000
1000
0000
0000
,
0010
0000
0000
0000
0000
0000
0101
0000
0000
0000
0000
0000
1010
0000
0000
0000
0000
0000
0010
0000
1000
0001
0000
0000
0100
0000
0000
0010
0000
0000
0001
0000
0000
0001
0000
0000
0010
0000
0000
0000
0000
0000
0100
0000
0000
0010
0000
0000
,
0100
0000
0000
0000
0000
0000
0010
0000
0000
0000
0000
0000
1100
0000
0000
0000
0000
0000
1000
0000
0000
0100
0000
0000
0010
0000
0000
1000
0000
0000
0100
0000
0000
0100
0000
0000
0010
0000
0000
0000
0000
0000
0100
0000
0010
0000
0001
0000
,
1000
0000
0000
0000
0100
0000
0000
0000
0001
0000
0000
0000
0100
0000
0001
0000
1000
0000
0010
0000
0100
0000
0100
0000
0001
0000
0100
0001
0010
0100
1000
0010
,
0100
0000
1000
0100
0000
0100
0000
0001
,
0000
0001
0000
0001
0010
0000
0100
0000
,
1000
0000
1000
0100
0000
0100
0000
0001
,
0000
0001
0000
0001
0010
0000
0100
0000
,
0001
0000
0001
0010
0000
0010
0000
1000
,
0000
1000
0000
1000
0100
0000
0010
0000
,
0001
0000
0001
0010
0000
0010
0000
1000
,
0000
1000
0000
1000
0100
0000
0010
0000
,
0001
0000
1100
0000
0011
0000
0100
0010
1000
0100
1000
1000
0010
0000
0001
0010
,
0100
0000
1010
0000
1001
0000
0010
0001
1000
0001
0010
0010
0100
0000
0010
1000
,
0001
0000
1100
0000
0011
0000
0100
0010
0001
0100
0001
0010
0001
0100
0001
1000
,
0001
0000
0000
0000
0110
0000
0000
0000
1001
0000
0000
0000
0010
0000
1000
0000
0001
0000
1000
0000
0100
0000
0100
0000
0001
0000
0010
0100
1000
0000
0001
0000
,
0100
0000
1010
0000
0101
0000
1000
0100
0010
0100
1000
0010
0100
0000
0010
0100
,
1000
0000
0110
0000
1010
0000
0010
1000
0001
1000
0010
0010
1000
0000
0010
1000
,
0010
0000
1010
0000
0011
0000
0100
0010
1000
0100
1000
0010
1000
0100
1000
0001
,
1000
0000
0000
0000
0110
0000
0000
0000
0011
0000
0000
0000
0100
0000
0010
0000
0100
0000
0001
0000
0100
0000
0010
0000
0100
0000
0001
1000
0010
0000
0010
0000
,
0100
0000
1100
0000
0011
0000
0010
0100
1000
0100
0010
0010
0100
0000
0100
0010
,
0001
0000
1010
0000
1001
0000
0100
1000
0100
1000
0001
0001
0010
0000
0010
1000
,
0100
0000
1100
0000
0011
0000
0010
0100
1000
0001
1000
0100
1000
0010
1000
0001
,
1000
0000
0000
0000
0110
0000
0000
0000
0011
0000
0000
0000
0010
0000
1000
0000
0100
0000
1000
0000
0100
0000
0010
0000
0100
0000
1000
0010
0100
0000
0100
0000
,
0010
0000
1100
0000
0011
0000
0100
0010
0001
0100
0001
0001
0010
0000
0001
0010
,
0100
0000
1010
0000
1001
0000
0100
0001
0100
0001
0010
0010
1000
0000
0010
1000
,
0001
0000
1100
0000
0011
0000
0100
0010
0001
0010
0001
1000
0001
0100
0001
0010
,
0001
0000
0000
0000
0110
0000
0000
0000
1001
0000
0000
0000
0010
0000
1000
0000
0001
0000
1000
0000
0100
0000
0100
0000
1000
0000
0100
0010
0001
0000
0010
0000
,
0100
1000
0010
1000
0001
1000
0010
1000
,
0100
0001
0100
0010
0100
0001
0100
0010
,
0100
0010
0100
0010
0100
0010
0100
0010
,
0100
0010
0100
0010
0100
0010
0100
0010
,
0100
0000
0000
0000
;

//---------------dance-single - Edit----------------
#NOTES:
     dance-single:
     Edit:
     Edit:
     16:
     1.000,1.000,1.000,0.000,1.000,1111.000,702.000,0.000,0.000,0.000:

0001
0000
1000
0100
0010
0000
1000
0100
0001
0000
1000
0100
0010
0000
1000
0001
,
0100
0000
0010
0100
1000
0000
0010
0001
0100
0000
0010
0100
1000
0000
0010
0100
,
0001
0000
1000
0100
0010
0000
1000
0100
0001
0000
1000
0100
0010
0000
1000
0001
,
0100
0000
0010
0100
1000
0000
0010
0001
0100
0000
0010
0100
1000
0000
0010
0001
,
1100
0000
0010
0100
1001
0000
1100
0010
0101
0000
1100
0010
0001
0000
0110
0001
,
1010
0000
0100
0010
0101
0000
1001
0100
1010
0000
1001
0100
0001
0000
0110
1000
,
0101
0000
1000
0100
1001
0000
1001
0010
0101
0000
1010
0100
0001
0000
0110
0001
,
1010
0000
0100
1000
0011
0000
1010
0100
1001
0000
1010
0100
1001
0000
1001
0010
,
1100
0000
0011
0100
1001
0010
1100
0010
0101
0000
1001
0110
1001
0000
0101
0010
,
1001
0000
0101
1000
0101
0010
1001
0100
1010
0000
1001
0110
0001
0000
0110
1000
,
0101
0000
1010
0100
1001
0100
1010
0001
0110
0000
1010
0101
0010
0000
0110
0001
,
1010
0000
0110
1000
0101
0010
1100
0001
0110
0000
1100
0011
1100
0000
1001
0010
,
1100
0000
0101
0011
1000
0010
1001
0101
1010
0000
0101
0110
1001
0000
1100
0010
,
1000
0000
0101
0110
1000
0100
1010
0110
1001
0000
1001
1100
0011
0000
1100
0001
,
1000
0000
0011
1001
0100
0010
1001
1010
0101
0000
1001
0101
0010
0000
1001
0100
,
0010
0000
1010
0011
1000
0010
0101
1100
0011
0000
1001
0011
0100
0000
0110
1000
,
0001
0000
0001
0010
0101
0000
0100
0000
0100
0000
1001
0000
1001
0000
1001
0110
1001
0000
0010
0000
1100
0000
0010
0000
0101
0000
1000
0000
0110
0000
1001
0000
,
1010
0110
1001
1100
0011
0100
0011
1100
1001
0100
0110
0010
1001
0100
0011
1100
,
1010
0110
1001
0011
1100
0010
0110
0101
1010
0100
0101
0010
1001
0001
0110
1100
,
1010
0101
1010
1010
0101
0010
0101
1010
0101
1000
0101
1010
0011
1100
0011
1100
,
0011
0000
0000
0000
0000
0000
0000
0000
0000
0000
0000
0000
1100
0000
0000
0000
0000
0000
0000
0000
0000
0000
0000
0000
0011
0000
0000
0000
0000
0000
0000
0000
0000
0000
0000
0000
0110
0000
0000
0000
0000
0000
0000
0000
0000
0000
0000
0000
1001
0000
0000
0000
0000
0000
0000
0000
0000
0000
0000
0000
0110
0000
0000
0000
0000
0000
0001
0000
0000
0000
0000
0000
1010
0000
0000
0000
0000
0000
0000
0000
0000
0000
0000
0000
1100
0000
0000
0000
0000
0000
0000
0000
0000
0000
0000
0000
0011
0000
0000
0000
0000
0000
0000
0000
1000
0000
0000
0000
0010
0000
0000
0000
0000
0000
0000
0000
0000
0000
0000
0000
1100
0000
0000
0000
0000
0000
0000
0000
0000
0000
0000
0000
0001
0000
0000
0000
0000
0000
0000
0000
0000
0000
0000
0000
1010
0000
0000
0000
0000
0000
0000
0000
0001
0000
0000
0000
0010
0000
0000
0000
0100
0000
0000
0000
0000
0000
0000
0000
1010
0000
0000
0000
0000
0000
0000
0000
0000
0000
0000
0000
0101
0000
0000
0000
0000
0000
0000
0000
0000
0000
0000
0000
,
1100
0000
0000
0011
0000
0000
1010
0000
0001
1100
0010
0000
0101
0000
0000
0100
0000
0000
1010
0000
0000
0011
0000
0000
1100
0000
0000
0010
0000
0000
1010
0000
0000
0100
0000
0000
0101
0000
0000
0010
0000
0000
0110
0000
0001
1100
0000
0000
,
1010
0110
1001
0011
1100
0100
0011
1100
1010
0001
0110
1000
0011
0100
1001
0011
,
1100
0000
0000
0101
0000
0000
1010
0000
0000
1010
0000
0000
0101
0000
0000
0001
0000
0000
1010
0000
0100
0011
1000
0000
0110
0000
0000
1000
0000
0000
0011
0000
0000
0100
0000
0000
1010
0000
0000
0001
0000
0000
0110
0000
0000
1100
0000
0000
,
0011
0000
0000
0000
0000
0000
0000
0000
0000
0000
0000
0000
1100
0000
0000
0000
0000
0000
0000
0000
0000
0000
0000
0000
0011
0000
0000
0000
0000
0000
0000
0000
0000
0000
0000
0000
1010
0000
0000
0000
0000
0000
0000
0000
0000
0000
0000
0000
1001
0000
0000
0000
0000
0000
0000
0000
0000
0000
0000
0000
0110
0000
0000
0000
0000
0000
1000
0000
0000
0000
0000
0000
0101
0000
0000
0000
0000
0000
0000
0000
0000
0000
0000
0000
1001
0000
0000
0000
0000
0000
0000
0000
0000
0000
0000
0000
0101
0000
0000
0000
0000
0000
0000
0000
0000
0000
0000
0000
0000
0000
0000
0000
0000
0000
0000
0000
0000
0000
0000
0000
0001
0000
0000
0000
0000
0000
0000
0000
0001
0000
0000
0000
0000
0000
0000
0000
0001
0000
0000
0000
0000
0000
0000
0000
0011
0000
0000
0000
0000
0000
0000
0000
0000
0000
0000
0000
0000
0000
0000
0000
0000
0000
0000
0000
0000
0000
0000
0000
1001
0000
0000
0000
0000
0000
0000
0000
0000
0000
0000
0000
0000
0000
0000
0000
0000
0000
0000
0000
0000
0000
0000
0000
,
0100
0000
0000
0100
0000
0000
1100
0000
0000
0000
0000
0000
0010
0000
0000
0010
0000
0000
1010
0000
0000
0010
0000
0000
0010
0000
0000
0000
0000
0000
1001
0000
0001
0000
0001
0000
0001
0000
0000
0000
0000
0000
1010
0000
0000
0000
0000
0000
,
0110
0000
0000
0100
0000
0000
0100
0000
0000
0000
0000
0000
0011
0000
0000
0010
0000
0000
0010
0000
0000
0010
0000
0000
0110
0000
0000
0000
0000
0000
0100
0000
0100
0000
0100
0000
0101
0000
0000
0000
0000
0000
1010
0000
0000
0000
0000
0000
,
0001
0000
0000
0001
0000
0000
1001
0000
0000
0000
0000
0000
0100
0000
0000
0100
0000
0000
1100
0000
0000
0100
0000
0000
0100
0000
0000
0000
0000
0000
1010
0000
0010
0000
0010
0000
0010
0000
0000
0000
0000
0000
1100
0000
0000
0000
0000
0000
,
0101
0100
0100
0000
0011
0001
0001
0001
1001
0000
0010
0000
0101
0000
1010
0001
,
0100
0001
0110
0100
1000
0000
1010
0100
0001
0000
1001
0000
0010
0000
1100
0001
,
1100
0010
0100
0100
1010
0000
0100
0100
0101
0000
0010
0000
0011
0000
0010
0100
,
1001
0011
0101
1001
0011
0101
1001
0011
0101
0000
1100
0000
0001
0000
1010
0001
,
1100
0000
0010
0000
0100
0000
0100
0000
0101
0000
0100
0010
0001
0000
0001
0000
1001
0000
0000
0000
1100
0000
0010
0000
0101
0000
0000
0000
1100
0000
0011
0000
,
1001
0100
1001
0101
1010
0000
1001
0011
1100
0000
1010
0100
1001
0000
0110
0011
,
1100
0001
0110
1010
1001
0000
0110
1010
0101
0000
1100
0010
0011
0000
1100
0010
,
1001
0101
1001
0011
0101
0011
1001
0011
1001
0000
0110
1000
1001
0000
0110
1010
,
0101
0000
1000
0000
0110
0000
0101
0000
1001
0000
1100
0010
0001
0000
0001
0000
0110
0000
0000
0000
1010
0000
0100
0000
1001
0000
0000
0000
1001
0000
0110
0000
,
0011
0100
1010
1010
0101
0000
1010
0110
1001
0000
0110
0001
1010
0000
0110
1010
,
0101
1000
0110
0101
1000
0000
0110
1100
0011
0000
1010
0100
0011
0000
1100
0110
,
1001
0100
1001
0011
0101
0011
1001
0011
0101
0000
0110
1000
0011
0000
1100
0011
,
1100
0000
0001
0000
0110
0000
1100
0000
0101
0000
0100
1000
0010
0000
1010
0000
0101
0000
0000
0000
1100
0000
0100
0000
0011
0000
0000
0000
1010
0000
0110
0000
,
1001
0100
1010
1010
0101
0000
1100
0011
0101
0000
1010
0100
1001
0000
0110
1001
,
0101
1000
0011
0101
1010
0000
0110
1010
0101
0000
1100
0010
0011
0000
1010
0110
,
1001
1010
1100
1001
1010
1100
1001
1010
1100
0000
0110
1000
0011
0000
0110
1010
,
0101
0000
1000
0000
0101
0000
0011
0000
1001
0000
0001
0010
0100
0000
0110
0000
0101
0000
0000
0000
1100
0000
0100
0000
0011
0000
0000
0000
1100
0000
0110
0000
,
1001
0100
1001
0101
1010
0000
1001
0011
1100
0000
1010
0100
1001
0000
0110
0011
,
1100
0001
0110
0110
1001
0000
0110
1010
0101
0000
1100
0100
0011
0000
1100
0110
,
1001
0011
1001
0011
0101
0011
1001
0101
1001
0000
0110
1000
1001
0000
0110
1010
,
0101
0000
1000
0000
0110
0000
0110
0000
1001
0000
0100
0010
0001
0000
0101
0000
1000
0000
1000
0100
1010
0000
0010
0000
0010
0000
0101
0000
0101
0000
0101
1010
,
0101
0010
0101
0100
1010
1000
0110
1001
0110
0110
1001
0101
1100
0010
1100
0011
,
1100
0000
0001
0000
0110
0000
1000
0000
1001
0010
0100
0000
0110
0000
1001
0000
0110
0000
0110
0000
1001
0000
1100
0000
0011
0000
1000
0000
0110
0000
1010
0000
,
0101
0100
0011
0100
1001
1000
0110
1001
0110
1010
0101
0011
1100
0001
1010
0101
,
1010
0000
0100
0000
1010
0000
0011
0000
1100
0000
0011
0000
1100
0000
0011
0000
1100
0000
0011
0000
1100
0000
0110
0000
1001
0000
0110
1000
0101
0000
0110
0000
,
1100
0000
0001
0100
0000
0000
1010
0000
0000
0010
0000
0000
0101
0000
1000
0100
0010
0000
0101
0000
0000
1100
0000
0000
0011
0000
0000
1100
0000
0000
0101
0000
1000
0011
0100
0000
1010
0000
0000
0010
0000
0000
0101
0000
0000
1100
0000
0000
,
0011
0000
0000
1000
0000
0000
0101
0000
0000
0010
0000
0000
1010
0000
0000
0001
0000
0000
0110
0000
1000
0011
0000
0000
1100
0000
0000
0110
0000
0000
1001
0000
0000
1100
0000
0000
0011
0000
0000
0010
0000
0000
1100
0000
0000
0011
0000
0000
,
0101
0000
0000
1000
0000
0000
0011
0000
0000
0010
0000
0000
1100
0000
0000
0010
0000
0000
1001
0000
0000
0110
0000
0000
1010
0000
0000
1010
0000
0000
0101
0000
0000
0101
0000
0000
1010
0000
0000
0100
0000
0000
0101
0000
0010
1100
0001
0000
,
1010
0000
0001
0000
1100
0000
0010
0000
1001
0000
0100
0000
0110
0000
1001
0000
1100
0000
0011
0000
1100
0000
0110
0000
1001
0000
0110
0001
1010
0100
1001
0010
,
0101
0000
1000
0100
0000
0100
0000
0001
,
0000
0001
0000
0001
0010
0000
0100
0000
,
1000
0000
1000
0100
0000
0100
0000
0001
,
0000
0001
0000
0001
0010
0000
0100
0000
,
0001
0000
0001
0010
0000
0010
0000
1000
,
0000
1000
0000
1000
0100
0000
0010
0000
,
0001
0000
0001
0010
0000
0010
0000
1000
,
0000
1000
0000
1000
0100
0000
0010
0000
,
1001
0000
1100
0010
0101
0000
1100
0011
1001
0100
1001
0101
1010
0000
1001
0011
,
1100
0000
1010
0100
1001
0000
0110
0011
1100
0001
0110
1010
1001
0000
0110
1010
,
0101
0000
1100
0010
0011
0000
1100
0010
1001
0101
1001
0011
0101
0011
1001
0011
,
1001
0000
0000
0000
0110
0000
1000
0000
1001
0000
0000
0000
0110
0000
1010
0000
0101
0000
1000
0000
0110
0000
0101
0000
1001
0000
1100
0010
0001
0000
0001
0000
,
0110
0000
1010
0100
1001
0000
1001
0110
0011
0100
1010
1010
0101
0000
1010
0110
,
1001
0000
0110
0001
1010
0000
0110
1010
0101
1000
0110
0101
1000
0000
0110
1100
,
0011
0000
1010
0100
0011
0000
1100
0110
1001
0100
1001
0011
0101
0011
1001
0011
,
0101
0000
0000
0000
0110
0000
1000
0000
0011
0000
0000
0000
1100
0000
0011
0000
1100
0000
0001
0000
0110
0000
1100
0000
0101
0000
0100
1000
0010
0000
1010
0000
,
0101
0000
1100
0100
0011
0000
1010
0110
1001
0100
1010
1010
0101
0000
1100
0011
,
0101
0000
1010
0100
1001
0000
0110
1001
0101
1000
0011
0101
1010
0000
0110
1010
,
0101
0000
1100
0010
0011
0000
1010
0110
1001
1010
1100
1001
1010
1100
1001
1010
,
1100
0000
0000
0000
0110
0000
1000
0000
0011
0000
0000
0000
0110
0000
1010
0000
0101
0000
1000
0000
0101
0000
0011
0000
1001
0000
0001
0010
0100
0000
0110
0000
,
0101
0000
1100
0100
0011
0000
1100
0110
1001
0100
1001
0101
1010
0000
1001
0011
,
1100
0000
1010
0100
1001
0000
0110
0011
1100
0001
0110
0110
1001
0000
0110
1010
,
0101
0000
1100
0100
0011
0000
1100
0110
1001
0011
1001
0011
0101
0011
1001
0101
,
1001
0000
0000
0000
0110
0000
1000
0000
1001
0000
0000
0000
0110
0000
1010
0000
0101
0000
1000
0000
0110
0000
0110
0000
1001
0000
0100
0010
0001
0000
0101
0000
,
0101
1000
0010
1000
0001
1000
0010
1000
,
0100
0001
0100
0010
0100
0001
0100
0010
,
0100
0010
0100
0010
0100
0010
0100
0010
,
0100
0010
0100
0010
0100
0010
0100
0010
,
0100
0000
0000
0000
;
