#TITLE:Spiral Mountain;
#SUBTITLE:Banjo-Kazooie;
#ARTIST:Rareware;
#TITLETRANSLIT:;
#SUBTITLETRANSLIT:;
#ARTISTTRANSLIT:;
#CREDIT:;
#BANNER:sm.PNG;
#BACKGROUND:sm-bg.PNG;
#LYRICSPATH:;
#CDTITLE:kyka06.png;
#MUSIC:Spiral Mountain.mp3;
#OFFSET:-0.040;
#SAMPLESTART:37.012;
#SAMPLELENGTH:12.000;
#SELECTABLE:YES;
#BPMS:0.000=109.920;
#STOPS:;
#BGCHANGES:;
// cache tags:
#FIRSTBEAT:0.000;
#LASTBEAT:232.000;
#SONGFILENAME:Songs/new/BK- Spiral Mountain/sm.sm;
#HASMUSIC:1;
#HASBANNER:1;
#MUSICLENGTH:135.157;
// end cache tags

//---------------dance-single - ----------------
#NOTES:
     dance-single:
     :
     Challenge:
     12:
     0.806,0.815,1.000,0.015,0.400,470.000,291.000,2.000,0.000,0.000:
0110
0000
0000
0000
0101
0000
0000
0000
0001
1000
0000
1000
0100
0000
1001
0000
,
0110
0000
1001
0000
1001
0000
0000
1000
0010
0000
1001
0000
1001
0000
1001
0000
,
0110
0000
0000
0001
1000
0000
0110
0000
1001
0000
1001
0000
0110
0000
1001
0000
,
0110
0000
1001
0000
1001
0000
0000
1000
0100
0000
1001
0000
1001
0000
0110
0000
,
0002
0000
0000
0000
0000
0000
0000
0000
0000
0003
1001
0000
0110
0000
1001
0000
,
1001
0000
1001
0000
0110
0000
0000
0001
1000
0000
1001
0000
0110
0000
1001
0000
,
1001
0000
0000
0010
1000
0000
1001
0000
0110
0000
1001
0000
0110
0000
1001
0000
,
1001
0000
1001
0000
0110
0000
0000
1000
1010
0000
0000
0000
1001
0000
0000
0000
,
0101
0000
0000
1000
1010
0000
1001
0000
1001
0000
0110
0000
1001
0000
1001
0000
,
0110
0000
1001
0000
1001
0000
0000
1000
0101
0000
1001
0000
1001
0000
0110
0000
,
1001
0000
0110
0000
1001
0000
0000
0100
0101
0000
1001
0000
1001
0000
0000
0000
,
0011
0000
0000
0000
1001
0000
0000
0010
0001
0000
1001
0000
0110
0000
1001
0000
,
0110
0000
0000
0000
0101
0000
0000
1000
1010
0000
1001
0000
1001
0000
0110
0000
,
1001
0000
1001
0000
0110
0000
0000
0100
1000
0000
0110
0000
1001
0000
0110
0000
,
1001
0000
0000
0100
0001
0000
1001
0000
0110
0000
1001
0000
1001
0000
0110
0000
,
1001
0000
1000
0010
0000
0100
0010
0000
1001
0000
0001
0100
0000
1000
0001
0000
,
1001
0000
1001
0000
0110
0000
1001
0000
0001
0010
0000
0010
1000
0000
1001
0000
,
0110
0000
1001
0000
1001
0000
0000
0001
0100
0000
1001
0000
1001
0000
1001
0000
,
0110
0000
0000
1000
0001
0000
0110
0000
1001
0000
1001
0000
0110
0000
1001
0000
,
0110
0000
1001
0000
1001
0000
0000
0001
0010
0000
1001
0000
1001
0000
0110
0000
,
2000
0000
0000
0000
0000
0000
0000
0000
0000
3000
1001
0000
0110
0000
1001
0000
,
1001
0000
1001
0000
0110
0000
0000
1000
0001
0000
1001
0000
0110
0000
1001
0000
,
1001
0000
0000
0100
0001
0000
1001
0000
0110
0000
1001
0000
0110
0000
1001
0000
,
1001
0000
1001
0000
0110
0000
0000
0001
0101
0000
0000
0000
1001
0000
0000
0000
,
1010
0000
0000
0001
0101
0000
1001
0000
1001
0000
0110
0000
1001
0000
1001
0000
,
0110
0000
1001
0000
1001
0000
0000
0001
1010
0000
1001
0000
1001
0000
1001
0000
,
1001
0000
0110
0000
1001
0000
0000
0010
1010
0000
1001
0000
1001
0000
0000
0000
,
1100
0000
0000
0000
1001
0000
0000
0100
1000
0000
1001
0000
0110
0000
1001
0000
,
0110
0000
0000
0000
1010
0000
0000
0001
0101
0000
1001
0000
1001
0000
0110
0000
,
1001
0000
1001
0000
0110
0000
0000
0010
0001
0000
0110
0000
1001
0000
0110
0000
,
1001
0000
0000
0010
1000
0000
1001
0000
0110
0000
1001
0000
1001
0000
0110
0000
,
1001
0000
0001
0100
0000
0010
0100
0000
1001
0000
1000
0010
0000
0001
1000
0000
,
0110
0000
0001
1000
0000
0100
0001
0000
1001
0000
0110
0000
1001
0000
1001
0000
,
0110
0000
0000
0000
0000
0000
0000
0000
0000
0001
0000
0000
1000
0000
0000
0000
0000
0000
0110
0000
0000
0000
0000
0000
0001
0000
0010
0000
0100
0000
1000
0000
0001
0000
0010
0000
0100
0000
1000
0000
0001
0000
0010
0000
0100
0000
1000
0000
,
1001
0000
0000
0000
0000
0000
0000
0000
0000
0100
0000
0000
0001
0000
0000
0000
0000
0000
1001
0000
0000
0000
0000
0000
0010
0000
1000
0000
0010
0000
1000
0000
0010
0000
1000
0000
0100
0000
0010
0000
0001
0000
0010
0000
0100
0000
0010
0000
,
0110
0000
0000
0000
0000
0000
0000
0000
0000
1000
0000
0000
0001
0000
0000
0000
0000
0000
1001
0000
0000
0000
0000
0000
0010
0000
0100
0000
0010
0000
1000
0000
0100
0000
0010
0000
0001
0000
0010
0000
0100
0000
1000
0000
0100
0000
0010
0000
,
0110
1001
1001
0110
1001
0110
1001
1001
,
1001
0000
0000
0000
0000
0000
0000
0000
0000
1000
0000
0000
0100
0000
0000
0000
0000
0000
1001
0000
0000
0000
0000
0000
1000
0000
0100
0000
0010
0000
0001
0000
0100
0000
0010
0000
1000
0000
0100
0000
0010
0000
0001
0000
0100
0000
0010
0000
,
0110
0000
0000
0000
0000
0000
0000
0000
0000
0001
0000
0000
1000
0000
0000
0000
0000
0000
0110
0000
0000
0000
0000
0000
0001
0000
0010
0000
0001
0000
0010
0000
0001
0000
0010
0000
0100
0000
1000
0000
0100
0000
1000
0000
0100
0000
0010
0000
,
0001
0000
0000
0010
0001
0000
1001
0000
0110
0000
1001
0000
1001
0000
0110
0000
,
1001
0000
0000
1000
0100
0000
1001
0000
1001
0000
0110
0000
0011
0000
0000
0000
,
0110
0000
0000
0000
1001
0000
0000
0100
0101
0000
1001
0000
1001
0000
0000
0000
,
1010
0000
0000
0001
1001
0000
0110
0000
0101
0000
0000
0000
1010
0000
1001
0000
,
1001
0000
0000
0000
1001
0000
0000
0100
0101
0000
1001
0000
1010
0000
1001
0000
,
1001
0000
0000
0000
0000
0110
0110
0110
,
1001
0000
0000
0000
0101
0000
0000
0100
0101
0000
1001
0000
1010
0000
0000
0000
,
1001
0000
0000
0001
1001
0000
0110
0000
0101
0000
0000
0000
1010
0000
1001
0000
,
1001
0000
0000
0000
0101
0000
0000
0001
1001
0000
0000
0000
0101
0000
0000
0000
,
1010
0000
0000
0001
1001
0000
0110
0000
0101
0000
1001
0000
1010
0000
1001
0000
,
1001
0000
0000
0000
0101
0000
0000
0100
1100
0000
1001
0000
0011
0000
0000
0000
,
1010
0000
0000
0000
1001
0000
0000
0001
1000
0000
0110
0000
0101
0000
0000
0000
,
1010
0000
0000
0000
1001
0000
0000
0100
0001
0000
1010
0000
0011
0000
0000
0000
,
1001
0000
0000
0000
0101
0000
0000
1000
0010
0000
1001
0000
0101
0000
1010
0000
,
0101
0000
0000
0000
1010
0000
0000
0001
1001
0000
0110
0000
0101
0000
0000
0000
,
1010
0000
0000
0001
1001
0000
0110
0000
0101
0000
1001
0000
0011
0000
1001
0000
,
1100
0000
0100
0001
0000
1000
0010
0000
1001
0000
0100
0001
0000
1000
0010
0000
,
1001
0000
0100
0001
0000
1000
0010
0000
1010
0000
1001
0000
1001
0000
0110
0000
,
0101
0000
0000
0000
1010
0000
0000
0000
0001
1000
0000
1000
0100
0000
1001
0000
,
0101
0000
0000
0000
;

//---------------dance-single - ----------------
#NOTES:
     dance-single:
     :
     Hard:
     10:
     0.502,0.558,0.614,0.052,0.252,385.000,83.000,7.000,0.000,0.000:
1001
0000
0000
0000
1100
0000
0000
0000
0100
0010
0000
0010
1000
0000
0100
0000
,
1000
0000
0000
0000
0100
0000
0000
0010
0001
0000
0100
0000
0010
0000
0000
0000
,
1000
0000
0000
0100
0010
0000
0001
0000
0100
0000
0000
0000
0001
0000
0010
0000
,
0001
0000
0000
0000
0100
0000
0000
0010
1000
0000
0100
0000
0010
0000
0001
0000
,
0200
0000
0000
0000
0000
0000
0000
0000
0000
0300
0010
0000
1000
0000
0100
0000
,
0010
0000
0000
0000
0001
0000
0000
0100
0010
0000
0010
0000
0001
0000
0000
0000
,
0100
0000
0000
0001
0010
0000
0100
0000
1000
0000
0000
0000
1000
0000
0010
0000
,
0100
0000
0000
0000
0001
0000
0000
0010
0011
0000
0000
0000
0110
0000
0000
0000
,
1100
0000
0000
0010
0011
0000
0100
0000
0010
0000
1000
0000
0100
0000
0010
0000
,
0001
0000
0000
0000
0100
0000
0000
0010
1100
0000
0010
0000
0100
0000
0000
0000
,
0100
0000
0000
0000
0010
0000
0000
1000
1100
0000
0010
0000
0010
0000
0000
0000
,
0101
0000
0000
0000
0010
0000
0000
0001
0100
0000
0010
0000
1000
0000
0000
0000
,
1000
0000
0000
0000
1100
0000
0000
0010
0011
0000
0100
0000
0010
0000
1000
0000
,
0100
0000
0000
0000
0001
0000
0000
1000
0010
0000
0001
0000
0100
0000
0000
0000
,
0010
0000
0000
1000
0100
0000
0010
0000
0001
0000
0100
0000
0010
0000
1000
0000
,
0100
0000
0010
0001
0000
1000
0001
0000
0100
0000
0100
1000
0000
0010
0100
0000
,
0010
0000
0000
0000
1000
0000
0000
0000
0100
0001
0000
0001
0010
0000
0100
0000
,
0001
0000
0000
0000
0010
0000
0000
0100
1000
0000
0010
0000
0100
0000
0000
0000
,
0001
0000
0000
0010
0100
0000
1000
0000
0010
0000
0000
0000
1000
0000
0100
0000
,
1000
0000
0000
0000
0010
0000
0000
0100
0001
0000
0010
0000
0100
0000
1000
0000
,
0020
0000
0000
0000
0000
0000
0000
0000
0000
0030
0100
0000
0001
0000
0010
0000
,
0100
0000
0000
0000
1000
0000
0000
0010
0100
0000
0100
0000
1000
0000
0000
0000
,
0010
0000
0000
1000
0100
0000
0010
0000
0001
0000
0000
0000
0001
0000
0100
0000
,
0010
0000
0000
0000
1000
0000
0000
0100
1100
0000
0000
0000
0110
0000
0000
0000
,
0011
0000
0000
0100
1100
0000
0010
0000
0100
0000
0001
0000
0010
0000
0100
0000
,
1000
0000
0000
0000
0010
0000
0000
0100
0011
0000
0100
0000
0010
0000
0000
0000
,
0010
0000
0000
0000
0100
0000
0000
0001
0011
0000
0100
0000
0100
0000
0000
0000
,
1010
0000
0000
0000
0100
0000
0000
1000
0010
0000
0100
0000
0001
0000
0000
0000
,
0001
0000
0000
0000
0011
0000
0000
0100
1100
0000
0010
0000
0100
0000
0001
0000
,
0010
0000
0000
0000
1000
0000
0000
0001
0100
0000
1000
0000
0010
0000
0000
0000
,
0100
0000
0000
0001
0010
0000
0100
0000
1000
0000
0010
0000
0100
0000
0001
0000
,
0010
0000
0100
1000
0000
0001
1000
0000
0010
0000
0010
0001
0000
0100
0010
0000
,
0001
0000
0100
0010
0000
1000
0100
0000
0010
0000
0001
0000
0010
0000
0100
0000
,
1000
0000
0000
0100
0010
0000
0001
0000
0200
0000
0000
0000
0000
0000
0000
0300
,
0010
0000
0000
1000
0100
0000
0010
0000
0002
0000
0000
0000
0000
0000
0000
0003
,
1000
0000
0000
0010
0100
0000
0010
0000
0200
0000
0000
0000
0000
0000
0000
0300
,
1000
0100
0010
0001
0010
0001
0010
0100
,
0100
0000
0000
0010
1000
0000
0100
0000
0020
0000
0000
0000
0000
0000
0000
0030
,
0001
0000
0000
0100
0010
0000
1000
0000
0200
0000
0000
0000
0000
0000
0000
0000
,
0310
0000
0000
0001
0100
0000
0010
0000
1000
0000
0100
0000
0010
0000
0001
0000
,
0100
0000
0000
0010
1000
0000
0100
0000
0010
0000
0001
0000
0101
0000
0000
0000
,
1001
0000
0000
0000
0110
0000
0000
1000
1100
0000
0100
0000
0110
0000
0000
0000
,
0011
0000
0000
0100
0110
0000
1000
0000
1100
0000
0000
0000
0011
0000
0010
0000
,
0110
0000
0000
0000
0110
0000
0000
1000
1100
0000
0010
0000
0011
0000
0100
0000
,
0110
0000
0000
0000
0000
1000
1001
1000
,
0110
0000
0000
0000
1100
0000
0000
1000
1100
0000
0010
0000
0011
0000
0000
0000
,
0110
0000
0000
0100
0110
0000
1000
0000
1100
0000
0000
0000
0011
0000
0100
0000
,
0110
0000
0000
0000
1100
0000
0000
0100
0110
0000
0000
0000
1100
0000
0000
0000
,
0011
0000
0000
0100
0110
0000
1000
0000
1100
0000
0010
0000
0011
0000
0100
0000
,
0110
0000
0000
0000
1100
0000
0000
1000
1010
0000
0100
0000
0101
0000
0000
0000
,
0011
0000
0000
0000
0110
0000
0000
0100
0010
0000
1000
0000
1100
0000
0000
0000
,
0011
0000
0000
0000
0110
0000
0000
1000
0100
0000
0011
0000
0101
0000
0000
0000
,
0110
0000
0000
0000
1100
0000
0000
0010
0001
0000
0110
0000
1100
0000
0011
0000
,
1100
0000
0000
0000
0011
0000
0000
0100
0110
0000
1000
0000
1100
0000
0000
0000
,
0011
0000
0000
0100
0110
0000
1000
0000
1100
0000
0010
0000
0101
0000
0100
0000
,
1010
0000
1000
0100
0000
0010
0001
0000
0110
0000
1000
0100
0000
0010
0001
0000
,
0110
0000
1000
0100
0000
0010
0001
0000
0011
0000
0100
0000
0110
0000
1000
0000
,
1100
0000
0000
0000
0011
0000
0000
0000
0100
0010
0000
0010
1000
0000
0100
0000
,
1100
0000
0000
0000
;

//---------------dance-single - ----------------
#NOTES:
     dance-single:
     :
     Medium:
     7:
     0.309,0.300,0.000,0.052,0.126,285.000,0.000,7.000,0.000,0.000:
0001
0000
1000
0000
1000
0010
0100
1000
,
0100
0000
0000
0000
1000
0000
0000
0010
0001
0000
0000
0000
0010
0000
0000
0000
,
0100
0000
0000
1000
0010
0000
0000
0000
1000
0000
0000
0000
0001
0000
0000
0000
,
0001
0000
0000
0000
1000
0000
0000
0010
0100
0000
0000
0000
0010
0000
0001
0000
,
2000
0000
0000
3100
,
0010
0000
0000
0000
0001
0000
0000
1000
0010
0000
0000
0000
0001
0000
0000
0000
,
1000
0000
0000
0001
0010
0000
0000
0000
0100
0000
0000
0000
0100
0000
0000
0000
,
1000
0001
0001
0010
,
1000
0000
0000
0010
0001
0000
1000
0000
0010
0000
0000
0000
1000
0000
0010
0000
,
0001
0000
0000
0000
1000
0000
0000
0010
1000
0000
0000
0000
1000
0000
0000
0000
,
1000
0000
0000
0000
0010
0000
0000
0100
1000
0000
0000
0000
0010
0000
0000
0000
,
0001
0000
0000
0000
0010
0000
0000
0001
1000
0000
0000
0000
0100
0000
0000
0000
,
0100
0000
0000
0000
1000
0000
0000
0010
0001
0000
0000
0000
0010
0000
0100
0000
,
1000
0000
0000
0000
0001
0000
0000
0100
0010
0000
0000
0000
1000
0000
0000
0000
,
0010
0000
0000
0100
1000
0000
0010
0000
0001
0000
0000
0000
0010
0000
0100
0000
,
1000
0000
0000
0001
0000
0000
0001
0000
1000
0000
0000
0100
0000
0000
1000
0000
,
0010
0000
0100
0000
1000
0001
0010
0000
,
1000
0000
0000
0000
0001
0000
0000
0100
0010
0000
0000
0000
0100
0000
0000
0000
,
1000
0000
0000
0001
0100
0000
0000
0000
0001
0000
0000
0000
0010
0000
0000
0000
,
0010
0000
0000
0000
0001
0000
0000
0100
1000
0000
0000
0000
0100
0000
0010
0000
,
0002
0000
0000
1003
,
0100
0000
0000
0000
0010
0000
0000
0001
0100
0000
0000
0000
0010
0000
0000
0000
,
0001
0000
0000
0010
0100
0000
0000
0000
1000
0000
0000
0000
1000
0000
0000
0000
,
0001
0010
0010
0100
,
0001
0000
0000
0100
0010
0000
0001
0000
0100
0000
0000
0000
0001
0000
0100
0000
,
0010
0000
0000
0000
0001
0000
0000
0100
0001
0000
0000
0000
0001
0000
0000
0000
,
0001
0000
0000
0000
0100
0000
0000
1000
0001
0000
0000
0000
0100
0000
0000
0000
,
0010
0000
0000
0000
0100
0000
0000
0010
0001
0000
0000
0000
1000
0000
0000
0000
,
1000
0000
0000
0000
0001
0000
0000
0100
0010
0000
0000
0000
0100
0000
1000
0000
,
0001
0000
0000
0000
0010
0000
0000
1000
0100
0000
0000
0000
0001
0000
0000
0000
,
0100
0000
0000
1000
0001
0000
0100
0000
0010
0000
0000
0000
0100
0000
1000
0000
,
0001
0000
0000
0010
0000
0000
0010
0000
0001
0000
0000
1000
0000
0000
0001
0000
,
0100
0000
1000
0000
0001
0010
0100
0001
,
1000
0000
0000
0000
0010
0000
0000
0000
2000
0000
0000
0000
0000
0000
0000
3000
,
0010
0000
0000
0000
1000
0000
0000
0000
0002
0000
0000
0000
0000
0000
0000
0003
,
0100
0000
0000
0000
1000
0000
0000
0000
2000
0000
0000
0000
0000
0000
0000
3000
,
0100
0010
0010
0010
,
1000
0000
0000
0000
0100
0000
0000
0000
0020
0000
0000
0000
0000
0000
0000
0030
,
0001
0010
2000
0000
,
3001
0000
0000
0100
1000
0000
0000
0000
0100
0000
1000
0000
0010
0000
0000
0000
,
1000
0000
0000
0010
0100
0000
0000
0000
0010
0000
0001
0000
0010
0000
0000
0000
,
0001
0010
1000
0010
,
0001
0010
1000
0001
,
0010
0000
0010
0000
1000
0000
0001
1000
,
0010
0000
0000
0000
0000
0000
0001
0100
,
0010
1000
1000
0001
,
0010
0010
1000
0001
,
0010
0000
0000
0000
1000
0000
0000
1000
0010
0000
0000
0000
1000
0000
0000
0000
,
0001
0000
0010
0100
1000
0000
0001
1000
,
0010
1000
0010
0001
,
0001
0010
0010
1000
,
0001
0010
1000
0001
,
0010
0000
1000
0000
0001
0000
1000
0001
,
1000
0001
0010
1000
,
0001
0000
0010
0100
1000
0000
0001
1000
,
0010
0000
0000
1000
0000
0000
0001
0000
0010
0000
0000
1000
0000
0000
0001
0000
,
0010
0000
0000
1000
0000
0000
0001
0000
0100
0000
1000
0000
0010
0000
0000
0000
,
1000
0000
0001
0000
1000
0010
0100
1000
,
0001
0000
0000
0000
;

//---------------dance-single - ----------------
#NOTES:
     dance-single:
     :
     Easy:
     4:
     0.235,0.193,0.000,0.052,0.000,215.000,0.000,7.000,0.000,0.000:
0010
0001
0001
0100
,
0100
0001
0010
1000
,
0100
1000
0001
0010
,
0010
0001
0100
1000
,
0002
0000
0000
0103
,
1000
0010
1000
0010
,
0001
1000
0100
0100
,
0001
0010
0010
1000
,
0001
0010
1000
0001
,
0010
0001
0001
0001
,
0001
1000
0001
1000
,
0010
1000
0001
0100
,
0100
0001
0010
1000
,
0001
0010
1000
0001
,
1000
0001
0010
1000
,
0001
0000
0001
0000
,
1000
0100
0001
1000
,
0001
0010
1000
0100
,
0001
0100
0010
1000
,
1000
0010
0001
0100
,
0020
0000
0000
0031
,
0100
1000
0100
1000
,
0010
0100
0001
0001
,
0010
1000
1000
0100
,
0010
1000
0100
0010
,
1000
0010
0010
0010
,
0010
0100
0010
0100
,
1000
0100
0010
0001
,
0001
0010
1000
0100
,
0010
1000
0100
0010
,
0100
0010
1000
0100
,
0010
0000
0010
0000
,
0100
0001
0010
0100
,
0001
0000
0000
0000
1000
0000
0000
0000
0002
0000
0000
0000
0000
0000
0000
0003
,
1000
0000
0000
0000
0001
0000
0000
0000
0020
0000
0000
0000
0000
0000
0000
0030
,
0100
0000
0000
0000
0001
0000
0000
0000
0002
0000
0000
0000
0000
0000
0000
0003
,
0100
1000
1000
1000
,
0001
0000
0000
0000
0100
0000
0000
0000
2000
0000
0000
0000
0000
0000
0000
3000
,
0010
1000
0002
0000
,
0013
0001
0100
1000
,
0001
0100
1000
1000
,
0010
1000
0001
1000
,
0010
1000
0001
0010
,
1000
1000
0001
0010
,
1000
0000
0000
0010
,
1000
0001
0001
0010
,
1000
1000
0001
0010
,
1000
0001
1000
0001
,
0010
1000
0001
0010
,
1000
0001
1000
0010
,
0010
1000
1000
0001
,
0010
1000
0001
0010
,
1000
0001
0010
0001
,
0001
0010
1000
0001
,
0010
1000
0001
0010
,
1000
0000
1000
0000
,
1000
0000
0100
1000
,
0001
0010
0001
0100
,
0010
0000
0000
0000
;
