#TITLE:Thru Our Scars;
#SUBTITLE:if u 98 this u have no friends sry;
#ARTIST:Fleshgod Apocalypse;
#TITLETRANSLIT:;
#SUBTITLETRANSLIT:;
#ARTISTTRANSLIT:;
#CREDIT:;
#BANNER:../bn.png;
#BACKGROUND:../bg.png;
#LYRICSPATH:;
#CDTITLE:;
#MUSIC:Thru Our Scars.ogg;
#OFFSET:1.672;
#SAMPLESTART:104.787;
#SAMPLELENGTH:27.611;
#SELECTABLE:YES;
#BPMS:0.000=140.000;
#STOPS:;
#BGCHANGES:;
// cache tags:
#FIRSTBEAT:4.000;
#LASTBEAT:774.500;
#SONGFILENAME:Songs/Cirque du Zonda/Zaia - Thru Our Scars/Thru Our Scars.sm;
#HASMUSIC:1;
#HASBANNER:1;
#MUSICLENGTH:331.075;
// end cache tags

//---------------dance-single - Zaia - 17.9----------------
#NOTES:
     dance-single:
     Zaia - 17.9:
     Challenge:
     17:
     1.000,1.000,0.091,0.027,1.000,3757.000,30.000,9.000,0.000,0.000:
0000
0000
0000
0000
,
1000
0001
1000
0002
0000
0000
0203
0000
0000
0320
0000
0000
2030
0000
0000
3001
0010
0100
0010
0001
1000
0001
0010
0100
,
1000
0000
0000
0000
,
0000
0000
0000
0000
,
0000
0000
0000
1000
0000
0000
0001
0100
0001
0100
0010
1000
0001
1000
0100
0010
0100
1000
0001
0010
0001
1000
0001
0100
,
0010
1000
0001
1000
0000
0000
0001
1000
0100
1000
0100
0010
0001
1000
0001
0100
0000
0000
0010
0000
0000
0100
0001
1000
,
0010
0100
0001
1000
0100
1000
0001
0010
0100
0010
0001
1000
0001
0100
0010
1000
0001
1000
0010
0100
0001
1000
0001
1000
,
0100
0000
0010
0000
0100
0000
1000
0000
0001
0000
1000
0000
0010
0000
0000
0000
0000
0000
0100
0000
0001
0000
1000
0000
0001
0000
1000
0000
0001
0000
0010
0000
0000
0100
0000
0000
1000
0000
0000
0010
0000
0000
0100
0000
0000
0001
0000
0000
,
0010
0000
0000
0100
0000
0000
1000
0000
0000
0000
0000
0000
0001
0000
0100
0000
0010
0000
0100
0000
0001
0000
1000
0000
0010
0000
0100
0000
0001
0000
1000
0000
0001
0000
0010
0000
0100
0000
1000
0000
0001
0000
0010
0000
0001
0000
0010
0000
,
0100
0000
1000
0000
0001
0000
0010
0000
0000
0000
0000
0000
0100
0000
0000
1000
0000
0000
0010
0000
0000
0100
0000
0000
0010
0000
0000
1000
0000
0000
0010
0000
0000
0100
0000
0000
0001
0000
0000
0010
0000
0000
0100
0000
0000
0010
0000
0000
,
0001
0000
0000
0010
0000
0000
0100
0000
0000
1000
0000
0000
0010
0000
0000
0000
0000
0000
0100
0000
0001
0000
1000
0000
0010
0000
1000
0000
0010
0000
0100
0000
0000
0000
0000
0000
0001
0000
1000
0000
0100
0000
0010
0000
0001
0000
1000
0000
,
0001
0000
0010
0000
0100
0000
1000
0000
0000
0000
0000
0000
0001
0000
1000
0000
0010
0000
0100
0000
0001
0000
0100
0000
0001
0000
1000
0000
0010
0000
0100
0000
0000
0000
0000
0000
0000
0000
0000
0101
0000
0000
0000
0000
0000
0000
0000
0000
,
1001
0000
0000
1000
0000
0000
0001
0010
0001
0010
0100
1000
0001
1000
0010
0100
0010
1000
0001
0100
0001
1000
0001
0010
,
0100
0000
1000
0000
0001
0000
1000
0000
0000
0000
0000
0000
0001
0000
1000
0000
0010
0000
1000
0000
0010
0000
0100
0000
0001
0000
1000
0000
0001
0000
0010
0000
0000
0000
0000
0000
0002
0003
0000
0000
0000
0000
2000
3000
0000
0000
0000
0000
,
0020
0030
0000
0000
0000
0000
0100
0000
0001
0000
1000
0000
0010
0000
1000
0000
0001
0000
0100
0000
0001
0000
0100
0000
0010
0000
1000
0000
0001
0000
1000
0000
0100
0000
0010
0000
0001
0000
1000
0000
0100
0000
1000
0000
0001
0000
0100
0000
,
0010
0000
1000
0000
0001
0000
1000
0000
0001
0000
0100
0000
0010
0000
0000
0000
0000
0000
0100
0000
0001
0000
1000
0000
0001
0000
1000
0000
0001
0000
0010
0000
0000
0100
0000
0000
1000
0000
0000
0001
0000
0000
0100
0000
0000
0010
0000
0000
,
1000
0000
0000
0001
0000
0000
0100
0000
0000
0000
0000
0000
0010
0000
1000
0000
0001
0000
1000
0000
0100
0000
1000
0000
0001
0000
0010
0000
0100
0000
1000
0000
0100
0000
1000
0000
0001
0000
0010
0000
0100
0000
0010
0000
0001
0000
1000
0000
,
0001
0000
0100
0000
0010
0000
1000
0000
0000
0000
0000
0000
0001
0000
0000
0100
0000
0000
0001
0000
0000
0010
0000
0000
0001
0000
0000
1000
0000
0000
0100
0000
0000
1000
0000
0000
0010
0000
0000
1000
0000
0000
0001
0000
0100
0000
0010
0000
,
1000
0000
0010
0000
0100
0000
0001
0000
0000
0010
0000
0000
0100
0000
0000
1000
0000
0000
0010
0000
0000
0100
0000
0000
0001
0000
0010
0000
0100
0000
1000
0000
0000
0010
0000
0000
0100
0000
0000
0001
0000
0000
0010
0000
0100
0000
1000
0000
,
0001
0000
1000
0000
0001
0000
0100
0000
0000
0010
0000
0000
1000
0000
0000
0001
0000
0000
1000
0000
0000
0010
0000
0000
0100
0000
0000
0001
0000
0000
1000
0000
0000
0000
0000
0000
0100
0000
0000
0000
0000
0000
0010
0000
0000
0000
0000
0000
,
0110
1100
1000
1001
0001
0101
0001
0011
,
0001
0000
0000
1001
0000
0000
0001
0100
0001
0100
0000
0000
0010
0000
0000
1010
0000
0000
1000
0000
0000
0001
0000
0000
,
0011
0110
0100
1000
0001
0100
0001
1000
,
0010
1000
0010
1000
0000
0000
1001
0000
0000
0110
0000
0000
1001
0000
0000
0000
0000
0000
0000
0000
0000
0000
0000
0000
,
0000
0000
0000
0001
0010
0001
1000
0100
0010
0100
1000
0001
0010
0001
1000
0010
1000
0001
0100
0010
1000
0001
1000
0010
,
1000
0001
0010
0001
0010
0100
0010
0001
1000
0100
0010
0001
1000
0010
1000
0001
0000
0000
1000
0001
0100
0010
0000
0000
,
1000
0000
0000
0001
0010
0100
0010
0001
1000
0010
0100
0010
1000
0001
0100
0010
0100
0010
1000
0001
0100
0010
1000
0010
,
0100
0000
0010
0000
1000
0000
0001
0000
0000
0010
0000
0000
0001
0000
0000
1000
0000
0000
0010
0000
0000
1000
0000
0000
0001
0000
0000
0010
0000
0000
0001
0000
0000
1000
0000
0000
0010
0000
0000
0000
0000
0000
1000
0000
0001
0000
0010
0000
,
0100
0000
0000
1000
0001
1000
0010
0100
0001
0100
0010
1000
0001
1000
0100
0010
0100
1000
0001
0010
0001
0010
0100
1000
,
0001
1000
0001
0100
0010
0100
0001
1000
0001
0100
0010
1000
0001
1000
0100
0010
0001
0010
0001
1000
0010
0100
0000
0000
,
0001
0000
0000
1000
0100
0010
0001
1000
0001
0100
0001
1000
0100
1000
0001
0100
0010
0100
0001
1000
0001
0010
0100
1000
,
0100
0010
0100
1000
0000
0000
0001
0100
0010
0100
0001
1000
0010
0100
0001
1000
0001
0100
0001
0100
0010
1000
0001
1000
,
0100
0010
0100
1000
0001
0010
0100
1000
0001
0010
0001
0010
0100
1000
0100
1000
0001
0010
0100
0000
0000
1000
0100
0010
,
0001
0000
0000
1000
0010
0100
0001
1000
0001
0100
0001
1000
0010
1000
0010
0100
0001
1000
0100
1000
0001
0010
0100
1000
,
0001
1000
0010
0100
0001
1000
0010
0100
0010
0100
0001
1000
0001
1000
0100
0010
0100
0010
0001
1000
0001
1000
0010
0100
,
0010
0100
0001
1000
0000
0000
0100
0010
0001
0010
0100
1000
0001
1000
0100
0010
0100
1000
0100
1000
0001
0010
0100
1000
,
0001
0100
0010
1000
0001
0100
0010
0100
0001
1000
0010
0100
0001
0100
0001
1000
0010
0100
0001
0000
0000
0100
0001
1000
,
0001
1000
0001
0010
0100
0010
0001
1000
0100
1000
0100
0010
0001
1000
0001
0100
0001
1000
0100
1000
0001
0100
0010
1000
,
0001
1000
0100
0010
0000
0000
0011
0000
0000
1001
0000
0000
1000
0000
0000
0100
0000
0000
0010
0100
1000
0001
1000
0100
,
0010
0001
1000
0001
1000
0010
1000
0010
0100
0001
1000
0010
1000
0001
0100
0001
1000
0100
0010
0100
1000
0001
0010
0100
,
1000
0001
1000
0010
0100
0001
1000
0000
0000
0001
0100
0001
0100
0001
0100
0010
1000
0001
1000
0010
1000
0001
0100
0001
,
1000
0100
0010
0001
1000
0100
0010
0100
1000
0001
1000
0001
0100
0001
0100
0010
1000
0001
1000
0010
0100
0001
1000
0010
,
1000
0000
0001
0000
1000
0000
0010
0000
0100
0000
0010
0000
0100
0000
0010
0000
0100
0000
0001
0000
0100
0000
0001
0000
1000
0000
0000
0000
0000
0000
0100
0000
0000
0000
0000
0000
0010
0000
0000
0100
0000
0000
1000
0000
0000
0001
0000
0000
,
0010
0001
1000
0001
0100
0010
1000
0001
1000
0100
1000
0001
0010
0001
0100
0001
,
1000
0000
0000
0001
0000
0000
0010
0000
0000
0000
0000
0000
0100
0000
1000
0000
0001
0000
0100
0000
0000
0000
0000
0000
0010
0000
1000
0000
0001
0000
0010
0000
0100
0000
1000
0000
0100
0000
1000
0000
0001
0000
0010
0000
0001
0000
1000
0000
,
0001
1000
0010
0100
0010
1000
0001
1000
0010
0100
0001
1000
0100
0010
0001
1000
0000
0000
0001
0000
0000
1000
0000
0000
,
0100
0000
0000
0010
0000
0000
0100
0000
0000
1000
0000
0000
0001
0000
0000
1000
0001
0010
0001
0010
0100
1000
0001
1000
,
0100
0010
0100
1000
0001
1000
0010
0100
0001
1000
0001
0100
0010
1000
0010
1000
0001
0010
0100
1000
0001
0010
0100
0010
,
0001
1000
0001
0100
0000
0000
0010
1000
0001
1000
0000
0000
0001
0000
0000
0010
0100
1000
0100
0010
0001
1000
0001
0100
,
0001
0000
1000
0000
0100
0000
0010
0000
0100
0000
1000
0000
0001
0000
0000
0000
0000
0000
0100
0000
0010
0000
1000
0000
0010
0000
0000
0000
0000
0000
0100
0000
0000
0001
0000
0000
0100
0000
0000
0001
0000
0000
1000
0000
0000
0010
0000
0000
,
0100
0000
0000
0001
0000
0000
1000
0000
0000
0010
0000
0000
1000
0000
0000
0000
0000
0000
0001
0000
1000
0000
0001
0000
0100
0000
0000
0000
0000
0000
0001
0000
1000
0000
0001
0000
0100
0000
0010
0000
1000
0000
0001
0000
0100
0000
0001
0000
,
1000
0001
0010
0100
0010
0001
1000
0100
0010
0001
0010
0100
1000
0001
1000
0010
1000
0001
0100
0010
1000
0001
1000
0010
,
0100
0001
0100
0001
0000
0000
1000
0001
1000
0100
0000
0000
1000
0000
0000
0001
1000
0010
1000
0001
0100
0010
1000
0010
,
0100
0001
0100
0001
1000
0100
1000
0001
0010
0001
0010
0100
1000
0001
0010
0100
1000
0001
1000
0001
0100
0001
1000
0100
,
1000
0001
1000
0010
0100
0001
1000
0100
0010
0100
1000
0001
0010
0100
1000
0001
1000
0001
0100
0010
0100
0001
1000
0010
,
1000
0010
0100
0001
1000
0100
1000
0001
0010
0001
1000
0100
0010
0001
0010
0100
1000
0001
1000
0010
0100
0001
0000
0000
,
1000
0000
0000
0010
0100
0001
1000
0100
0010
0001
1000
0100
1000
0001
0100
0010
0100
0001
1000
0010
0100
0001
0100
0010
,
0100
0010
1000
0001
1000
0100
0010
0100
1000
0001
1000
0100
0010
0001
0010
0001
1000
0010
1000
0010
0100
0001
1000
0001
,
1000
0001
1000
0010
0100
0001
1000
0001
0100
0010
1000
0001
1000
0001
0010
0100
0010
0001
1000
0100
1000
0001
0010
0100
,
1000
0100
1000
0001
1000
0010
0100
0001
0100
0010
1000
0001
0100
0010
1000
0001
1000
0001
0010
0100
1000
0001
0000
0000
,
1000
0000
0000
0001
0010
0100
1000
0001
1000
0100
1000
0100
0010
0100
1000
0001
1000
0010
0100
0001
0100
0001
1000
0010
,
0100
0001
0100
0010
0000
0000
0100
0000
0000
0001
0000
0000
1000
0100
1000
0100
0000
0000
1000
0000
0000
0010
0000
0000
,
1000
0000
0000
0001
0100
0001
1000
0100
0010
0001
1000
0001
0100
0010
1000
0001
0010
0001
0100
0001
1000
0010
1000
0100
,
1000
0001
0010
0100
0010
0001
1000
0001
1000
0010
0100
0001
0100
0001
0010
0001
1000
0100
1000
0100
1000
0010
1000
0001
,
0100
0010
0100
0001
1000
0010
0100
0001
1000
0001
0010
0100
1000
0001
1000
0001
0100
0001
1000
0100
1000
0001
0010
0100
,
1000
0000
0001
0000
1000
0000
0010
0000
0000
0100
0000
0000
0001
0000
0000
1000
0000
0000
0010
0000
0000
0100
0000
0000
0010
0000
0000
1000
0000
0000
0100
0000
0000
1000
0000
0000
0001
0000
0000
0010
0000
0000
0001
0000
0000
1000
0000
0000
,
0001
0000
0000
0010
0000
0000
0100
0000
1000
0000
0001
0000
1000
0000
0001
0000
0100
0000
0010
0000
1000
0000
0001
0000
0100
0000
0001
0000
0010
0000
0001
0000
1000
0000
0100
0000
0010
0000
0100
0000
1000
0000
0001
0000
1000
0000
0010
0000
,
0100
0001
1000
0001
1000
0010
1000
0100
1000
0001
0100
0010
1000
0001
0010
0001
0100
0001
1000
0010
0100
0001
1000
0001
,
0010
0100
1000
0010
0100
0001
1000
0100
1000
0010
0100
0001
1000
0100
1000
0001
0010
0001
1000
0001
0010
0100
1000
0001
,
1000
0010
0100
0010
1000
0001
0010
0100
1000
0001
1000
0010
0100
0001
1000
0001
0000
0000
0100
0000
0000
0010
0000
0000
,
0100
0000
0000
0001
1000
0001
0010
0100
1000
0001
0100
0001
0010
0100
1000
0001
1000
0010
0100
0001
1000
0010
1000
0001
,
0010
0001
1000
0001
1000
0100
0010
0100
1000
0010
0100
0001
1000
0001
0010
0100
0010
0001
1000
0010
0100
0010
1000
0001
,
1000
0100
0010
0001
1000
0010
1000
0100
1000
0001
0100
0010
1000
0001
1000
0100
1000
0001
0010
0001
1000
0001
1000
0010
,
0100
0000
0001
0000
0010
0000
0100
0000
0000
1000
0000
0000
0001
0000
0000
0010
0000
0000
0100
0000
0000
1000
0000
0000
0001
0000
0000
1000
0000
0000
0010
0000
0000
0100
0000
0000
0001
0000
0000
0010
0000
0000
0100
0000
0000
1000
0000
0000
,
0001
0000
0000
0100
0000
0000
0001
0000
1000
0000
0010
0000
1000
0000
0001
0000
0010
0000
0100
0000
0010
0000
0001
0000
1000
0000
0010
0000
1000
0000
0001
0000
1000
0000
0100
0000
0010
0000
0001
0000
1000
0000
0001
0000
0100
0000
0010
0000
,
0100
0001
1000
0001
0010
0100
1000
0001
1000
0001
0010
0100
0010
0001
1000
0001
0100
0010
0100
0001
1000
0010
0100
0001
,
1000
0001
1000
0100
1000
0001
1000
0010
0100
0001
1000
0001
0010
0001
1000
0010
0100
0001
1000
0001
0010
0100
1000
0010
,
0100
0000
0001
0000
1000
0000
0001
0000
0000
0100
0000
0000
0010
0000
0000
1000
0000
0000
0001
0000
0000
0010
0000
0000
0100
0000
0000
0000
0000
0000
1000
0000
0000
0000
0000
0000
0001
0000
0000
0000
0000
0000
1000
0000
0000
0000
0000
0000
,
0001
0000
0000
1000
0000
0000
0001
0010
0001
0010
0100
1000
0001
1000
0010
0100
0010
1000
0001
0100
0001
1000
0001
0010
,
0100
1000
0001
1000
0000
0000
0001
1000
0010
1000
0010
0100
0001
1000
0001
0010
0000
0000
0100
0000
0000
0010
0001
1000
,
0100
0010
0001
1000
0010
1000
0001
0100
0010
0100
0001
1000
0001
0010
0100
1000
0001
1000
0100
0010
0001
1000
0001
1000
,
0010
0000
0100
0000
0010
0000
1000
0000
0001
0000
1000
0000
0100
0000
0000
0000
0000
0000
0010
0000
0001
0000
1000
0000
0001
0000
1000
0000
0001
0000
0100
0000
0000
0010
0000
0000
1000
0000
0000
0100
0000
0000
0010
0000
0000
0001
0000
0000
,
0100
0000
0000
0010
0000
0000
1000
0000
0000
0000
0000
0000
0001
0000
0010
0000
0100
0000
0010
0000
0001
0000
1000
0000
0100
0000
0010
0000
0001
0000
1000
0000
0001
0000
0100
0000
0010
0000
1000
0000
0001
0000
0100
0000
0001
0000
0100
0000
,
0010
0000
1000
0000
0001
0000
0100
0000
0000
0000
0000
0000
0010
0000
0000
1000
0000
0000
0100
0000
0000
0010
0000
0000
0100
0000
0000
1000
0000
0000
0100
0000
0000
0010
0000
0000
0001
0000
0000
0100
0000
0000
0010
0000
0000
0100
0000
0000
,
0001
0000
0000
0100
0000
0000
0010
0000
0000
1000
0000
0000
0100
0000
0000
0000
0000
0000
0010
0000
0001
0000
1000
0000
0100
0000
1000
0000
0100
0000
0010
0000
0000
0000
0000
0000
0001
0000
1000
0000
0010
0000
0100
0000
0001
0000
1000
0000
,
0001
0000
0010
0000
0100
0000
1000
0000
0000
0000
0000
0000
0001
0000
1000
0000
0100
0000
0010
0000
0001
0000
0010
0000
0001
0000
1000
0000
0100
0000
0010
0000
0000
0000
0000
0000
0000
0000
0000
0011
0000
0000
0000
0000
0000
0000
0000
0000
,
1001
0000
0000
1000
0000
0000
0001
0100
0001
0100
0010
1000
0001
1000
0100
0010
0100
1000
0001
0010
0001
1000
0001
0100
,
0010
1000
0001
1000
0000
0000
0001
1000
0100
1000
0100
0010
0001
1000
0001
0100
0000
0000
0001
0000
0000
1000
0001
1000
,
0001
1000
0001
0010
0001
1000
0100
1000
0001
0010
0001
0010
0100
1000
0001
1000
0010
0100
0001
1000
0010
1000
0001
0010
,
0100
0000
1000
0000
0001
0000
1000
0000
0001
0000
0010
0000
0100
0000
0000
0000
0000
0000
0010
0000
0001
0000
1000
0000
0001
0000
1000
0000
0001
0000
0100
0000
0000
0010
0000
0000
1000
0000
0000
0001
0000
0000
0010
0000
0000
0100
0000
0000
,
1000
0000
0000
0001
0000
0000
0010
0000
0000
0000
0000
0000
0100
0000
1000
0000
0001
0000
1000
0000
0010
0000
1000
0000
0001
0000
0100
0000
0010
0000
1000
0000
0010
0000
1000
0000
0001
0000
0100
0000
0010
0000
0100
0000
0001
0000
1000
0000
,
0001
0000
0010
0000
0100
0000
1000
0000
0000
0000
0000
0000
0001
0000
0000
0010
0000
0000
0001
0000
0000
0100
0000
0000
0001
0000
0000
1000
0000
0000
0010
0000
0000
1000
0000
0000
0100
0000
0000
1000
0000
0000
0001
0000
0010
0000
0100
0000
,
1000
0000
0100
0000
0010
0000
0001
0000
0000
0100
0000
0000
0010
0000
0000
1000
0000
0000
0100
0000
0000
0010
0000
0000
0001
0000
0100
0000
0010
0000
1000
0000
0000
0100
0000
0000
0010
0000
0000
0001
0000
0000
0100
0000
0010
0000
1000
0000
,
0001
0000
1000
0000
0001
0000
0010
0000
0000
0100
0000
0000
1000
0000
0000
0001
0000
0000
1000
0000
0000
0100
0000
0000
0010
0000
0000
0001
0000
0000
1000
0000
0000
0010
0000
0000
1000
0000
0000
0100
0000
0000
0010
0000
0000
0001
0000
0000
,
1000
0100
1000
0010
1000
0100
0010
0001
1000
0010
1000
0100
1000
0010
0100
0001
,
1000
0010
1000
0100
1000
0010
0100
0001
1000
0001
0010
0001
0100
0010
1000
0001
,
0010
0001
0100
0001
0010
0100
1000
0001
0100
0001
0010
0001
0100
0010
1000
0001
,
0010
0000
0000
0001
0000
0000
0100
0000
0001
0000
1000
0000
0001
0000
0010
0000
0100
0000
1000
0000
0001
0000
1000
0000
0001
0000
1000
0000
0001
0000
1000
0000
0000
0000
0000
0000
0010
0000
0100
0000
0001
0000
1000
0000
0001
0000
0100
0000
,
0010
1000
0001
1000
0100
0010
0001
1000
0001
0010
0100
1000
0001
0010
0001
1000
0010
0100
0001
1000
0001
0100
0010
0100
,
0001
0000
1000
0000
0010
0000
0100
0000
0000
0000
0000
0000
0010
0000
0100
0000
0001
0000
0100
0000
0001
0000
0100
0000
0010
0000
1000
0000
0010
0000
0100
0000
0000
0000
0000
0000
0001
0000
0000
0100
0000
0000
0010
0000
0000
1000
0000
0000
,
0100
1000
0010
0100
0001
1000
0100
1000
0010
0100
0001
1000
0010
1000
0100
0010
,
0001
0000
0000
1000
0000
0000
0010
0000
0100
0000
0001
0000
1000
0000
0010
0000
0100
0000
0001
0000
1000
0000
0001
0000
1000
0000
0100
0000
0010
0000
0001
0000
0000
0000
0000
0000
1000
0000
0010
0000
1000
0000
0001
0000
0100
0000
0001
0000
,
1000
0001
0100
0010
1000
0001
1000
0100
1000
0001
0010
0100
1000
0001
1000
0010
0100
0001
0100
0001
1000
0010
0100
0001
,
1000
0000
0001
0000
0100
0000
0010
0000
0000
0000
0000
0000
1000
0000
0001
0000
0010
0000
0001
0000
0010
0000
0001
0000
0010
0000
0100
0000
1000
0000
0001
0000
0000
0000
0000
0000
1000
0000
0000
0100
0000
0000
0010
0000
0000
0001
0000
0000
,
0100
0001
0010
0100
1000
0001
0100
0001
0010
0100
1000
0001
0010
0001
0100
0010
,
1000
0000
0000
0001
0000
0000
0010
0000
0100
0000
1000
0000
0001
0000
0010
0000
0100
0000
1000
0000
0001
0000
1000
0000
0001
0000
0100
0000
0010
0000
1000
0000
0000
0000
0000
0000
0001
0000
0000
0100
0000
0000
0001
0000
0000
0010
0000
0000
,
0100
1000
0010
0100
0001
0100
0010
1000
0001
1000
0100
1000
0001
0010
0001
1000
,
0010
0000
0000
0100
0000
0000
0001
0000
0000
0000
0000
0000
1000
0000
0001
0000
0010
0000
0100
0000
0010
0000
0100
0000
1000
0000
0100
0000
0010
0000
0001
0000
0000
0000
0000
0000
1000
0000
0001
0000
0100
0000
0001
0000
1000
0000
0010
0000
,
0100
0001
0100
0001
1000
0100
0010
0001
1000
0100
0010
0100
1000
0001
1000
0001
0000
0000
0100
0000
0000
0100
0000
0000
,
0001
0000
0000
0001
0000
0000
1000
0000
0000
0010
0100
0010
0100
0000
0000
0001
0100
0001
1000
0010
0100
0010
1000
0001
,
0100
0001
1000
0100
1000
0001
0010
0100
1000
0001
1000
0100
1000
0001
0100
0001
0100
0010
0100
0001
1000
0010
0100
0001
,
1000
0100
1000
0001
0000
0000
1000
0001
0010
0100
0000
0000
1000
0000
0000
0001
0100
0010
0100
0001
1000
0100
0010
0100
,
1000
0000
0001
0000
0010
0000
0100
0000
0010
0000
0100
0000
1000
0000
0001
0000
0010
0000
0100
0000
1000
0000
0100
0000
0010
0000
0100
0000
1000
0000
0001
0000
0000
0100
0000
0000
0001
0000
0000
1000
0000
0000
0100
0000
0000
1000
0000
0000
,
0001
0000
0000
0100
0000
0000
0001
0000
0000
1000
0000
0000
0100
0000
0000
0000
0000
0000
1000
0000
0001
0000
0100
0000
0010
0000
0000
0000
0000
0000
1000
0000
0001
0000
1000
0000
0100
0000
0010
0000
0001
0000
0010
0000
0100
0000
1000
0000
,
0001
1000
0010
0100
0010
1000
0001
0100
0001
0100
0010
1000
0001
1000
0001
0010
0100
0010
0001
1000
0001
0010
0100
1000
,
0001
1000
0010
0100
0001
0100
0001
1000
0100
0010
0000
0000
0001
0000
0000
1000
0010
0100
0001
1000
0001
0010
0001
1000
,
0010
1000
0001
0010
0100
0010
0001
1000
0001
0100
0010
1000
0010
0100
0010
1000
0000
0000
0001
0010
0100
0010
0001
1000
,
0100
0010
0001
1000
0001
0010
0001
0010
0100
1000
0001
1000
0010
0100
0010
1000
0001
0100
0010
1000
0001
0100
0001
0100
,
0010
1000
0010
1000
0001
0100
0010
0000
0000
1000
0010
0100
0001
0000
0000
1000
0100
0010
0001
1000
0001
0010
0001
1000
,
0100
1000
0100
0010
0001
1000
0010
1000
0001
0100
0010
1000
0001
1000
0100
0010
0001
1000
0100
0010
0100
0010
0001
1000
,
0001
1000
0010
0100
0010
0100
0001
1000
0001
1000
0100
0010
0100
0010
0001
1000
0000
0000
0010
0100
0001
0100
0010
1000
,
0001
1000
0010
0100
0010
1000
0010
1000
0001
0100
0010
1000
0001
0010
0100
1000
0001
0010
0100
0010
0001
1000
0100
0010
,
0001
0010
0001
1000
0100
0010
0001
0000
0000
0010
0001
1000
0001
1000
0001
0100
0010
0100
0001
1000
0010
1000
0010
0100
,
0001
1000
0001
0010
0001
1000
0010
1000
0001
0010
0100
1000
0001
1000
0010
0100
0000
0000
0101
0000
0000
1001
0000
0000
,
1000
0000
0000
0010
0000
0000
0100
0010
1000
0001
1000
0010
0100
0001
1000
0001
1000
0100
1000
0100
0010
0001
1000
0100
,
1000
0001
0010
0001
1000
0010
0100
0010
1000
0001
0100
0010
1000
0001
1000
0100
0010
0001
1000
0000
0000
0001
0010
0001
,
0010
0001
0010
0100
1000
0001
1000
0100
1000
0001
0010
0001
1000
0010
0100
0001
1000
0010
0100
0010
1000
0001
1000
0001
,
0010
0001
0010
0100
1000
0001
1000
0100
0010
0001
1000
0100
1000
0001
1000
0100
0010
0100
0010
0100
0010
0001
0010
0001
,
1000
0000
0010
0000
0100
0010
1000
0001
0100
0001
1000
0001
0010
0100
1000
0001
,
1000
0000
0000
0010
0000
0000
1000
0000
0000
0001
0000
0000
0100
0000
0000
0001
0000
0000
0010
0000
0000
0001
0000
0000
1000
0000
0000
0001
0000
0000
0100
0000
0000
0000
0000
0000
0010
0000
1000
0000
0001
0000
0010
0000
0000
0000
0000
0000
,
0100
1000
0001
0100
0010
1000
0010
1000
0001
0100
0001
1000
0001
1000
0100
0010
0100
1000
0001
1000
0100
0010
0001
1000
,
0010
0100
0001
1000
0000
0000
0001
0000
0000
1000
0000
0000
0010
0000
0000
0100
0000
0000
0010
0000
0000
1000
0000
0000
,
0001
0000
1000
0100
0010
0001
1000
0001
0100
0010
1000
0001
0100
0001
1000
0100
,
1000
0001
0010
0100
1000
0001
1000
0010
0100
0001
1000
0010
1000
0001
0010
0001
,
1000
0100
0010
0100
1000
0001
0010
0100
1000
0001
1000
0010
0100
0010
1000
0001
,
0100
0010
0100
0010
1000
0010
1000
0010
0100
0001
1000
0100
1000
0100
0010
0001
,
1000
0010
0100
0001
1000
0001
0100
0001
1000
0010
0100
0001
1000
0001
0010
0100
,
1000
0010
1000
0001
0010
0100
1000
0010
1000
0001
0010
0001
1000
0001
0100
0010
,
1000
0001
0010
0001
0100
0010
1000
0001
0010
0001
1000
0001
1000
0100
1000
0001
,
0010
0100
1000
0001
1000
0001
1000
0001
1000
0001
0010
0100
0010
0100
0010
0100
,
0010
0100
1000
0100
1000
0100
1000
0100
1000
0100
0010
0001
0010
0001
0010
0001
,
0010
0001
1000
0010
1000
0010
1000
0010
1000
0010
1000
0010
1000
0010
0100
0001
,
1000
0000
0000
0010
0000
0000
0100
0000
0000
0000
0000
0000
0000
0000
0000
0001
0000
0000
0000
0000
0000
0000
0000
0000
1000
0000
0000
0000
0000
0000
0001
0000
0010
0000
0100
0000
1000
0000
0001
0000
1000
0000
0001
0000
0010
0000
0001
0000
,
1000
0100
1000
0100
0010
0100
1000
0001
0010
0100
1000
0001
1000
0010
0100
0001
1000
0001
0100
0010
0100
0001
1000
0010
,
0100
0001
1000
0001
1000
0100
0010
0100
1000
0001
1000
0010
0100
0001
0100
0010
1000
0010
1000
0001
0100
0001
1000
0001
,
1000
0100
1000
0001
0010
0100
1000
0001
1000
0100
0010
0100
1000
0001
0010
0001
1000
0010
0100
0001
1000
0001
0100
0010
,
1000
0001
1000
0001
1000
0100
0010
0001
1000
0001
1000
0100
0010
0001
1000
0010
0000
0000
0100
0000
0000
0000
0000
0000
,
0000
0000
0000
0001
0010
0001
1000
0100
0010
0100
1000
0001
0010
0001
1000
0010
1000
0001
0100
0010
1000
0001
1000
0010
,
1000
0001
0010
0001
0010
0100
0010
0001
1000
0100
0010
0001
1000
0010
1000
0001
0000
0000
1000
0001
0100
0010
0000
0000
,
1000
0000
0000
0001
0010
0100
0010
0001
1000
0010
0100
0010
1000
0001
0100
0010
0100
0010
1000
0001
0100
0010
1000
0010
,
0100
0000
0010
0000
1000
0000
0001
0000
0000
0010
0000
0000
0001
0000
0000
1000
0000
0000
0010
0000
0000
1000
0000
0000
0001
0000
0000
0010
0000
0000
0001
0000
0000
1000
0000
0000
0010
0000
0000
0000
0000
0000
1000
0000
0001
0000
0010
0000
,
0100
0000
0000
1000
0001
1000
0010
0100
0001
0100
0010
1000
0001
1000
0100
0010
0100
1000
0001
0010
0001
0010
0100
1000
,
0001
1000
0001
0100
0010
0100
0001
1000
0001
0100
0010
1000
0001
1000
0100
0010
0001
0010
0001
1000
0010
0100
0000
0000
,
0001
0000
0000
1000
0100
0010
0001
1000
0001
0100
0001
1000
0100
1000
0001
0100
0010
0100
0001
1000
0001
0010
0100
1000
,
0100
0010
0100
1000
0001
1000
0001
0100
0010
0100
0001
1000
0010
0100
0001
1000
0001
0100
0001
0100
0010
1000
0001
1000
,
0100
0010
0100
1000
0001
0010
0100
1000
0001
0010
0001
0010
0100
1000
0100
1000
0001
0010
0100
1000
0001
1000
0100
0010
,
0001
1000
0001
1000
0010
0100
0001
1000
0001
0100
0000
0000
0010
0000
0000
0100
0001
1000
0100
1000
0001
0010
0100
1000
,
0001
1000
0010
0100
0001
1000
0010
0100
0001
1000
0001
0100
0010
0100
0001
0100
0010
1000
0001
1000
0100
0010
0100
1000
,
0001
0010
0001
1000
0100
1000
0001
0000
0000
1000
0001
0100
0001
0000
0000
1000
0100
1000
0001
1000
0001
0010
0100
1000
,
0001
0100
0010
1000
0001
0100
0010
0100
0001
1000
0010
0100
0001
0100
0001
1000
0100
0010
0001
0010
0100
1000
0100
1000
,
0001
1000
0010
1000
0001
0010
0100
0000
0000
1000
0000
0000
0001
0000
0000
0100
0001
1000
0100
1000
0001
0100
0010
1000
,
0001
1000
0100
0010
0001
0010
0100
0010
0100
1000
0001
1000
0010
0000
0000
0100
0001
1000
0010
0000
0000
0100
0000
0000
,
0001
1000
0001
0100
0000
0000
0010
0000
0000
1000
0000
0000
0001
0000
0000
1000
0100
1000
0001
0100
0010
1000
0001
1000
,
0100
0010
0001
1000
0010
1000
0100
1000
0001
0010
0001
0100
0001
1000
0010
0100
0010
1000
0001
1000
0001
0010
0100
1000
,
0100
1000
0010
1000
0001
0100
0001
0100
0001
0010
0001
1000
0100
0010
0100
1000
0001
0010
0100
1000
0001
1000
0010
0100
,
0001
0000
1000
0000
0001
0000
1000
0000
0100
0000
1000
0000
0001
0000
0100
0000
0001
0000
1000
0000
0010
0000
0100
0000
0001
0000
1000
0000
0001
0000
0010
0000
0000
0100
0000
0000
1000
0000
0000
0001
0000
0000
0010
0000
0000
0100
0000
0000
,
0010
0000
0000
0001
0000
0000
0100
0000
0000
0001
0000
0000
1000
0000
0000
0010
0000
0000
1000
0000
0000
0001
0000
0000
1000
0000
0000
0010
0000
0000
0100
0000
0001
0000
1000
0000
0001
0000
1000
0000
0100
0000
0010
0000
0001
0000
1000
0000
,
0100
1000
0010
1000
0001
0100
0010
0100
0001
1000
0001
0010
0100
1000
0001
1000
0001
0010
0001
0100
0001
1000
0100
0010
,
0001
1000
0010
1000
0100
1000
0001
0010
0100
1000
0001
1000
0010
0100
0001
0010
0100
1000
0001
0100
0001
0010
0100
1000
,
0001
0100
0001
1000
0010
1000
0001
1000
0010
0100
0001
1000
0001
0010
0100
0010
0001
1000
0010
0100
0001
1000
0001
0010
,
0100
1000
0001
1000
0000
0000
0100
0000
0000
0010
0000
0000
0100
0000
0000
1000
0001
1000
0010
0100
0001
1000
0100
1000
,
0010
0100
0001
1000
0001
0010
0100
1000
0001
0010
0001
1000
0010
1000
0001
1000
0001
0100
0010
0100
0001
0010
0100
1000
,
0001
1000
0010
0100
0010
1000
0001
0010
0100
0010
0001
1000
0001
0100
0010
1000
0001
0010
0001
0100
0001
1000
0100
0010
,
0001
0000
1000
0000
0001
0000
0100
0000
0001
0000
1000
0000
0010
0000
1000
0000
0001
0000
1000
0000
0001
0000
0010
0000
0100
0000
1000
0000
0010
0000
0100
0000
0000
0001
0000
0000
1000
0000
0000
0010
0000
0000
0100
0000
0000
0001
0000
0000
,
1000
0000
0000
0001
0000
0000
0010
0000
0000
0100
0000
0000
1000
0000
0000
0010
0000
0000
0100
0000
0000
0001
0000
0000
1000
0000
0000
0100
0000
0000
1000
0000
0001
0000
0010
0000
0001
0000
1000
0000
0010
0000
0100
0000
0010
0000
1000
0000
,
0001
0010
0001
1000
0001
0100
0010
1000
0001
1000
0100
0010
0100
1000
0001
1000
0010
0100
0001
1000
0001
1000
0010
0100
,
0010
1000
0001
1000
0100
0010
0100
1000
0001
0010
0100
1000
0001
1000
0001
0100
0001
1000
0001
0010
0100
1000
0001
1000
,
0010
0000
1000
0000
0001
0000
0010
0000
0100
0000
1000
0000
0001
0000
1000
0000
0010
0000
0100
0000
0001
0000
0010
0000
0100
0000
1000
0000
0001
0000
1000
0000
0000
0100
0000
0000
0010
0000
0000
0001
0000
0000
1000
0000
0000
0010
0000
0000
,
0100
0000
0000
0001
0000
0000
1000
0000
0000
0001
0000
0000
1000
0000
0000
0001
0100
0010
0100
0001
1000
0010
0100
0010
,
1000
0001
1000
0100
0010
0100
1000
0001
0010
0100
1000
0100
1000
0001
1000
0010
0100
0001
0100
0010
1000
0001
0100
0001
,
1000
0001
0010
0100
1000
0001
0010
0001
1000
0100
0010
0001
1000
0001
1000
0010
1000
0001
0100
0001
1000
0001
0100
0010
,
0100
0000
0001
0000
1000
0000
0001
0000
0010
0000
0001
0000
0010
0000
0100
0000
1000
0000
0001
0000
0010
0000
0100
0000
0010
0000
0001
0000
1000
0000
0001
0000
0000
0100
0000
0000
0010
0000
0000
1000
0000
0000
0001
0000
0000
0100
0000
0000
,
0010
0000
0000
1000
0000
0000
0100
0000
0000
0010
0000
0000
0001
0000
0000
1000
0000
0000
0010
0000
0000
1000
0000
0000
0001
0000
0000
0000
0000
0000
0100
0000
0010
0000
0100
0000
0001
0000
1000
0000
0010
0000
1000
0000
0001
0000
0100
0000
,
0001
1000
0001
1000
0100
1000
0001
0010
0100
0010
0001
1000
0100
0010
0001
1000
0001
0100
0010
0100
0001
1000
0010
0100
,
0001
1000
0001
0010
0100
1000
0100
0010
0001
1000
0100
1000
0001
0010
0100
1000
0000
0000
0001
0000
0000
0100
0000
0000
,
0110
1010
1000
0001
0011
0110
0100
1000
,
0001
0000
0000
1000
0001
0100
0010
1000
0001
0100
0001
0100
0010
0100
0010
1000
0001
0010
0100
1000
0001
1000
0100
0010
,
0100
1000
0001
1000
0010
0100
0001
1000
0001
0100
0010
0100
0001
1000
0010
1000
0001
0010
0001
1000
0100
0010
0001
1000
,
0001
0010
0100
1000
0001
1000
0010
0100
0001
1000
0010
1000
0010
0100
0001
1000
0100
0010
0001
1000
0001
1000
0100
1000
,
0001
0000
0010
0000
0001
0000
1000
0000
0000
0100
0000
0000
0010
0000
0000
0001
0000
0000
1000
0000
0000
0001
0000
0000
1000
0000
0000
0010
0000
0000
0100
0000
0000
0001
0000
0000
1000
0000
0000
0001
0000
0000
1000
0000
0000
0000
0000
0000
,
0100
0000
0000
0010
0000
0000
0100
0000
0000
1000
0001
0010
0100
1000
0001
0100
0001
1000
0100
0010
0001
1000
0100
0010
,
0100
0000
0010
0000
0001
0000
1000
0000
0001
0000
0100
0000
0010
0000
0100
0000
0001
0000
1000
0000
0010
0000
0100
0000
0001
0000
1000
0000
0010
0000
1000
0000
0001
0000
0010
0000
0100
0000
1000
0000
0001
0000
1000
0000
0000
0100
0000
0000
,
0010
0011
0001
1000
1010
0110
0100
0001
,
1001
0110
0010
1000
2002
3003
0000
0000
;
