#TITLE:ゼルダの伝説;
#SUBTITLE:[A Link to the Past Commercial];
#ARTIST:スチャダラバー;
#TITLETRANSLIT:Zelda no Densetsu;
#SUBTITLETRANSLIT:;
#ARTISTTRANSLIT:suchadarabaa;
#CREDIT:Kewing DarkSun;
#BANNER:Legend of Zelda Commercial.png;
#BACKGROUND:Legend of Zelda Commercial-bg.png;
#LYRICSPATH:;
#CDTITLE:!Kewing DarkSun (cdtitle).png;
#MUSIC:Legend of Zelda Commercial.mp3;
#OFFSET:0.222;
#SAMPLESTART:16.946;
#SAMPLELENGTH:12.000;
#SELECTABLE:YES;
#BPMS:0.000=114.446;
#STOPS:;
#BGCHANGES:1.000=zelda_(low).avi=1.000=1=0=1,
137.000=Legend of Zelda Commercial-bg.png=1.000=0=0=1,
99999=-nosongbg-=1.000=0=0=0 // don't automatically add -songbackground-
;
// cache tags:
#FIRSTBEAT:5.000;
#LASTBEAT:136.500;
#SONGFILENAME:Songs/newbie/Legend of Zelda Commercial/Legend of Zelda Commercial.sm;
#HASMUSIC:1;
#HASBANNER:1;
#MUSICLENGTH:71.881;
// end cache tags

//---------------dance-single - ----------------
#NOTES:
     dance-single:
     :
     Challenge:
     7:
     0.451,0.451,0.459,0.070,0.125,189.000,33.000,5.000,0.000,0.000:
0000
0000
0000
0000
,
0000
2000
0000
0000
,
3100
0000
0000
0000
0000
0001
0000
0000
0000
0000
0100
0000
0000
0000
0000
1000
0000
0001
0000
0200
0000
0000
0000
0000
0000
0000
0000
0000
0000
0000
0000
0000
,
0000
0000
0000
0000
0000
0000
0300
0000
0000
1001
0000
0000
0000
0000
0000
0000
,
0000
0000
1000
0100
1000
0100
0000
0010
,
0000
0000
0001
0100
0001
0100
0000
0010
,
0000
0000
1000
0010
1000
0010
0000
0100
,
0000
0000
0001
0010
0001
0010
0000
0100
,
1001
0000
1000
1000
0000
0001
0001
1000
,
0110
0000
0000
0000
0001
0000
0010
0000
1000
0000
0010
0000
0001
0000
0100
0010
,
0100
0000
1001
1001
0000
0010
1001
1001
,
0100
0000
0000
0000
1000
0100
0000
0000
0001
0000
0100
0000
1000
0000
0001
0000
,
0200
0000
0301
1000
0200
0000
1300
0010
,
1000
0000
0001
0100
1000
0100
0001
0010
,
0001
0000
0000
0000
0001
0000
0100
0000
1000
0000
0010
0000
0001
0000
0010
0100
,
1000
0000
0000
0000
1000
0000
0100
0001
0000
0000
0010
0000
0100
0000
1000
0001
,
1000
0000
0010
0001
0100
0000
0010
1000
,
0100
0000
0100
1000
0010
0000
0100
0001
,
0010
0000
0001
0100
1000
0000
1000
0010
,
0001
0000
0001
1000
0001
0100
0010
0010
,
0010
0000
1100
0000
0101
0000
0010
0100
,
1000
0010
1000
0010
1000
0000
0001
0000
0101
0000
1000
0000
1100
0000
0000
0000
,
0010
0000
0101
0000
1100
0000
0100
0010
,
0001
0100
0001
0100
0001
0000
1000
0000
1100
0000
0001
0000
0101
0000
0000
0000
,
0100
1000
0010
0001
,
0110
0000
1000
0001
0100
0010
1000
0001
,
0101
0000
0001
0100
0010
1000
0010
0100
,
0101
0000
0000
0000
1000
0000
0100
0000
0001
0100
0001
0000
0100
0000
1000
0000
,
0010
0100
0001
0010
0100
1000
0100
0010
,
0011
0000
0100
1001
0000
0101
0000
1001
,
0000
1100
0000
1001
0000
0011
0000
1001
,
0000
1010
0000
1001
0000
0110
0000
1001
,
0000
0110
0000
1001
0000
0000
0000
0000
,
0000
0000
0000
0000
0000
0000
0000
0000
0000
0000
0000
0000
0000
0000
0000
0110
0000
0000
0000
0000
0000
0000
0000
0000
0000
0000
0000
0000
0000
0000
0000
0000
0000
0000
0000
0000
0000
0000
0000
0000
0000
0000
0000
0000
0000
0000
0001
0000
,
2000
3000
0000
0000
0000
0000
0000
0000
;
