#TITLE:Get Real;
#SUBTITLE:Feels The Arrow;
#ARTIST:Pastor Tiger;
#TITLETRANSLIT:;
#SUBTITLETRANSLIT:;
#ARTISTTRANSLIT:;
#CREDIT:Ov3rHell3XoduZ;
#BANNER:../bn.png;
#BACKGROUND:../bg.png;
#LYRICSPATH:;
#CDTITLE:;
#MUSIC:Get Real.ogg;
#OFFSET:1.310;
#SAMPLESTART:45.325;
#SAMPLELENGTH:12.000;
#SELECTABLE:YES;
#BPMS:0.000=186.040,196.000=93.020,212.000=186.040,372.000=93.020,388.000=186.040;
#STOPS:;
#BGCHANGES:;
// cache tags:
#FIRSTBEAT:4.000;
#LASTBEAT:419.500;
#SONGFILENAME:Songs/EXoduz' Feels The Arrow/Get Real - [Ov3rHell3XoduZ]/Get Real.sm;
#HASMUSIC:1;
#HASBANNER:1;
#MUSICLENGTH:144.320;
// end cache tags

//---------------dance-single - Ov3rHell3XoduZ----------------
#NOTES:
     dance-single:
     Ov3rHell3XoduZ:
     Challenge:
     10:
     0.876,0.908,0.721,0.173,0.111,756.000,104.000,25.000,4.000,0.000:

0000
0000
0000
0000
,
1000
0000
0001
0100
0001
0000
0010
0100
,
0000
1000
0010
0100
0001
0000
0010
0100
,
1000
0000
0001
0100
0001
0000
1000
0100
,
0000
1000
0100
0010
0001
1000
0100
1000
,
0010
0000
0100
0001
0010
0000
0100
1000
,
0000
0100
1000
0001
0100
0001
1000
0000
,
0100
0010
0001
1000
0001
0000
1000
0100
,
0000
0010
0001
1000
0002
0203
0320
2030
,
3002
0003
1000
0100
1000
0000
0010
0110
,
0000
0100
0101
0000
0001
0010
0100
1000
,
1001
0000
0001
0100
0101
0000
0100
0110
,
0000
0010
1000
0100
1100
0000
2002
3003
,
0202
0303
0100
0010
1010
0000
1000
1100
,
0000
0100
0110
0000
0010
0001
0100
0001
,
0110
0000
0100
1000
1010
0000
0010
0110
,
0000
0100
0101
0000
0001
1000
0001
0100
,
0101
0000
0100
0010
1010
0000
1000
1100
,
0000
0100
0110
0000
0010
0001
0100
0001
,
0011
0000
0010
0100
1100
0000
1000
1001
,
0000
0001
0101
0000
0100
0010
1000
0100
,
0110
0000
0010
0001
0101
0000
0100
0110
,
0000
0010
1010
0000
1000
0100
1000
0010
,
1010
0000
0100
0001
0011
0000
0100
1100
,
0000
1000
1010
0000
2002
3003
0202
0303
,
1010
0010
0100
0001
0011
0000
0100
1100
,
0000
1000
1010
0000
0101
0001
0010
0100
,
1100
0000
1001
0001
0101
0000
0100
0110
,
0000
0010
1010
0000
1100
0100
0010
0001
,
1001
0000
0101
0001
0011
0000
0010
0110
,
0000
0100
1100
0000
1010
0010
0100
0001
,
1001
0000
1100
0100
0110
0000
0010
0011
,
0000
0001
0101
0000
0110
0010
1000
0100
,
0110
0000
0011
0001
1001
0000
1010
0010
,
0000
0110
0100
0000
0101
0001
1000
0100
,
0110
0000
0011
0001
1001
0000
1010
0010
,
0000
0010
0110
0000
0101
0001
1000
0100
,
1100
0000
1001
0001
0101
0000
0100
0110
,
0000
0010
1010
0000
1100
0100
0010
0100
,
1100
0000
1010
0010
0110
0000
0101
0001
,
0000
0011
0010
0000
0110
0100
1000
0001
,
0101
0000
0110
0010
1010
0000
1000
1100
,
0000
0100
0110
0000
0011
0001
0100
0010
,
1010
0000
1001
0001
1001
0000
1100
0100
,
0000
1100
1000
0000
1010
0010
0100
0001
,
0011
0000
0110
0100
1100
0000
1000
1100
,
0000
0001
0101
0000
0110
0010
1000
0100
,
1010
0000
0110
0100
0101
0000
0001
0011
,
0000
0010
0110
0000
1100
1000
0001
1000
,
0001
0000
0100
0001
0010
0000
0100
1000
0000
0001
0100
0001
0020
0000
0000
0000
,
0130
0000
1000
0100
1000
0000
0001
0100
0000
0010
1000
0100
0020
0000
0032
0000
,
1003
0000
0001
0010
0100
0000
1000
0001
0000
1000
0010
0100
0002
0000
0000
0000
,
0013
0000
0100
1000
0001
0000
1000
0100
0000
0010
0001
1000
0002
0000
0203
0000
,
0310
1000
0100
1000
0001
0100
0001
0010
,
0001
1000
0100
0010
0001
1000
0010
0100
,
0010
1000
0100
0010
0001
1000
0001
0100
,
0001
0010
0100
0010
0001
1000
0100
0010
,
0100
1000
0010
0100
0010
1000
0100
0010
,
0001
1000
0001
0100
0001
1000
0100
1000
,
0010
0100
0010
1000
0100
0010
0001
1000
,
0001
0100
0001
0010
0100
1000
0010
0100
,
0010
1000
0100
0010
0001
1000
0001
0100
,
0001
1000
0100
1000
0010
0100
0010
1000
,
0100
0010
0001
1000
0001
0100
0001
0010
,
0001
1000
0100
0010
0100
1000
0010
0100
,
0010
1000
0100
0010
0001
1000
0001
0100
,
0001
0010
0001
1000
0100
0010
0001
1000
,
0001
0100
0001
1000
0010
0100
0010
1000
,
0100
1000
0001
0100
0001
0010
0100
1000
,
0010
0100
0010
1000
0100
0010
0001
1000
,
0001
0100
0001
0010
0100
1000
0010
0100
,
0010
1000
0100
0010
0001
0100
0001
0010
,
0100
1000
0001
0100
0001
1000
0100
1000
,
0010
0100
0010
1000
0100
0010
0001
1000
,
0001
0100
0001
0010
0100
1000
0010
0100
,
0010
1000
0100
0010
0001
0100
0010
0100
,
0001
0010
0100
1000
0001
0100
0001
1000
,
0010
0100
0010
1000
0100
1000
0001
0010
,
0100
0010
0001
1000
0100
0010
0001
1000
,
0001
0100
0001
1000
0010
0100
0010
1000
,
0100
1000
0001
0010
0001
1000
0100
0010
,
0001
1000
0001
0100
0001
0010
0100
1000
,
0010
0100
0010
1000
0100
1000
0001
0100
,
0001
1000
0010
0100
0010
1000
0100
0010
,
0001
1000
0001
0100
0001
0010
0001
1000
,
0100
0010
0100
1000
0001
0100
0001
1000
,
0010
1000
0001
0010
0001
1000
0100
0010
,
0001
1000
0001
0100
0001
1000
0100
1000
,
0010
0100
0010
1000
0100
0010
0001
1000
,
0001
0010
0001
1000
0100
0010
0001
1000
,
0001
0100
0001
1000
0010
1000
0100
1000
,
0001
0100
0001
0010
0100
1000
0010
0100
,
0010
1000
0100
0010
0001
1000
0001
1000
,
0001
0000
0100
0010
1000
0000
0100
0010
0000
0001
0100
0001
0020
0000
0000
0000
,
0130
0000
1000
0001
0100
0000
0010
1000
0000
0100
0010
0001
2000
0000
3020
0000
,
0130
0000
0001
0010
0100
0000
1000
0001
0000
0100
0010
1000
0200
0000
0000
0000
,
0310
0000
0001
1000
0100
0000
1000
0010
0000
0100
0001
0010
0200
0000
2300
0000
,
3001
0100
0001
0010
0100
1000
0001
1000
,
0010
0100
0001
1000
0100
1000
0010
0100
,
0010
1000
0100
0010
0001
1000
0001
0100
,
0001
0010
0100
1000
0010
0100
0010
1000
,
0100
0010
0001
1000
0001
0100
0001
0010
,
0100
0010
0001
1000
0100
0010
0001
1000
,
0001
0100
0001
0010
0100
1000
0010
0100
,
0010
1000
0100
0010
0001
1000
0001
MMMM
;
