#TITLE:Dimension Transfer;
#SUBTITLE:-Euro Mix-;
#ARTIST:Y.W;
#TITLETRANSLIT:;
#SUBTITLETRANSLIT:;
#ARTISTTRANSLIT:;
#CREDIT:;
#BANNER:dimeuro.png;
#BACKGROUND:dimeuro-bg.png;
#LYRICSPATH:;
#CDTITLE:!snapcdtitle.png;
#MUSIC:dimeuro.mp3;
#OFFSET:-1.502;
#SAMPLESTART:95.707;
#SAMPLELENGTH:10.900;
#SELECTABLE:YES;
#BPMS:0.000=168.000;
#STOPS:;
#BGCHANGES:;
// cache tags:
#FIRSTBEAT:0.000;
#LASTBEAT:330.500;
#SONGFILENAME:Songs/StepmaniaFreak's Favorites/Snap - Dimension Transfer -Euro Mix-/dimeuro.sm;
#HASMUSIC:1;
#HASBANNER:1;
#MUSICLENGTH:121.555;
// end cache tags

//---------------dance-single - ----------------
#NOTES:
     dance-single:
     :
     Hard:
     12:
     1.000,1.000,0.872,0.016,1.000,1045.000,106.000,2.000,0.000,0.000:
1000
0100
0000
0100
1000
0000
0010
0100
0000
0000
0010
0000
0110
0000
0001
0000
,
0010
0001
0000
0001
0100
0000
0100
0010
0000
0000
0001
0000
0011
0000
1000
0000
,
0010
0100
0000
0100
0010
0000
1000
0100
0000
0000
1000
0000
1100
0000
0010
0000
,
0100
0001
0000
0001
0100
0000
0010
1000
0000
0000
0010
0000
1010
0000
1000
0001
,
0100
0010
0000
1000
0100
0000
0100
0010
0000
0000
0100
0000
0110
0000
0001
0000
,
0010
0001
0000
0001
0010
0000
0100
0010
0000
0000
0001
0000
1001
0000
1000
0010
,
0100
0001
0000
0001
0010
0000
0100
0010
0000
0000
0001
0000
1001
0000
0010
0100
,
0001
0010
0000
0001
1100
0000
0010
1100
0000
0011
0100
0000
0001
1000
0010
0100
,
0011
1000
0000
0100
1001
0000
0010
0100
0000
0001
0100
0000
0011
0000
0001
0000
,
0100
0010
0000
0010
1100
0000
0001
1100
0000
0011
1000
0010
0100
0000
0100
0000
,
0001
0010
0000
0010
1001
0000
1000
0100
0000
0010
0100
0000
0011
0000
0010
0000
,
0100
1000
0000
0010
1100
0000
0001
0110
0000
0110
1000
0100
1001
0000
1000
0100
,
1001
0010
0000
0100
0011
0000
0100
0010
0000
1000
0010
0000
0110
0000
0100
0000
,
1001
0010
0000
0100
1001
0000
0010
1100
0000
0011
0100
0010
1001
0000
0001
0000
,
0011
0100
0000
0010
1001
0000
1000
0000
1001
0010
0000
1000
0110
0000
0100
0000
,
0011
0100
0000
0010
1100
0000
0001
0100
0011
1000
0100
0010
0001
0100
0010
1000
,
0001
0010
0000
0010
0001
0000
0100
0010
0000
1000
0100
0000
1000
0001
1000
0000
,
0001
0100
0000
0100
0010
0000
0010
0100
0000
0001
0010
0100
0010
0000
0010
0000
,
0001
0010
0000
0010
0001
0000
0100
0010
0000
1000
0100
0000
0010
0100
1000
0000
,
0100
0010
0000
0010
0100
0000
0010
0001
0000
0010
0100
0010
0001
0000
0010
0000
,
1001
0100
0000
0010
0100
0000
1000
0010
0000
0010
0100
0000
0001
0010
0001
0000
,
0100
0010
0000
1000
0100
0000
0010
0100
0000
1000
0100
0010
0100
0000
1000
0000
,
0001
0010
0000
0100
0010
0000
0001
0000
1000
0100
0000
0010
0100
0000
1000
0000
,
0010
0100
0000
0001
0010
0000
0100
1000
0000
0100
0010
0000
0100
1000
0010
0100
,
1001
0010
0100
1000
0100
0000
0010
0001
0100
0010
1000
0000
0100
1000
0010
0000
,
1000
0100
0010
0001
0100
0000
0010
1000
0010
0100
0001
0010
0100
0010
0001
0000
,
0100
0010
1000
0100
1000
0000
0010
0100
0001
1000
0001
0000
0100
0010
1000
0000
,
0100
1000
0010
0100
0001
0000
0010
0100
1000
0010
0100
0001
0010
0100
1000
0010
,
1100
0010
0100
0001
0010
0000
0010
0001
0010
0100
1000
0000
0010
0100
0001
0000
,
0011
0100
0010
1000
0100
0000
0010
0001
0010
0100
1000
0010
0100
0001
0100
0000
,
1001
0010
0100
0001
0010
0100
0010
0000
1001
0100
0010
1000
0100
0010
0100
0000
,
1001
0010
0100
1001
0100
0010
1001
0010
1001
0100
0011
1000
0010
0100
0001
0010
,
0100
0000
1000
0000
1000
0000
0001
0000
0010
0000
0100
0000
1000
0000
0010
0100
,
0001
0000
0000
0000
0000
0000
0001
0000
0000
0000
0000
0000
0100
0000
0000
0000
0000
0000
0010
0000
0000
0000
0000
0000
0000
0000
0000
0000
0000
0000
0100
0000
0010
0000
0100
0000
0010
0000
0000
0000
0000
0000
1000
0000
0000
0010
0000
0000
,
0100
0000
0100
0000
0001
0000
0010
0000
0100
0000
1000
0000
1000
0000
0010
0100
,
0001
0000
0000
0000
0000
0000
0001
0000
0000
0000
0000
0000
0010
0000
0000
0000
0000
0000
0100
0000
0000
0000
0000
0000
0000
0000
0000
0000
0000
0000
0010
0000
0100
0000
0010
0000
0100
0000
0000
0000
0000
0000
0010
0000
0000
0100
0000
0000
,
1001
0011
1100
1001
0000
0011
0000
2002
,
0000
0000
3003
0000
1000
0000
0100
1000
0010
0000
0010
0100
1000
0000
0010
0100
,
0001
0000
0011
0000
0100
0010
0100
0010
1000
0000
1001
0000
0010
0100
0010
0100
,
0001
0000
1001
0000
0010
0000
1001
0000
0110
0000
1100
0010
0100
0001
0100
0010
,
1000
0001
0010
0100
1000
0001
0100
0010
1000
0100
0010
0001
1000
0010
0100
0001
,
0000
0010
0100
1000
0001
0100
0010
1000
0100
0010
0001
1000
0010
0100
0001
0010
,
0000
0100
1000
0010
0100
0001
0100
0010
1000
0100
0010
0001
0010
0100
1000
0100
,
1000
0010
1000
0001
1000
0010
1000
0001
1000
0010
1000
0001
1100
0001
1100
0001
,
1100
0001
0010
0100
1000
0010
0100
0001
0010
0100
1000
0100
1000
0010
0100
0001
,
0000
1000
0100
0010
0001
0100
0010
1000
0010
0100
0001
0010
0100
0010
0001
0100
,
0000
0010
1000
0100
0010
0001
0010
0100
1000
0010
0100
0001
1000
0100
0010
0001
,
0100
0010
0100
0001
0100
0010
0100
0001
0100
0010
0100
0011
1100
0000
1100
0010
,
1001
0100
0010
0001
1000
0010
0100
0001
0010
0100
1000
0001
0010
0100
1000
0100
,
1000
0010
0100
0001
0100
0010
1000
0001
1000
0100
0010
0001
1000
0010
0100
0001
,
1000
0100
0010
0001
0010
0100
0010
0100
1000
0010
0100
0001
1000
0001
0010
0100
,
1000
0001
1000
0010
1000
0001
1000
0010
1000
0001
1000
0010
1100
0010
1100
0010
,
1100
0001
0010
0001
0010
0100
1000
0001
0100
0010
1000
0100
0010
0001
0010
0100
,
0011
1000
0010
0100
0001
0010
0100
1000
0010
0100
0001
0100
0010
1000
0001
0100
,
1001
0010
0100
0001
0100
0010
1000
0001
0010
0100
1000
0001
0100
0010
1000
0100
,
1001
0100
0010
0100
0010
0100
0010
0100
1001
0010
0100
0011
1100
0000
1100
0010
,
1001
0100
0010
0100
1000
0010
0100
0001
0100
0010
1000
0001
1000
0100
0010
0001
,
1100
0010
0100
0001
0010
0100
1000
0001
0100
0010
1000
0010
0100
0001
0010
0100
,
1001
0010
0100
0010
1000
0100
0010
0001
0010
0100
1000
0100
0010
0100
1000
0100
,
0011
1000
0001
0100
0001
1000
0001
0100
0011
1000
0001
0100
0011
0100
0011
0100
,
0011
1000
0100
0010
0001
1000
0010
0100
0001
0010
0100
1000
0010
0100
0001
0010
,
1100
0001
0010
0100
1000
0001
0100
0010
1000
0100
0010
0100
1000
0100
0010
0100
,
1001
0010
0100
0010
0100
0010
0100
0010
1100
0001
0010
0001
0010
0001
0010
0001
,
1100
0010
0100
0001
1010
0001
1000
0100
1000
0010
1000
0010
0100
0001
0100
0001
,
1000
0100
0010
0100
1000
0100
0010
0001
0100
0010
1000
0010
0100
0001
1000
0001
,
1000
0000
1001
0000
0010
0100
0010
0100
1001
0000
0011
1000
0010
0100
0001
0010
,
0100
0010
0000
0001
1000
0000
1000
0100
0000
0100
1000
0000
0010
0000
0100
0000
,
0001
0010
0000
0100
0010
0000
0001
0100
0000
0010
1000
0100
0010
0000
0100
0000
,
1000
0100
0000
0100
1000
0000
0010
0100
0000
0001
0010
0000
0001
0100
0010
0000
,
1000
0100
0000
1000
0010
0000
0100
0001
0000
0010
0100
0010
0001
0000
0100
0000
,
1001
0010
0000
0100
0010
0000
1000
0100
0000
0010
0100
0000
1000
0010
0100
0000
,
0001
0010
0000
0010
0100
0000
0100
1000
0000
1000
0010
0100
0001
0000
0010
0000
,
0001
0010
0000
0100
0010
0000
0001
0000
1000
0100
0000
0010
0100
0000
1000
0000
,
0010
0100
0000
0100
0010
0000
1000
0100
0000
1000
0001
0000
0001
0100
0010
1000
,
0011
0100
0010
1000
0100
0000
0010
0001
0010
0100
1000
0000
0010
0100
0001
0000
,
1000
0010
0100
0001
1000
0000
0100
0010
0001
0010
0100
1000
0010
0100
0001
0000
,
0100
0010
1000
0001
1000
0000
0010
0100
0001
0100
0010
0000
1000
0100
0010
0000
,
0010
0100
1000
0010
0100
0000
0001
0100
0010
1000
0001
0010
0100
1000
0100
0010
,
1001
0100
0010
1000
0100
0000
0100
1000
0010
0100
0001
0000
0010
0100
1000
0000
,
0011
0100
0010
1000
0100
0000
1000
0010
0100
0001
1000
0001
0100
0010
1000
0000
,
1001
0100
0010
1000
0100
0010
0100
0000
1001
0010
0100
0001
0010
0100
0010
0000
,
1001
0000
0000
1100
0000
0000
0011
0000
1000
0000
0001
1000
0011
0100
0001
0100
,
1001
0000
0000
0000
0110
0110
0000
0000
;
