#TITLE:Mega Man 2003;
#SUBTITLE:;
#ARTIST:Gecko Yamori;
#TITLETRANSLIT:;
#SUBTITLETRANSLIT:;
#ARTISTTRANSLIT:;
#CREDIT:Arch0wl;
#BANNER:megaman2003-bn.png;
#BACKGROUND:megaman2003-bg.png;
#LYRICSPATH:;
#CDTITLE:!Arch0wlTitle.png;
#MUSIC:megaman2003.ogg;
#OFFSET:0.040;
#SAMPLESTART:37.120;
#SAMPLELENGTH:25.050;
#SELECTABLE:YES;
#BPMS:0.000=126.000,64.000=153.000;
#STOPS:63.960=0.417
;
#BGCHANGES:0.000=megaman2003-bg.png=1.000=0=0=1,
99999=-nosongbg-=1.000=0=0=0 // don't automatically add -songbackground-
;
// cache tags:
#FIRSTBEAT:0.000;
#LASTBEAT:464.000;
#SONGFILENAME:Songs/Archmage and Dark0wl Hammer of Thor UltraHyperMegaPack/Mega Man 2003/megaman2003.sm;
#HASMUSIC:1;
#HASBANNER:1;
#MUSICLENGTH:105.000;
// end cache tags

//---------------dance-single - Arch0wl----------------
#NOTES:
     dance-single:
     Arch0wl:
     Hard:
     10:
     1.000,1.000,0.724,0.000,0.648,867.000,76.000,0.000,0.000,1.000:
1000
0000
0000
0000
0000
1000
0100
0010
,
0001
0000
0000
0000
0000
0000
0001
0010
,
1000
0000
0000
0000
0010
0100
0000
0100
,
0001
0000
0000
0000
0100
0000
1000
0010
,
1000
0001
0010
0000
0001
0010
0000
0100
,
0000
0010
0000
0001
0000
0010
0000
0100
,
1000
0010
0100
0001
0000
0000
0000
0010
,
0100
0001
1000
0000
0010
0001
0000
0000
,
1000
0100
0010
0001
1000
0100
0010
0001
,
0000
0001
0000
0010
0000
0010
0000
1100
,
0000
0000
1000
0000
0010
0100
0000
0010
,
0000
0100
0001
0000
1000
0000
0001
0010
,
0000
0100
1000
0100
0010
0001
0010
0100
,
0010
0000
0000
0001
0000
0000
0010
0000
0010
0000
0000
0100
0000
0000
1000
0000
,
1000
0000
0100
0000
0010
0000
0010
0000
0001
0000
0010
0000
,
1100
0000
0000
0000
0000
0000
0000
0000
0000
0000
0000
0000
0110
0000
0000
0000
0000
0000
0000
0000
0000
0000
0000
0000
0011
0000
0000
0000
0000
0000
0000
0000
0000
0000
0000
0000
0110
0000
0000
0000
0000
0000
0000
0000
0000
0000
0000
0000
0000
0000
1100
0000
0000
0000
0000
0000
0000
0000
0000
0000
0000
0000
0000
1001
,
1000
0100
1000
0100
0000
0010
0000
0100
0000
0010
0000
0100
0010
0000
0001
0000
,
0010
0001
0010
0001
0000
0100
0000
0001
0000
0100
0000
0001
0100
0000
0010
0000
,
1000
0100
0010
0001
1000
0010
0100
0001
1000
0100
0010
0001
1000
0010
0100
0001
,
1000
0010
0000
1000
0010
0000
1000
0010
0000
1000
0010
0000
1000
0010
0100
0001
,
0010
0100
0010
1000
0010
0001
0010
0100
,
0010
0001
0100
0010
0100
0001
0100
1000
,
0100
0001
0010
1000
0010
0001
0010
0100
,
0010
0001
0100
0010
0100
0001
0010
1000
,
0000
0000
0010
0001
0000
0100
0010
1000
,
0000
0000
0010
0001
0000
0010
0000
1000
,
0000
0100
0010
0000
0100
0000
1000
0000
,
0001
0100
0000
0100
0000
0000
0000
0000
,
0010
1000
0010
0100
0010
0001
0010
1000
,
0010
0100
0010
0001
0010
1000
0000
0010
,
0000
1000
0100
0001
0100
1000
0000
1000
,
0100
0001
0100
1000
0000
1000
0000
1000
,
0000
0010
0100
0001
0100
0010
0100
1000
,
0100
0001
0100
0010
0100
1000
0000
0000
,
0100
0100
0001
0010
0000
0100
1000
0100
,
0010
0010
0001
1000
0000
1000
0010
0000
,
0100
0010
0100
0001
0100
1000
0100
0001
,
0100
0010
0001
0010
0100
0001
0100
0010
,
1000
0000
1000
0000
1000
0100
0000
0100
0000
0100
1000
0100
1000
0100
1000
0100
,
1000
0000
1000
0000
1000
0100
0000
0100
0000
0100
1000
0100
1000
0100
1000
0100
,
0010
0100
0010
1000
0010
0001
0010
1000
,
0010
0100
1000
0100
0010
0001
0010
0100
,
1000
0000
1000
0000
1000
0010
0000
0010
0000
0010
1000
0010
1000
0010
1000
0010
,
1000
0000
1000
0000
1000
0010
0000
0010
0000
0010
1000
0010
1000
0010
1000
0010
,
0100
0010
0100
0001
0100
1000
0100
0001
,
0100
0010
0001
0010
0100
0001
0100
0010
,
1000
0000
1000
0000
1000
0100
0000
0100
0000
0100
1000
0100
1000
0100
1000
0100
,
1000
0000
1000
0000
1000
0100
0000
0100
0000
0100
1000
0100
1000
0100
1000
0100
,
0010
0100
0010
1000
0010
0001
0010
1000
,
0010
0100
1000
0100
0010
0001
0010
0100
,
1000
0000
1000
0000
1000
0010
0000
0010
0000
0010
1000
0010
1000
0010
1000
0010
,
1000
0001
1000
0001
1000
0001
1000
0001
1000
0001
1000
0001
1000
0001
1000
0001
,
0100
1000
0100
0001
0100
0010
0100
0001
,
0010
1000
0010
0001
0010
0100
0010
1000
,
0001
0010
0001
1000
0001
0100
0001
1000
,
0010
0100
0010
0001
0010
1000
0010
0100
,
0000
0000
1000
0100
0000
0010
0001
0100
,
0000
0000
1000
0100
0000
1010
0000
0101
,
0000
0001
0010
0000
1100
0000
0011
0000
,
0001
0100
0000
0100
0000
0000
0000
0000
,
0001
0100
1000
0100
0010
0100
1000
0100
,
0001
0100
0010
0100
0001
1000
0000
0101
,
0000
0101
0010
1000
0001
0100
0000
0101
,
0010
1000
0001
0100
0000
1001
0000
1001
,
0000
0100
1000
0100
0010
0100
1000
0100
,
0001
0100
0010
0100
0001
0010
0000
0000
,
0011
0001
1000
0100
0000
1000
0100
0010
,
0011
0001
1000
0100
0000
0110
0110
0000
,
1100
0110
0011
0110
1100
0011
1100
0011
,
1100
0110
0011
1100
0110
0011
0000
1001
,
0000
0101
0110
1010
0110
0101
0000
0101
,
0110
1010
0110
0101
0000
0101
0000
0101
,
0000
0011
0110
1100
0011
1100
0011
1100
,
0011
0110
1100
0110
0011
0110
0000
0000
,
1100
1100
0110
0011
0000
0011
0101
1001
,
1010
1010
0110
0101
0000
0101
1001
0000
,
0010
0100
0001
0100
1000
0100
0001
0100
,
0010
1000
0010
0001
1000
0001
0010
0100
,
0001
0000
0001
0000
0001
0100
0000
0100
0000
0100
0001
0100
0001
0100
0001
0100
,
0001
0000
0001
0000
0001
0100
0000
0100
0000
0100
0001
0100
0001
0100
0001
0100
,
0010
0100
0001
0100
1000
0100
0001
0100
,
0010
1000
0010
0001
1000
0001
0010
0100
,
0001
0000
0001
0000
0001
0100
0000
0100
0000
0100
0001
0100
0001
0100
0001
0100
,
0001
0000
0001
0000
0001
0100
0000
0100
0000
0100
0001
0100
0001
0100
0001
0100
,
0010
0100
0001
0100
1000
0100
0001
0100
,
0010
1000
0010
0001
1000
0001
0010
0100
,
0001
0000
0001
0000
0001
0100
0000
0100
0000
0100
0001
0100
0001
0100
0001
0100
,
0001
0000
0001
0000
0001
0100
0000
0100
0000
0100
0001
0100
0001
0100
0001
0100
,
0010
0100
0001
0100
1000
0100
0001
0100
,
0010
1000
0010
0001
1000
0001
0010
0100
,
0001
0000
0001
0000
0001
0100
0000
0100
0000
0100
0001
0100
0001
0100
0001
0100
,
0010
1000
0010
1000
0010
1000
0010
1000
0010
1000
0010
1000
0010
1000
0010
1000
,
0100
0010
0100
1000
0010
0100
0010
0001
,
1000
0100
1000
0001
0010
1000
0010
0001
,
1000
0100
1000
0001
0010
1000
0010
0100
,
0001
0010
0001
1000
0010
0100
0001
0010
,
0000
0000
0100
1000
0000
0100
0010
0001
,
0000
0000
1000
0100
0000
0010
0000
0100
,
0000
1000
0010
0000
0100
0000
0010
0000
,
1000
0010
0000
0010
0000
0000
0000
0000
,
0100
0010
0001
0010
1000
0010
0100
0010
,
0001
0010
0100
0010
1000
0100
0000
0011
,
0000
0100
1000
0001
0010
0100
0000
0100
,
1000
0001
0010
0100
0000
0100
0000
0100
,
0000
0010
0001
0010
1000
0010
0100
0010
,
0001
0010
0100
0010
0001
0100
0000
0000
,
0010
0010
1000
0010
0000
1000
0100
1000
,
0001
0001
0010
0001
0000
0010
0001
0000
,
0010
0100
1000
0100
0001
0100
0010
0100
,
1000
0100
0010
0100
1000
0010
0000
1001
,
0000
0010
0100
1000
0100
0010
0000
0010
,
0100
1000
0100
0010
0000
0010
0000
0010
,
0000
0010
0001
0010
1000
0010
0100
0010
,
0001
0010
0100
0010
0001
0100
0000
0000
,
0010
0010
1000
0100
0000
0010
0100
0010
,
0001
0001
1000
0001
0000
1000
0001
0000
,
1101
0000
0000
0000
;
