#TITLE:Galaxy of Wizard;
#SUBTITLE:-3rd Mix-;
#ARTIST:Silvia;
#TITLETRANSLIT:;
#SUBTITLETRANSLIT:;
#ARTISTTRANSLIT:;
#CREDIT:;
#BANNER:galaxyofwizard3rdmix.png;
#BACKGROUND:galaxyofwizard3rdmix-bg.png;
#LYRICSPATH:;
#CDTITLE:!HSTTitle.png;
#MUSIC:galaxy_of_wizard_-3rd_mix-.mp3;
#OFFSET:1.280;
#SAMPLESTART:37.700;
#SAMPLELENGTH:11.860;
#SELECTABLE:YES;
#BPMS:0.000=80.050,36.000=160.090,188.000=80.050,204.000=160.090;
#STOPS:;
#BGCHANGES:;
// cache tags:
#FIRSTBEAT:4.000;
#LASTBEAT:268.000;
#SONGFILENAME:Songs/Fabulously Fresh Flock of Fantastic Files F5/(HST) Galaxy of Wizard -3rd Mix-/galaxyofwizard3rdmix.sm;
#HASMUSIC:1;
#HASBANNER:1;
#MUSICLENGTH:128.783;
// end cache tags

//---------------dance-single - ----------------
#NOTES:
     dance-single:
     :
     Hard:
     10:
     0.891,1.000,1.000,0.582,0.415,515.000,213.000,75.000,0.000,1.000:  // measure 1
0000
0000
0000
0000
,  // measure 2
1001
0010
0001
0010
0002
0000
0000
0000
2003
0000
0000
0010
3010
0000
0000
0000
,  // measure 3
1010
0100
0001
0010
0200
0000
0000
0000
0320
0000
0000
0001
0031
0011
0110
0000
,  // measure 4
2000
0000
3020
0000
2030
0000
3200
0320
0032
0023
0230
0000
0320
0131
1001
1100
,  // measure 5
0020
0000
0230
0000
0301
0101
0011
0110
2000
3020
0230
0300
2002
0000
3003
0000
,  // measure 6
2000
0010
0100
0010
3002
0000
0000
0000
0010
0000
0000
1000
1003
0000
0000
0000
,  // measure 7
0020
0001
0100
0001
2030
0000
0000
0000
0010
0000
0000
0100
3100
1001
0101
0000
,  // measure 8
2000
0000
3200
0000
0320
0000
0230
2300
3200
0320
0230
0000
0320
0000
0230
0320
,  // measure 9
0032
0000
2003
0000
3020
0230
0302
0203
0302
0000
0000
0000
0023
0000
0030
0000
,  // measure 10
0012
0000
0000
0000
1003
0000
0000
1010
0000
0000
0110
0000
0000
0000
1010
0000
,  // measure 11
0000
1010
0000
0000
0110
0000
0000
0001
0000
0000
0021
0000
0032
0000
1003
0000
,  // measure 12
1200
0000
0000
0000
1300
0000
0000
1010
0000
0000
1001
0000
0000
0000
0011
0000
,  // measure 13
0000
0110
0000
0000
0011
0000
0000
0001
0000
0000
2001
0000
3002
0000
0013
0000
,  // measure 14
0210
0000
0000
0000
1300
0000
0000
1001
0000
0000
1100
0000
0000
0000
0101
0000
,  // measure 15
0000
0011
0000
0000
0110
0000
0000
0100
0000
0000
1200
0000
2300
0000
3010
0000
,  // measure 16
0210
0000
0000
0000
0301
0000
0000
0011
0000
0000
1001
0000
0000
0000
1100
0000
,  // measure 17
0000
1001
0000
0000
0001
0000
0000
0000
1000
0001
1000
0001
0010
0001
0010
0001
,  // measure 18
0110
1000
0010
0100
0101
0010
0100
0001
,  // measure 19
1001
0100
1000
0100
0011
0010
0110
0100
,  // measure 20
0110
0010
0011
0001
1001
0001
1000
0010
,  // measure 21
0100
0010
1000
0010
0101
0010
0110
0101
,  // measure 22
1001
1000
0100
0010
0011
0001
1000
0010
,  // measure 23
0110
0010
1000
0001
0011
0010
0100
1000
,  // measure 24
1100
0100
0010
0011
1100
0010
0001
1000
,  // measure 25
0011
0000
0010
0000
0110
0000
0100
0000
1100
0000
0000
1000
0101
0000
1010
0000
,  // measure 26
1100
0000
0000
0110
0000
0000
0011
0000
0101
0000
0000
0110
0000
0000
1010
0000
,  // measure 27
1001
0000
0000
1100
0000
0000
1001
0000
0011
0000
0000
0110
0000
0000
1001
0000
,  // measure 28
0011
1000
0010
0100
1010
0100
0011
0100
,  // measure 29
1001
0000
0010
0000
0100
0000
1000
0000
1010
0000
0000
1001
0000
0000
0001
0000
,  // measure 30
1010
0000
0100
0000
0001
0000
0010
0000
1100
0000
0000
0101
0000
0000
0001
0000
,  // measure 31
0011
0000
0100
0000
1000
0000
0010
0000
0101
0000
0000
1010
0000
0000
0110
0000
,  // measure 32
0101
0001
0010
0100
0110
1000
0010
0100
,  // measure 33
0101
0001
0010
0100
1100
1000
1001
0001
,  // measure 34
0011
0010
0110
0100
1100
0010
1000
0001
,  // measure 35
1010
0100
0001
0010
0101
0010
1100
1001
,  // measure 36
0011
0100
1000
0001
1010
0100
0001
1000
,  // measure 37
0101
0010
1000
0100
0011
1000
0010
0100
,  // measure 38
1001
0100
0001
0011
1100
0010
0100
0001
,  // measure 39
1000
0000
0010
0000
0101
0000
0010
0000
1001
0000
0000
0001
1100
0000
1010
0000
,  // measure 40
1001
0000
0000
1100
0000
0000
1001
0000
0011
0000
0000
0110
0000
0000
0011
0000
,  // measure 41
0101
0000
0000
0110
0000
0000
1010
0000
1100
0000
0000
1001
0000
0000
1100
0000
,  // measure 42
0011
1000
0001
0100
1010
0100
0001
0010
,  // measure 43
1100
0001
0100
0010
1001
0100
0011
0110
,  // measure 44
1100
0001
0010
0100
0011
0100
1000
0001
,  // measure 45
1010
0100
0001
0100
1001
0010
0100
0001
,  // measure 46
1010
0100
0001
0100
0010
1000
0100
0010
,  // measure 47
0001
0000
1000
0010
0100
0000
0001
0010
0100
0000
1000
0001
0100
0001
1000
0000
,  // measure 48
2000
3002
2003
0010
0010
0010
0010
0010
3002
0023
0230
1300
1000
1000
1000
1000
,  // measure 49
1010
0000
0000
0000
0010
0000
0100
0001
0000
0000
0010
0000
0110
0000
1100
0000
1001
0000
0000
0000
1010
0000
1001
0000
0101
0000
0000
0000
1001
0000
0000
0000
,  // measure 50
0020
0230
0320
0001
0001
0001
0001
0001
0230
0302
2003
3010
0010
0010
0010
0010
,  // measure 51
1010
0000
0000
0000
0001
0000
1000
0100
0000
0000
0001
0000
1001
0000
1010
0000
0110
0000
0000
0000
0011
0000
0110
0000
1100
0000
0100
0000
0100
0000
0100
0000
,  // measure 52
1100
0000
0011
1100
0000
1100
0011
0000
,  // measure 53
1001
1001
0110
1001
0000
1001
0110
0000
,  // measure 54
1010
0000
0101
0000
1010
1010
0101
0000
,  // measure 55
1010
0000
0101
1010
0000
1010
0101
1001
,  // measure 56
1001
0000
0110
1001
0000
1001
0110
0000
,  // measure 57
1001
1001
0110
1001
0000
1001
0110
0000
,  // measure 58
1010
0000
0110
0000
1010
1010
0110
0000
,  // measure 59
0001
1000
0001
0000
1000
0001
0000
0001
1000
0000
1000
0001
0000
0001
1000
0001
,  // measure 60
1200
0000
0000
0000
1300
0000
0000
1001
0000
0000
0101
0000
0000
0000
0011
0000
,  // measure 61
0000
0110
0000
0000
1100
0000
0000
0010
0000
0000
0021
0000
0032
0000
1003
0000
,  // measure 62
1200
0000
0000
0000
1300
0000
0000
1010
0000
0000
1001
0000
0000
0000
0101
0000
,  // measure 63
0000
0110
0000
0000
1010
0000
0000
1000
0000
0000
2001
0000
3020
0000
0130
0000
,  // measure 64
0102
0000
0000
0000
0013
0000
0000
0110
0000
0000
1100
0000
0000
0000
1001
0000
,  // measure 65
0000
1010
0000
0000
0110
0000
0000
0100
0000
0000
0201
0000
0302
0000
0013
0000
,  // measure 66
0210
0000
0000
0000
1300
0000
0000
1100
0000
0000
1001
0000
0000
0000
0011
0000
,  // measure 67
0000
1001
0000
0000
1000
0000
0000
0000
0001
1000
0001
1000
0010
1000
0010
0100
,  // measure 68
1001
0000
0000
0000
;
