#TITLE:W32.Stuxnet;
#SUBTITLE:;
#ARTIST:Dustboxxxx;
#TITLETRANSLIT:;
#SUBTITLETRANSLIT:;
#ARTISTTRANSLIT:;
#CREDIT:owenviau1;
#BANNER:;
#BACKGROUND:;
#LYRICSPATH:;
#CDTITLE:;
#MUSIC:W32.Stuxnet.ogg;
#OFFSET:-0.166;
#SAMPLESTART:186.791;
#SAMPLELENGTH:29.999;
#SELECTABLE:YES;
#BPMS:0.000=153.001,24.000=306.002,192.000=153.001,196.000=306.002,228.000=153.001,256.000=306.002,712.000=153.001,728.000=306.002;
#STOPS:;
#BGCHANGES:;
// cache tags:
#FIRSTBEAT:8.000;
#LASTBEAT:1437.000;
#SONGFILENAME:Songs/owenviau1 Simfiles 07_final/W32.Stuxnet - Braeden/W32.Stuxnet.sm;
#HASMUSIC:1;
#HASBANNER:0;
#MUSICLENGTH:317.152;
// end cache tags

//---------------dance-single - ----------------
#NOTES:
     dance-single:
     :
     Challenge:
     35:
     1.000,1.000,0.101,0.117,1.000,3635.000,32.000,37.000,21.000,0.000:

0000
0000
0000
0000
,
0000
0000
0000
0000
,
1000
0010
1000
0100
0010
0100
1000
0001
0100
0010
1000
0100
0010
0001
0010
0100
,
1000
0001
0100
0010
1000
0100
0010
0001
0100
0010
1000
0100
0010
0001
0100
0010
,
1000
0001
0010
0100
1000
0100
0010
0001
0100
0010
0100
0001
0010
0100
1000
0001
,
0100
0010
1000
0100
0010
0100
1000
0001
0100
0010
0100
0001
0010
0100
1000
0100
,
0010
0001
0100
0010
1000
0001
0010
0100
1000
0100
0010
0001
0100
0010
0100
0001
,
0010
0100
1000
0001
0100
0010
1000
0100
0010
0100
1000
0001
0100
0010
1000
0100
,
0010
0001
0010
0100
1000
0001
0100
0010
0100
0001
0010
0100
1000
0100
0010
0001
,
0100
0010
0100
0001
0010
0100
1000
0001
0100
0010
1000
0100
0010
0001
0010
0100
,
1000
0001
0100
0010
1000
0100
0010
0100
1000
0001
0100
0010
1000
0100
0010
0001
,
1000
0001
0100
0010
1000
0100
0010
0001
0010
0100
1000
0001
0100
0010
1000
0100
,
0010
0100
1000
0001
0100
0010
1000
0001
0010
0100
1000
0100
0010
0001
0100
0010
,
0100
0001
1000
0100
0010
0001
1000
0100
0010
0001
0010
0100
1000
0001
0100
0010
,
1000
0100
0010
0001
0010
0100
1000
0001
0100
0010
1000
0100
0010
0100
1000
0001
,
0100
0010
1000
0100
0010
0001
0010
0100
1000
0001
0100
0010
1000
0100
0010
0100
,
1000
0001
0100
0010
1000
0100
0010
0001
0010
0100
1000
0001
0100
0010
0100
0001
,
0010
0100
1000
0100
0010
0001
0000
0010
0100
0010
0100
0010
0100
1000
0001
1000
,
0100
0010
0001
0100
0010
1000
0100
0010
,
0001
0000
0010
0000
0100
0000
1000
0000
0001
0000
0100
0000
0010
0100
0010
0100
,
0010
0000
0100
0000
0001
0000
1000
0000
0100
0000
0010
0000
0001
1000
0001
0100
,
0010
0000
1000
0000
0100
0000
0010
0000
0100
0000
1000
0000
0001
0100
0010
1000
,
0010
0100
0001
1000
0100
0010
0100
1000
,
0001
0100
0010
1000
0100
0010
0100
1000
,
0001
0100
0010
1000
0100
0010
0100
1000
,
0001
0100
0010
1000
0100
0010
0001
0100
,
0220
0000
0000
0330
,
1001
0000
1000
0010
0100
0000
0101
0000
,
0002
0000
0203
0000
0320
0000
1030
0001
,
0100
0000
0000
0010
1000
0100
0010
0000
,
0001
0100
0010
1000
0000
0100
0000
0010
,
0000
0000
0000
0000
0001
0100
0010
0001
,
0100
0010
1000
0010
0100
0010
0100
0010
,
1000
0000
0001
0000
0010
0100
1000
0100
0010
0000
0001
0000
1000
0000
0100
0010
,
0004
0000
0000
0000
,
1003
0000
0010
0100
0001
0000
0100
0000
,
2000
0000
0000
0000
3000
0000
0010
0000
0001
0000
0010
0000
0100
1000
0100
0010
,
0001
0000
0100
0010
0000
0010
1000
0000
,
1000
0001
1000
0001
1000
0100
0010
0001
0010
0100
1000
0100
0010
0001
0100
0010
,
1000
0001
0100
0010
1000
0100
0010
0001
0010
0100
1000
0001
0100
0010
1000
0100
,
0040
0000
0000
0000
,
0030
0000
0000
0000
,
0001
1000
0001
1000
0001
0000
0100
0010
0100
0000
0001
0100
0010
1000
0001
0000
,
0100
0000
0010
0000
1000
0100
1000
0001
0100
0000
0010
0000
1000
0000
0001
0100
,
0010
1000
0100
0010
0001
0100
0010
1000
,
0100
0000
0010
0000
0001
0100
0010
1000
0001
0000
0100
0000
0010
0000
1000
0001
,
0100
0010
1000
0100
0010
0000
0001
0100
0010
0000
1000
0100
1000
0100
1000
0000
,
0001
0000
0100
0000
0010
1000
0010
1000
0001
0000
0100
0000
0010
0000
1000
0001
,
0100
0000
0000
0000
,
0001
0000
1000
0000
0001
0000
0100
0010
0100
0000
0001
0100
0010
1000
0100
0000
,
0010
0000
0001
0000
1000
0010
0100
0001
0100
0000
0001
0000
0001
0000
0010
0100
,
1000
1000
0001
0100
0010
1000
0100
0010
,
0001
0000
0100
0000
0010
1000
0001
0100
0020
0000
2030
0000
3001
0000
0100
0010
,
1000
0100
0010
0100
1000
0000
0001
0100
0010
0000
1000
0100
1000
0001
0100
0000
,
0010
0000
1000
0000
0100
0000
0010
0000
0100
0000
1000
0000
0001
0000
0100
0010
,
1000
0000
0100
0010
0100
1000
0001
0100
0010
0000
1000
0001
0100
0010
1000
0000
,
0001
0000
1000
0000
0010
0100
0001
0100
0010
0000
1000
0000
0100
0000
1000
0000
,
0001
MMMM
MMMM
MMMM
,
0000
0000
0000
0000
,
0000
0000
0000
0000
,
0000
0000
0000
0000
,
M00M
0000
0000
0000
,
M000
00M0
0M00
000M
M000
0000
0000
0000
,
0000
0000
0000
0000
,
M00M
0000
0001
0000
,
1000
0000
0000
0000
,
0001
0010
0100
1000
0100
0010
0001
0100
0010
1000
0001
0100
0010
1000
0100
0010
,
0100
1000
0001
0100
0010
1000
0100
0010
0100
1000
0001
0100
0010
1000
0100
0010
,
0100
1000
0001
0100
0010
0000
0000
0000
0000
0000
0000
0000
0000
0000
0000
0000
,
0000
0000
0000
0000
,
1000
0100
0010
0001
0010
0100
1000
0001
0100
0010
1000
0100
0010
0100
1000
0001
,
0100
0010
1000
0100
0010
0100
1000
0001
0100
0010
1000
0100
0010
0100
1000
0001
,
0100
0000
0000
0000
1000
0010
1000
0010
,
0000
0000
0000
0000
,
0000
0000
0000
0000
,
1000
0001
0100
0010
1000
0100
0010
0001
0010
0100
1000
0001
0100
0010
1000
0100
,
0010
0100
1000
0001
0100
0010
1000
0100
0010
0100
1000
0001
0100
0010
1000
0100
,
0010
0001
0100
0010
1000
0100
0010
0100
1000
0001
0100
0010
1000
0100
0010
0001
,
2002
0000
0000
3003
,
0010
0000
0000
0000
,
0000
0000
0000
0000
,
0000
0000
0000
0000
,
1000
0100
0010
0001
0010
0100
1000
0001
0100
0010
1000
0100
0010
0100
1000
0001
,
0100
0010
1000
0100
0010
0100
1000
0001
0010
0100
1000
0100
0010
0000
0001
0000
,
0100
0010
1000
0100
0010
0000
0001
1000
0010
0000
0100
0001
0100
0010
1000
0000
,
0001
0000
0100
0000
0010
1000
0100
1000
0001
0000
0100
0000
0010
0000
1000
0001
,
0200
0000
0000
0000
0320
0000
0000
0000
1030
0001
1000
0000
0010
0000
0100
0000
,
0001
0000
1000
0000
0010
0000
0100
0001
0010
0000
0100
0000
1000
0000
0001
0000
,
0100
0010
1000
0100
0010
0000
0001
1000
0010
0000
0100
0001
0100
0010
1000
0000
,
0001
0100
0010
0000
0000
0000
0000
0000
,
1000
0001
0100
0010
1000
0100
0010
0100
1000
0001
0100
0010
1000
0001
0010
0100
,
1000
0100
0010
0001
0100
0010
0100
0001
1000
0010
0100
0001
1000
0100
0010
0001
,
0100
0010
1000
0100
0010
0000
0001
1000
0010
0000
0100
0001
0100
0010
1000
0000
,
0001
0000
0100
0000
0010
1000
0100
1000
0001
0000
0100
0000
0010
0000
1000
0001
,
0200
0000
0000
0000
0320
0000
0000
0000
1030
0001
0100
0000
0010
0000
1000
0000
,
0100
0010
0001
0010
0100
0000
1000
0001
,
0100
0010
0100
0010
1000
0100
1000
0100
,
0004
0000
0000
0000
,
1003
0010
0100
0001
1000
0100
0010
0100
1000
0001
0010
0100
1000
0100
0010
0001
,
0100
0010
1000
0100
1000
0001
0100
0010
,
0100
0010
1000
0100
0010
0000
0001
1000
0010
0000
0100
0001
0100
0010
1000
0000
,
0001
0000
0100
0000
0010
1000
0100
1000
0001
0000
0100
0000
0010
0000
1000
0001
,
0100
0000
0010
0000
1000
0000
0100
0000
0010
0001
0010
0001
1000
0000
0010
0000
,
0100
0000
0001
0000
0100
0000
0001
1000
0100
0000
0000
0000
1000
0000
0100
0000
,
1000
0010
1000
0100
0010
0000
0001
1000
0010
0000
0100
0001
0100
0010
1000
0000
,
0001
0100
0010
0000
0000
0000
0000
0000
,
0001
0010
0100
1000
0010
0100
0001
1000
0100
0010
0100
1000
0001
0100
0020
1030
,
0100
0010
0100
1000
0001
0100
0010
1000
0100
0010
0100
1000
0001
0100
0010
1000
,
0100
0010
0001
0100
0010
0000
1000
0000
0010
0000
0100
0001
0100
0010
1000
0000
,
0001
0000
0100
0000
0010
1000
0100
1000
0001
0000
0100
0000
0010
0000
1000
0001
,
0100
0000
0000
0000
0000
0000
0010
0000
1000
0000
0000
0000
0001
0100
0010
1000
,
0100
0010
0011
0011
,
0001
0100
0001
0100
0010
1000
0010
1000
,
0001
0100
0010
1000
0100
0010
0001
0100
0010
1000
0001
0010
0100
1000
0100
0010
,
0002
0203
0320
2030
,
3001
0100
0010
1000
0100
0010
0100
1000
,
0001
0010
0100
1000
0001
0100
0010
1000
,
0100
0010
0100
1000
0001
0100
0010
1000
,
0100
0000
0000
0000
,
0000
0000
0000
0000
,
0001
1000
0001
0100
0001
0000
0100
0000
0010
0000
1000
0000
0001
0000
0100
0000
,
0010
0000
1000
0000
0100
0000
0010
0000
0001
0100
0010
1000
0100
0010
0100
1000
,
0002
0000
0203
0000
0310
1000
0001
0100
,
0010
1000
0100
0010
0100
1000
0001
0100
,
0010
1000
0001
0100
0010
1000
0100
0010
,
0100
1000
0001
0100
0010
1000
0100
0010
,
0001
0100
0010
1000
0100
0010
0100
1000
,
0001
0010
0100
1000
0001
0010
0001
1000
0100
0010
0100
1000
0001
0100
0010
1000
,
0100
0010
0001
0010
0100
1000
0001
0100
0010
0100
0001
0100
0010
1000
0100
0010
,
0001
1000
0001
0100
0010
1000
0100
0010
0100
1000
0001
0100
0010
1000
0100
0010
,
0100
1000
0001
0100
0010
1000
0100
0010
,
0100
1000
0001
0100
0010
1000
0100
0010
,
0001
0100
0010
1000
0001
0100
0010
1000
,
0100
0010
0100
1000
0001
0100
0010
1000
,
0100
0010
0004
0000
,
0103
0010
2000
0000
,
3001
0100
0001
0100
0010
0000
1000
0000
0010
0000
1000
0000
0001
0000
0100
0000
,
0010
0000
1000
0000
0100
0000
0010
0000
0100
1000
0001
0100
0001
0100
0010
1000
,
0010
0100
0001
0100
0010
1000
0100
0010
,
0100
1000
0001
0100
0010
0100
0001
1000
,
0010
0000
0100
0000
0001
0000
1000
0000
0010
0100
0001
1000
0100
0010
0100
1000
,
0001
0100
0010
1000
0100
0010
0100
1000
,
0001
0100
0010
1000
0100
0010
0100
1000
,
0001
0100
0010
1000
0001
0010
0100
1000
0100
0010
0100
1000
0001
0100
0010
1000
,
0100
0010
0001
0010
0100
1000
0001
0100
0010
0100
0001
1000
0100
0010
0100
1000
,
0001
0100
0010
1000
0100
0010
0001
0010
0100
1000
0001
0100
0010
0000
0000
0000
,
1010
0000
0010
0000
0100
0000
0001
1000
,
0100
0010
0100
1000
0001
0100
0010
1000
,
0100
0010
0001
0100
0010
0100
0001
1000
,
0010
0100
0001
1000
0100
0010
0001
0100
,
0020
0000
0030
1000
0100
0000
1000
0100
,
0010
0001
0100
0010
1000
0100
0010
0001
,
0010
0000
0000
0000
0000
0000
0100
0000
0000
0000
0000
0000
0100
0000
0000
0010
0000
0000
1000
0000
0001
0000
0100
0000
,
0010
1000
0010
0100
0001
1000
0100
0010
0100
1000
0001
0100
0010
1000
0100
0010
,
0200
0000
0000
0000
0320
0000
0000
0000
0032
0000
0000
0000
1003
0010
0100
0001
,
1000
0010
0100
0001
1000
0100
0010
0100
1000
0001
0100
0010
1000
0100
0010
0001
,
0040
0000
0000
0000
0000
0000
0000
0000
0130
1000
0001
1000
0100
0010
0100
1000
,
0001
0100
0010
1000
0100
0010
0100
1000
0001
0010
0100
1000
0100
0010
0001
0100
,
0010
1000
0010
1000
0010
0000
0000
0000
,
0100
0001
0100
0001
0100
0010
1000
0100
,
0010
0001
0100
0010
1000
0100
0010
0100
,
1000
0001
0100
0010
1000
0100
1000
0001
,
1000
0010
1000
0010
0100
0000
0001
0100
,
0010
1000
0100
0010
0100
1000
0001
0000
,
1000
0010
0100
0001
1000
0100
0010
0100
1000
0000
0000
0000
0001
0000
0100
0000
,
0010
1000
0100
0010
0400
0000
0300
1000
,
0001
0000
0010
0000
0100
1000
0001
0100
0010
0000
1000
0000
0001
0000
0100
0000
,
0010
0000
1000
0010
0100
0000
0001
0100
0010
1000
0100
0010
0100
1000
0001
0100
,
0010
1000
0100
0010
0100
1000
0001
0100
0010
1000
0001
0010
0100
1000
0100
0010
,
0001
0100
0010
1000
0001
0100
0010
1000
0100
0010
0001
0100
0010
1000
0100
0010
,
0001
0101
0110
1010
,
1000
0001
0100
0010
1000
0100
0010
0001
0010
0100
1000
0001
0100
0010
0100
0001
,
0100
0010
0100
0001
0010
0100
0010
0100
0010
0001
0100
0010
0100
0010
1000
0100
,
0010
0001
0100
0010
1000
0001
0100
0010
1000
0100
0010
0100
1000
0001
0100
0010
,
1000
0100
0010
0001
0010
0100
1000
0001
0100
0010
1000
0100
0010
0001
0010
0100
,
1000
0001
0100
0010
0100
0001
0010
0100
1000
0100
0010
0001
0100
0010
0100
0001
,
0010
0100
1000
0100
0010
0001
0100
0010
0100
0001
0010
0100
1000
0001
0010
0100
,
0010
0100
1000
0001
0100
0001
1000
0100
0010
0100
1000
0001
0100
0010
1000
0100
,
0000
0000
0000
0000
,
0000
0000
0000
0000
,
0000
0000
0000
0000
,
0000
0000
0000
0000
,
1000
0000
0001
0100
0010
1000
0100
0010
,
0100
1000
0001
0100
0010
1000
0001
0010
,
0001
1000
0100
0010
0100
1000
0001
0100
,
0010
1000
0100
0010
0100
1000
0001
0100
,
0010
1000
0100
0010
0100
1000
0001
0010
,
0100
1000
0100
0010
0100
1000
0001
0100
,
0010
1000
0100
0010
0100
1000
0001
0100
,
0010
1000
0100
0010
0100
1000
0001
0100
,
0010
1000
0001
1000
0100
0010
0100
1000
0001
0010
0100
1000
0100
0010
0001
0100
,
0010
0100
0001
0010
0100
1000
0100
0010
0100
1000
0001
0100
0010
1000
0100
0010
,
0100
1000
0001
0100
0010
1000
0100
0010
0100
1000
0001
0100
0010
1000
0001
0010
,
0100
1000
0100
0010
0100
1000
0001
0100
0010
1000
0100
0010
0100
1000
0001
0100
,
0010
1000
0001
0010
0100
1000
0100
0010
0001
0100
0010
1000
0001
0100
0010
1000
,
0001
0100
0010
1000
0100
0010
0100
1000
0001
0100
0010
1000
0001
0010
0001
0010
,
0001
1000
0010
1000
0100
0010
0100
1000
0001
0100
0010
1000
0100
0010
0100
1000
,
0001
0100
0010
1000
0100
0010
0001
0010
0100
1000
0001
0100
0010
1000
0100
0010
,
0001
0100
0010
1000
0001
0010
0100
1000
0100
0010
0001
0100
0010
0100
0001
0010
,
0100
1000
0100
0010
0001
0010
0100
1000
0001
0100
0010
1000
0001
0010
0100
1000
,
0001
0100
0010
1000
0100
0010
0100
1000
0001
0010
0100
1000
0100
0010
0001
0100
,
0010
0100
0001
0100
0010
1000
0001
0100
0010
1000
0100
0010
0100
1000
0001
0100
,
0010
1000
0001
0100
0010
1000
0001
0010
0100
1000
0100
0010
0001
1000
0010
0100
,
0001
1000
0100
0010
0001
0100
0010
1000
0001
0010
0001
1000
0010
1000
0001
0010
,
0001
1000
0010
0100
0001
1000
0100
0010
0100
1000
0001
0010
0100
1000
0001
0010
,
0001
1000
0010
0100
0001
0100
0010
1000
0100
0010
0100
1000
0001
0100
0010
1000
,
0001
0000
0000
0000
,
0000
0000
0000
0000
,
0000
0000
0000
0000
,
0000
0000
0000
0000
,
0000
0000
0000
0000
,
0000
0000
0000
0000
,
1000
0010
0100
0001
1000
0100
0010
0100
1000
0001
0100
0010
1000
0001
0010
0100
,
1000
0100
0010
0100
1000
0001
0100
0010
1000
0100
0010
0001
0010
0100
1000
0001
,
0100
0010
1000
0100
0010
0100
1000
0001
0100
0010
1000
0100
0010
0100
1000
0001
,
0010
0001
0100
0010
1000
0001
0010
0001
0100
0010
1000
0001
0010
0001
0100
0010
,
0100
0010
0100
0010
1000
0001
0100
0010
1000
0100
0010
0100
1000
0001
0100
0010
,
1000
0100
0010
0100
1000
0001
0100
0010
1000
0001
0010
0000
1000
0100
0010
0100
,
1000
0001
0100
0010
1000
0100
0010
0100
1000
0001
0100
0010
0100
0001
0010
0100
,
0010
0100
0010
0100
1000
0001
0100
0010
1000
0001
0010
0001
1000
0100
0010
0001
,
0100
0010
1000
0001
1000
0100
1000
0001
,
0100
0010
1000
0100
0010
0100
1000
0001
,
1000
0010
0100
0001
1000
0100
0010
0001
,
0010
0100
1000
0001
0100
0010
0100
0001
,
0100
0010
1000
0001
1000
0100
1000
0001
,
0100
0010
1000
0100
0010
0100
1000
0001
,
0100
0000
0000
0000
0010
0000
1000
0000
0010
0000
0100
0000
0001
0100
0010
0100
,
0002
0000
0203
0000
,
0310
1000
0100
1000
0001
1000
0010
0100
,
0001
1000
0100
0010
0100
1000
0001
0100
,
0010
1000
0100
0010
0100
1000
0001
0010
,
0100
1000
0001
0010
0001
1000
0010
0100
,
0001
0100
0010
1000
0100
0000
0010
0000
0001
0100
0010
1000
0001
0000
0000
0000
,
1000
0100
0010
0001
0100
0010
1000
0001
0100
0010
1000
0001
0010
0100
1000
0100
,
0010
0001
0100
0010
1000
0100
0010
0100
1000
0001
0100
0010
1000
0100
0010
0001
,
0100
0000
0000
0000
,
0010
1000
0010
1000
0001
0100
0010
1000
,
0100
0010
0100
1000
0001
0100
0010
1000
,
0100
0010
0001
0100
0010
1000
0001
0100
,
0010
1000
0100
0010
0100
1000
0001
0100
,
0101
1010
0110
1001
,
0001
0100
0010
1000
0100
1000
0001
0100
,
0010
1000
0001
0100
0010
1000
0100
0010
0100
1000
0001
0100
0010
1000
0001
0100
,
0002
0000
2003
0000
,
3001
0100
0010
1000
0100
1000
0001
0010
0100
1000
0100
0010
0100
1000
0001
0100
,
0010
1000
0100
0010
0100
1000
0001
0100
0010
1000
0100
0010
0001
0010
0100
1000
,
0001
0100
0010
1000
0100
0010
0100
1000
0001
0100
0010
1000
0100
0010
0001
0100
,
0010
1000
0100
0010
0100
1000
0001
0100
0010
1000
0100
0010
0100
1000
0001
0100
,
0010
1000
0100
0010
0001
0100
0010
0100
0001
0100
0010
1000
0001
0100
0010
1000
,
0100
0010
0100
1000
0001
0100
0010
1000
0100
0010
0100
1000
0001
0010
0100
1000
,
0100
0010
0100
1000
0001
0100
0010
1000
0100
0010
0001
0100
0010
1000
0001
0010
,
0100
1000
0100
0010
0100
1000
0001
0100
0010
1000
0100
0010
0100
1000
0001
0100
,
0001
0000
0100
0000
0010
1000
0100
1000
,
0001
0400
0000
0000
0310
1000
0001
1000
,
0100
1000
0001
0100
0010
1000
0100
0010
,
0100
1000
0000
0000
0001
0100
0010
1000
,
0100
0010
0100
0010
0001
0100
0001
0100
,
0010
1000
0010
1000
0001
0010
0001
0010
,
0100
1000
0100
1000
0001
0100
0001
0100
,
0010
1000
0010
1000
0001
0100
0001
0100
,
0010
1000
0010
1000
0001
0100
0010
1000
,
0010
0100
0001
1000
0100
0010
0100
1000
,
0001
0100
0010
1000
0010
1000
0001
0100
,
0010
1000
0000
0001
0100
0010
1000
0100
,
0010
0000
0001
0000
0100
0010
1000
0100
1000
0001
0100
0010
1000
0100
0010
0001
,
0100
0010
1000
0100
1000
0001
0100
0010
,
1000
0100
0010
0100
1000
0001
0010
0100
,
1000
0100
0010
0100
1000
0001
1000
0010
1000
0100
0010
0100
1000
0001
0100
0010
,
1000
0000
0010
0000
0100
0001
0100
0010
1000
0100
0010
0100
1000
0001
0100
0010
,
1000
0010
0100
0001
1000
0100
0010
0100
1000
0001
0100
0010
1000
0010
0100
0001
,
1000
0100
0010
0100
1000
0001
0010
0100
1000
0100
0010
0001
0100
0010
1000
0001
,
1000
0010
0100
0001
0100
0010
1000
0001
0010
0100
1000
0100
0010
0001
0100
0010
,
1000
0001
0100
0010
1000
0100
0010
0100
1000
0001
0010
0100
1000
0001
0010
0001
,
0100
0010
1000
0001
0100
0010
1000
0100
0010
0001
0010
0100
1000
0001
0100
0010
,
0100
0001
0010
0100
1000
0001
0100
0010
0100
0001
0100
0010
1000
0001
0100
0010
,
1000
0100
0010
0100
1000
0001
0100
0010
1000
0100
0010
0100
1000
0001
0100
0010
,
1000
0001
0100
0010
1000
0001
0010
0100
1000
0100
0010
0001
0100
0010
0100
0001
,
0010
0100
1000
0100
0010
0001
0100
0010
0100
0001
0010
0100
1000
0001
0100
0010
,
0100
0001
0100
0010
1000
0100
0010
0001
0100
0010
1000
0001
0100
0010
1000
0001
,
0100
0010
1000
0001
0010
0100
1000
0100
0010
0001
0100
0010
1000
0001
0010
0100
,
1000
0100
0010
0001
0100
0010
0100
0001
0010
0100
1000
0100
0010
0001
0100
0010
,
1000
0001
0100
0010
1000
0100
0010
0001
0010
0100
1000
0001
0100
0010
1000
0100
,
0010
0001
0100
0010
1000
0001
0100
0010
1000
0100
0010
0100
1000
0001
0100
0010
,
1000
0010
0100
0001
1000
0100
0010
0001
0010
0100
1000
0001
0100
0010
1000
0001
,
4000
0000
0000
0000
,
3010
0000
0100
0000
,
0004
0000
0000
0000
,
1003
0010
0000
0010
,
4000
3020
0230
0302
,
1003
0040
0030
0400
,
0301
0040
0130
2000
,
0000
3000
0020
0000
,
0430
0000
0000
0000
,
0304
0000
0000
0000
,
0403
0000
0000
0000
,
0310
0000
1000
0001
0100
0000
0010
0000
,
1000
0000
0001
0000
0100
0010
1000
0000
,
0001
0400
0000
0000
,
0340
0000
0000
0000
,
4030
0000
0000
0000
,
3001
0000
0100
0000
0010
1000
0000
0010
,
0000
0000
0100
0000
0001
0100
0010
1000
0100
0010
0100
1000
0001
0100
0010
1000
,
0100
0010
0100
1000
0001
0100
0010
1000
0100
0010
0100
1000
0001
0010
0100
1000
,
0100
0010
0100
1000
0001
0010
0100
1000
0100
0010
0001
0100
0010
0100
0001
0100
,
0010
1000
0100
0010
0100
1000
0010
0100
0001
0010
0100
1000
0001
0100
0010
1000
,
0100
0010
0100
1000
0001
0010
0100
1000
0100
0010
0100
1000
0001
0100
0010
1000
,
0100
0010
0100
1000
0001
0100
0010
1000
0100
0010
0001
0100
0010
1000
0001
0010
,
0100
1000
0001
0100
0010
1000
0010
0100
0010
1000
0001
0100
0010
1000
0100
0010
,
0100
1000
0010
0100
0010
1000
0100
0010
0100
1000
0010
0100
0010
1000
0100
0010
,
0100
1000
0010
0100
0010
1000
0100
0010
0100
1000
0100
0010
0100
1000
0100
0010
,
0100
1000
0001
0100
0010
1000
0001
0010
0001
0100
0010
0100
0001
0010
0100
0010
,
0001
0010
0100
0010
0100
0010
0001
0100
0010
0100
0001
0100
0010
0100
0001
0100
,
0010
0100
0001
1000
0100
0010
0100
1000
,
0001
0100
0010
1000
0100
0010
0100
1000
,
0001
0100
0000
0100
0010
0000
1000
0000
,
1010
0000
0200
0301
,
1000
0010
0100
0001
1000
0010
0100
0001
0010
0001
0100
0010
1000
0010
0100
0001
,
0100
0010
1000
0100
0010
0100
1000
0001
0010
0100
1000
0100
0010
0100
1000
0001
,
0100
0010
1000
0001
0100
0010
1000
0100
0010
0100
1000
0001
0100
0010
1000
0100
,
0010
0100
1000
0001
0100
0010
1000
0100
0010
0100
1000
0001
0010
0100
1000
0100
,
1000
0100
0010
0100
1000
0001
0010
0100
1000
0100
0010
0001
0100
0010
1000
0001
,
1000
0010
0100
0001
0100
0010
1000
0001
0010
0100
1000
0100
0010
0001
0100
0010
,
1000
0001
0100
0010
1000
0100
0010
0100
1000
0001
0010
0100
1000
0001
0010
0001
,
0100
0010
1000
0001
0100
0010
1000
0100
0010
0001
0010
0100
1000
0001
0100
0010
,
0100
0001
0010
0100
1000
0001
0100
0010
0100
0001
0100
0010
1000
0001
0100
0010
,
1000
0100
0010
0100
1000
0001
0100
0010
1000
0100
0010
0100
1000
0001
0100
0010
,
1000
0001
0100
0010
1000
0001
0010
0100
1000
0100
0010
0001
0100
0010
0100
0001
,
0010
0100
1000
0100
0010
0001
0100
0010
0100
0001
0010
0100
1000
0001
0100
0010
,
0100
0001
0100
0010
1000
0100
0010
0001
0100
0010
1000
0001
0100
0010
1000
0001
,
0100
0010
1000
0001
0010
0100
1000
0100
0010
0001
0100
0010
1000
0001
0010
0100
,
1000
0100
0010
0001
0100
0010
0100
0001
0010
0100
1000
0100
0010
0001
0100
0010
,
1000
0001
0100
0010
1000
0100
0010
0001
0010
0100
1000
0001
0100
0010
1000
0100
,
1000
0100
0010
0100
1000
0001
0010
0100
1000
0100
0010
0001
0100
0010
1000
0001
,
1000
0010
0100
0001
0100
0010
1000
0001
0010
0100
1000
0100
0010
0001
0100
0010
,
1000
0001
0100
0010
1000
0100
0010
0100
1000
0001
0010
0100
1000
0001
0010
0001
,
0100
0010
1000
0001
0100
0010
1000
0100
0010
0001
0010
0100
1000
0001
0100
0010
,
0100
0001
0010
0100
1000
0001
0100
0010
0100
0001
0100
0010
1000
0001
0100
0010
,
1000
0100
0010
0100
1000
0001
0100
0010
1000
0100
0010
0100
1000
0001
0100
0010
,
1000
0001
0100
0010
1000
0001
0010
0100
1000
0100
0010
0001
0100
0010
0100
0001
,
0010
0100
1000
0100
0010
0001
0100
0010
0100
0001
0010
0100
1000
0001
0100
0010
,
0100
0001
0100
0010
1000
0100
0010
0001
0100
0010
1000
0001
0100
0010
1000
0001
,
0100
0010
1000
0001
0010
0100
1000
0100
0010
0001
0100
0010
1000
0001
0010
0100
,
1000
0100
0010
0001
0100
0010
0100
0001
0010
0100
1000
0100
0010
0001
0100
0010
,
1000
0001
0100
0010
1000
0100
0010
0001
0010
0100
1000
0001
0100
0010
1000
0100
,
1000
0001
0100
0010
0100
0001
0010
0100
1000
0001
0100
0010
1000
0100
0010
0100
,
0010
0001
0100
0010
1000
0001
0100
0010
1000
0100
0010
0100
1000
0001
0100
0010
,
1000
0001
0100
0010
1000
0100
0010
0001
0100
0010
1000
0001
0100
0010
1000
0100
,
0004
0000
0000
0000
,
0103
0010
1000
0100
0010
0100
1000
0001
,
0100
0010
1000
0100
1000
0001
0100
0010
,
4000
0000
0000
0000
0000
0000
0000
0000
0000
0000
0000
0000
3010
0000
0000
0100
0000
0000
0001
0000
0000
0100
0000
0000
0010
0000
0000
0000
0000
0000
1000
0000
0000
0000
0000
0000
0001
0000
0000
0000
0100
0000
0000
0000
0001
0000
0000
0000
,
0040
0000
0430
0000
1300
0001
0100
1000
,
0100
0000
0001
0000
0100
0000
0010
0000
1000
0001
0100
0010
1000
0100
0010
0100
,
0010
0001
0100
0010
1000
0001
0100
0010
,
4000
0000
0000
0000
0000
0000
3001
0000
0100
0000
0010
0000
1000
0000
0000
0001
0000
0000
0100
0000
0010
0000
1000
0000
,
0004
0000
0103
0010
1000
0100
1000
0100
,
1000
0001
0200
0000
0000
0000
0300
0000
,
1000
0000
0100
0000
0010
0000
0100
0000
1000
0000
0000
0000
0001
0100
0010
1000
,
0001
0100
0010
1000
0100
0010
0001
0100
0010
0000
0000
0000
1000
0000
0000
0000
,
0001
0100
0010
0000
0000
0000
0000
0000
;
