#TITLE:No Spirits, No Bodies;
#SUBTITLE:;
#ARTIST:TheMetea11;
#TITLETRANSLIT:;
#SUBTITLETRANSLIT:;
#ARTISTTRANSLIT:;
#CREDIT:Mad Matt;
#BANNER:../Tachyon Delta-bn.png;
#BACKGROUND:../Tachyon Delta-bg.png;
#LYRICSPATH:;
#CDTITLE:;
#MUSIC:No Spirits, No Bodies.ogg;
#OFFSET:0.000;
#SAMPLESTART:42.572;
#SAMPLELENGTH:12.000;
#SELECTABLE:YES;
#DISPLAYBPM:165.000;
#BPMS:0.000=165.000;
#STOPS:;
#BGCHANGES:;
// cache tags:
#FIRSTBEAT:8.000;
#LASTBEAT:356.000;
#SONGFILENAME:Songs/Tachyon Delta/No Spirits, No Bodies - [Mad Matt]/No Spirits, No Bodies.sm;
#HASMUSIC:1;
#HASBANNER:1;
#MUSICLENGTH:132.098;
// end cache tags

//---------------dance-single - Mad Matt----------------
#NOTES:
     dance-single:
     Mad Matt:
     Challenge:
     15:
     1.000,1.000,0.008,0.295,1.000,1012.000,1.000,39.000,0.000,0.000:

0000
0000
0000
0000
,
0000
0000
0000
0000
,
1000
0100
0010
0001
0100
0001
1000
0100
,
1000
0010
0100
0001
0010
0001
1000
0010
,
1000
0100
0010
0001
0100
0001
1000
0010
,
1000
0100
0010
0100
1000
0001
0100
0010
1000
0100
0010
0100
1000
0001
0100
0000
,
0100
0000
0100
0000
0100
0000
0100
0000
0001
0000
0001
1000
0001
1000
0001
1000
,
0010
0100
0010
1000
0001
0010
0100
1000
0010
0100
0010
1000
0100
0000
0010
0000
,
0001
0100
0001
1000
0100
0010
0001
0100
,
0001
0010
0100
1000
0001
1000
0010
1000
0001
0010
0100
1000
0010
1000
0100
1000
,
0001
0100
0010
1000
0100
1000
0001
0100
0001
1000
0100
0000
1000
0001
0100
0010
,
0100
0001
0010
0100
1000
0001
0010
0100
1000
0010
0100
0010
1000
0001
0010
0000
,
0100
1000
0001
0100
0200
0000
0000
0000
,
0302
0000
2003
3200
,
1300
0000
0000
0001
0000
0000
0100
0000
0000
0010
0000
0000
0400
0000
0000
0000
0000
0300
0001
0000
0000
1000
0000
0000
,
0100
0010
0001
1000
0010
1000
0200
0000
,
1300
0010
1000
0001
0010
0100
1000
0001
,
1000
0010
0100
0001
1000
0010
0100
0001
1000
0010
0100
0001
1000
0100
0010
0000
,
0001
1000
0100
0010
0001
1000
0100
0010
0001
1000
0100
0010
0001
0100
0010
0000
,
1000
0010
1000
0010
1000
0010
0200
0000
,
0301
1000
0100
1000
0001
0100
0001
1000
,
0100
0000
0000
1000
0000
0000
0001
0010
0100
1000
0001
1000
0100
0010
0001
1000
0100
0010
0001
1000
0001
0010
0100
1000
,
0001
0100
0001
1000
0010
1000
0001
0100
0010
1000
0001
1000
0100
0010
0001
1000
0001
0010
0100
1000
0001
0010
0100
1000
,
0001
0100
0010
1000
0001
1000
0010
0100
0001
0100
0010
1000
0001
0010
0100
1000
0001
1000
0100
0010
0001
0010
0100
1000
,
0002
0000
0000
0000
0000
0000
0403
0000
0000
0000
0000
0300
0002
0000
0000
0000
0000
0000
0043
0000
0000
0000
0000
0030
,
0002
0000
2003
0000
3001
0010
0100
1000
,
0001
0010
0100
1000
0001
1000
0100
0010
0001
0010
0001
1000
0001
0100
0010
1000
0001
1000
0010
0100
0001
0100
0001
1000
,
0100
0010
0001
1000
0001
0010
0100
1000
0001
1000
0010
0100
0001
1000
0010
1000
0001
0100
0001
1000
0010
1000
0001
0010
,
0001
1000
0100
1000
0001
0100
0001
1000
0010
0100
0001
1000
0001
0010
0100
1000
0001
1000
0100
0010
0001
1000
0001
1000
,
0010
0100
0001
1000
0010
0100
0001
1000
0010
0200
0000
0000
0000
0000
0000
0000
0000
0000
0000
0000
0000
0000
0000
0000
,
0301
1000
0100
0010
0100
1000
0001
0100
0001
2000
0000
0000
,
3002
0000
0000
0000
0000
0000
0000
0000
0000
0000
0000
0000
0023
0000
0000
0000
0000
0000
0000
0000
0000
0031
1000
0001
,
1000
0010
0100
0001
1000
0001
0010
0001
0100
0001
1000
0100
1000
0010
1000
0000
,
0001
0020
0000
0000
0230
0000
0000
0000
,
1300
0100
0010
0001
1000
0100
1000
0001
1000
0100
0010
0001
1000
0010
1000
0001
,
0100
0010
1000
0001
1000
0100
1000
0001
0100
0010
1000
0001
0010
0100
1000
0010
,
0100
0001
0100
0001
0100
0001
0100
0001
1000
0100
0010
0001
0100
0010
1000
0001
,
0010
0100
0010
0001
1000
0010
0200
0000
,
0310
1000
0001
0010
0400
0000
0000
0000
,
1300
0001
0100
0010
1000
0001
1000
0001
0010
0100
1000
0001
2000
0000
0000
0000
0000
0000
0000
0000
0000
0000
0000
0000
,
3001
0000
0010
0000
0100
0000
1000
0000
0001
0000
0010
0000
0001
1000
0001
0100
,
0001
0000
0000
0010
0000
0000
0100
0000
0000
1000
0000
0000
0001
0000
0000
0010
0000
0000
0001
1000
0001
0100
0001
1000
,
0010
0000
0000
1000
0000
0000
0010
0000
0000
0100
0000
0000
0001
0000
0000
1000
0000
0000
0001
1000
0001
0010
0001
1000
,
0100
0000
1000
0000
0100
0000
1000
0000
0001
0000
0100
0000
0001
1000
0001
1000
,
0001
0010
0100
0010
0001
0100
0001
1000
0010
0100
0010
1000
0100
1000
0010
1000
,
0001
0010
0100
1000
0001
0100
0001
1000
0010
1000
0001
0010
0100
1000
0001
0100
0001
1000
0020
0000
0000
0000
0000
0000
,
0230
0000
0000
0000
,
0302
0000
0000
0000
1003
0010
1000
0010
0100
0001
0100
0001
1000
0100
1000
0100
,
0010
0001
1000
0010
1000
0001
0010
0100
,
1000
0010
1000
0001
0200
0000
0000
0301
,
1000
0000
0000
0000
0100
0000
0000
0000
1000
0000
0000
0000
0001
0000
0000
0000
1000
0000
0000
0000
0020
0030
0000
0000
0100
0000
0000
0000
0020
0030
0000
0000
,
1000
0001
0010
0100
1000
0010
1000
0001
,
0200
0320
2030
3002
,
1003
0100
1000
0001
0010
0100
1000
0100
1000
0001
0100
0001
1000
0010
0100
0001
1000
0001
0100
0010
0100
0001
1000
0001
,
1000
0100
0010
0001
1000
0001
0010
0100
1000
0001
1000
0001
0100
0001
1000
0010
0100
0001
1000
0001
1000
0010
0100
0001
,
1000
0100
0010
0001
0100
0001
1000
0010
1000
0100
0010
0001
0100
0001
1000
0010
,
1000
0100
1000
0001
0100
0010
1000
0001
,
0010
0100
1000
0100
0010
0001
0100
0001
2000
0000
0000
0000
3100
0010
0100
1000
,
0001
0010
0100
1000
0010
0100
0001
0010
,
0001
0000
0100
0000
0010
0000
1000
0000
0100
0000
0010
0000
0001
1000
0001
0000
,
1000
0100
0010
0001
0100
0010
1000
0100
,
1000
0010
0100
0001
0010
0100
0010
0001
,
1000
0010
1000
0100
1000
0001
0010
0100
,
1000
0000
0000
0001
0000
0000
1000
0000
0000
0000
0000
0000
0010
0000
0000
0000
0000
0000
0100
0000
0000
0000
0000
0000
0001
0000
0000
1000
0000
0000
0001
0000
0000
0000
0000
0000
1000
0000
0100
0000
1000
0000
0100
0000
1000
0000
0100
0000
,
1000
0001
0010
0100
1000
0100
0010
0001
1000
0001
0100
0010
1000
0001
1000
0100
,
0020
0000
0000
0000
,
0032
0000
0000
0000
,
2003
0000
3200
0000
,
0320
0000
0000
0000
,
0032
0000
0000
0000
,
0023
0000
0000
0000
,
0230
0000
2300
0000
,
3001
1000
0010
1000
0100
1000
0010
0100
0001
1000
0010
1000
0100
1000
0001
0100
,
0010
1000
0001
0010
0001
0100
0001
1000
0010
0100
0001
0010
0001
0100
0001
1000
,
0010
0100
0001
1000
0001
0010
0001
0100
0001
1000
0100
1000
0001
0100
0010
1000
,
0001
1000
0100
1000
0010
0100
0001
1000
0001
0010
0001
0100
0001
1000
0010
1000
,
0001
1000
0100
1000
0010
0100
0001
1000
0100
1000
0010
1000
0001
0100
0010
1000
,
0001
0010
0001
1000
0100
1000
0010
1000
0001
0100
0010
1000
0001
0010
0100
1000
,
0010
1000
0100
1000
0010
0100
0001
0010
0001
0100
0001
1000
0100
0010
0001
1000
,
0100
1000
0010
1000
0001
0010
0100
1000
0001
0100
0001
0010
0001
1000
0010
0100
,
0001
0000
0000
1000
0000
0000
0100
0000
0000
1000
0000
0000
0010
0000
0000
1000
0000
0000
0001
0000
0000
0010
0000
0000
0100
0000
0000
0010
0000
0000
0001
0000
0000
1000
0000
0000
0010
0000
0100
0000
0001
0000
0100
0000
0010
0000
1000
0000
,
0001
0000
1000
0000
0100
0000
0010
0000
0001
0000
1000
0000
0001
0000
0000
0010
0000
0000
0100
0000
0000
0010
0000
0000
0001
0000
0000
1000
0000
0000
0010
0000
0000
1000
0000
0000
0001
0000
0000
0100
0000
0000
0010
0000
0000
1000
0000
0000
,
0010
0100
0001
1000
0001
0010
0001
0100
0001
1000
0100
1000
0001
0100
0010
1000
,
0001
1000
0100
1000
0010
0100
0001
1000
0001
0010
0001
0100
0001
1000
0010
1000
,
0001
1000
0100
1000
0010
0100
0001
1000
0100
1000
0010
1000
0001
0100
0010
1000
,
0001
0010
0001
1000
0100
1000
0010
1000
0001
0100
0010
1000
0001
0010
0100
1000
,
0010
1000
0100
1000
0010
0100
0001
0010
0001
0100
0001
1000
0100
0010
0001
1000
,
0010
0000
0000
1000
0000
0000
0001
0000
0000
0010
0000
0000
0001
0000
0000
1000
0000
0000
0100
0000
0000
1000
0000
0000
0010
0000
0100
0000
0001
0000
0100
0000
0010
0000
1000
0000
0001
0000
1000
0000
0100
0000
0010
0000
0001
0000
1000
0000
,
0002
0000
0000
0000
,
0003
0000
0000
0000
;
