#TITLE:ABSOLUTE;
#SUBTITLE:;
#ARTIST:dj TAKA;
#TITLETRANSLIT:;
#SUBTITLETRANSLIT:;
#ARTISTTRANSLIT:;
#CREDIT:;
#BANNER:ABSOLUTE.png;
#BACKGROUND:ABSOLUTE-bg.png;
#LYRICSPATH:;
#CDTITLE:cdtitle.png;
#MUSIC:ABSOLUTE.mp3;
#OFFSET:-1.731;
#SAMPLESTART:20.020;
#SAMPLELENGTH:12.000;
#SELECTABLE:YES;
#DISPLAYBPM:144.000;
#BPMS:0.000=144.000,234.000=133.630,235.000=120.480,236.000=114.070,236.500=110.700,237.000=89.550,237.500=87.720,238.000=85.470,239.000=70.590,239.500=50.180;
#STOPS:;
#BGCHANGES:;
// cache tags:
#FIRSTBEAT:8.000;
#LASTBEAT:242.500;
#SONGFILENAME:Songs/juju steps/Absolute/ABSOLUTE.sm;
#HASMUSIC:1;
#HASBANNER:1;
#MUSICLENGTH:110.009;
// end cache tags

//---------------dance-single - ----------------
#NOTES:
     dance-single:
     :
     Hard:
     10:
     0.857,0.909,0.209,0.482,0.964,583.000,23.000,53.000,0.000,11.000:
0000
0000
0000
0000
,
0000
0000
0000
0000
,
1001
0000
0000
0100
0010
0100
1000
0000
0000
0001
0000
0000
0100
0000
0000
0010
0100
0010
1000
0000
0000
0110
0000
0000
,
1001
0010
0100
1000
0001
0100
0010
1000
0001
0010
0001
1000
0010
1000
0100
0010
,
1001
0000
0000
0100
0001
0100
0010
0000
0000
0100
0000
0000
1000
0000
0000
0001
0010
0001
1000
0000
0000
0101
0000
0000
,
1010
0100
0001
0100
0001
1000
0010
1000
0010
0100
0001
0010
0001
1000
0100
0010
,
0101
0000
0000
1000
0010
1000
0001
0000
0000
0100
0000
0000
0011
0000
0000
0001
1000
0001
0100
0000
0000
0010
0000
0000
,
1001
0100
0010
0100
1000
0010
0100
0001
0010
0001
0100
0001
1000
0010
1000
0100
,
1000
0100
0010
0001
0010
0100
1000
0010
0100
0001
0010
0001
1000
0010
0100
0010
,
1000
0001
0100
0001
1000
0100
0010
0100
0010
0001
0010
0100
0010
0100
0010
0001
,
1000
0100
0010
0001
1000
0100
0010
0001
2000
0000
0100
0100
0100
0000
0100
0100
,
3100
0000
0000
0010
0001
0010
0100
0000
0000
1000
0000
0000
0100
0000
0000
0010
0100
0010
0001
0000
0000
0010
0000
0000
,
0100
1000
0100
0010
0001
0100
0010
1000
0010
0100
0010
1000
0001
0010
0001
1000
,
0001
0000
0000
1000
0010
1000
0001
0000
0000
1000
0000
0000
0010
0000
0000
0100
0001
0100
0010
0000
0000
1000
0000
0000
,
0001
0010
0100
0010
0100
1000
0010
0100
0001
0010
0100
1000
0001
1000
0010
0100
,
0001
0000
0010
0100
0000
0000
1000
0000
0100
0000
0010
0001
0000
0000
0020
0030
,
0100
1000
0000
0000
1000
0100
0000
0010
0000
0100
0000
0010
0000
0001
1000
0000
,
1000
0000
0001
1000
0000
0000
1000
0000
0010
0000
0100
0010
0000
0000
2000
3000
,
0001
0100
0000
0010
0000
1000
0000
0001
0000
1000
0000
0100
0000
0010
0000
0001
,
0010
0001
0000
1000
0000
0001
0010
0100
1000
0100
0010
0001
0100
0010
0000
0100
,
0110
0000
0001
0100
0000
0000
0010
0000
1000
0000
0010
0100
0000
0000
0002
0003
,
1000
0100
1000
0000
0001
0010
0000
0100
0000
1000
0000
0001
0010
0100
1000
0100
,
1000
0000
0010
1000
0000
0000
0001
0000
0100
0000
0001
1000
0000
0000
0020
0030
,
0100
0000
0001
0000
0100
0000
0000
0010
0000
0010
1000
0010
1000
0100
1000
0100
,
1000
0000
1000
0100
0000
0000
0100
0000
0010
0000
0100
1000
0000
0000
2000
3000
,
0001
0010
0100
0000
1000
0001
0000
0010
0000
0100
0000
0010
0000
0100
1000
0000
,
0001
0000
1000
0010
0000
0000
0100
0000
0010
0000
1000
0010
0000
0000
0200
0300
,
0001
0010
0100
1000
0001
0100
0010
1000
0001
0010
0001
0100
0010
0100
0001
1000
,
0100
0010
0100
1000
0100
0010
0001
0010
0200
0300
1000
1000
0001
0000
1000
0000
,
1002
0100
1000
0100
,
2103
0001
3120
0001
,
0230
0300
0001
0000
1000
0000
0100
0010
0001
0000
1000
0000
0010
0000
0100
0010
,
0100
0001
1000
0010
0200
0000
0300
0000
,
2101
0001
0100
3001
,
0102
1000
0100
0010
,
0203
0300
1000
0000
0100
0000
0010
0000
0001
0000
1000
0000
0100
0000
0010
0000
,
0100
0010
0100
0010
0220
0032
0023
0032
,
1313
0000
0000
0000
0010
0000
0001
0000
0000
0001
1000
0000
2000
3000
0001
0000
,
0020
0030
0000
0000
0200
0300
1000
0000
2000
3001
1000
0000
0020
0030
1000
0001
,
0000
0001
1000
0000
0100
0000
1000
0000
0000
0001
0010
0000
0200
0300
0010
0000
,
0000
0000
0000
0000
0200
0300
1000
0000
0000
1000
0001
0000
0002
0003
0100
0000
,
0020
0030
0000
0000
0001
0000
0100
0000
0000
0010
0100
0000
0001
0000
0100
0000
,
0000
0000
0020
1000
0230
0000
0320
0000
,
1031
0000
0110
0200
,
1310
0000
0000
0000
0000
0000
0000
0000
1000
0100
1000
0100
0010
0001
0010
0001
,
2000
3000
0001
0000
1000
0000
0010
0000
0000
0010
1000
0000
0002
0003
0010
0000
,
0200
0300
0000
0000
2000
3000
0010
0000
2000
3001
1000
0000
0002
0003
1000
0001
,
0000
0100
0010
0000
1000
0000
0100
0000
0000
0010
0001
0000
2000
3000
0001
0000
,
0000
0000
0000
0000
0200
0300
0001
0000
0002
1003
0010
0000
2000
3000
0100
0000
,
0020
0030
0000
0000
0001
0000
0100
0000
0000
0010
0100
0000
0001
0000
0100
0000
,
0000
2000
3020
2030
,
3011
0000
0000
0000
1100
0000
0200
0320
,
1030
0000
0100
0000
0010
0000
0001
0000
1000
0100
0010
0001
1000
0100
0010
0001
,
1000
0000
0000
0001
0100
0001
1000
0000
0000
0010
0000
0000
0100
0000
0000
0010
0100
0010
1000
0000
0000
0001
0000
0000
,
1000
0100
1000
0010
0100
0001
0100
0010
0100
0010
1000
0100
0010
0001
0010
0100
,
1000
0000
0000
0100
0010
0100
1000
0000
0000
0001
0000
0000
0010
0000
0000
0001
0100
0001
0010
0000
0000
0100
0000
0000
,
1000
0100
1000
0010
0100
0010
1000
0100
0010
0100
1000
0001
0010
0100
1000
0001
,
1000
0000
0000
0001
1000
0001
0100
0000
0000
0010
0000
0000
0100
0000
0000
0010
0100
0010
1000
0000
0000
0001
0000
0000
,
1000
0100
0010
0100
0010
0001
1000
0100
1000
0001
0100
0001
0010
0001
1000
0001
,
0100
0000
0000
0010
0100
0010
1000
0000
0000
0001
0000
0000
0010
0000
0000
0100
1000
0100
0010
0000
0000
0001
0000
0000
,
2200
0000
0000
0000
0000
0000
0000
0000
0000
0000
0000
0000
0000
0000
0000
0000
0000
0000
0000
0000
0000
0020
0000
0000
0000
0000
0000
0000
0000
0000
0000
0000
0000
0000
0000
0000
0000
0000
0000
0000
3330
0000
0000
0000
0000
0000
0000
0000
0000
0000
0000
0000
0000
0000
0000
0000
0000
0000
0000
0000
0000
0000
0000
0000
;

//---------------dance-single - Copied from----------------
#NOTES:
     dance-single:
     Copied from:
     Challenge:
     11:
     0.973,1.000,1.000,0.482,0.964,583.000,112.000,53.000,0.000,14.000:
0000
0000
0000
0000
,
0000
0000
0000
0000
,
1001
0000
0000
0100
0010
0100
1000
0000
0000
0001
0000
0000
0100
0000
0000
0010
0100
0010
1000
0000
0000
0110
0000
0000
,
1001
0010
0100
1000
0001
0100
0010
1000
0001
0010
0101
1000
0010
1000
0101
0010
,
1001
0000
0000
1100
0001
0100
0010
0000
0000
0110
0000
0000
1000
0000
0000
0101
0010
0001
1000
0000
0000
0101
0000
0000
,
1010
0100
1001
0100
0001
1000
0110
1000
0010
0100
1001
0010
0001
1000
0101
0010
,
0101
0000
0000
1001
0010
1000
0001
0000
0000
1100
0000
0000
0011
0000
0000
0101
1000
0001
0100
0000
0000
0110
0000
0000
,
1001
0100
0011
0100
1000
0010
1100
0001
0010
0001
0110
0001
1000
0010
1001
0100
,
1000
0100
1010
0001
0010
0100
1001
0010
0100
0001
0110
0001
1000
0010
0101
0010
,
1000
0001
1100
0001
1000
0100
0011
0100
0010
0001
1010
0100
0010
0100
1010
0001
,
1000
0100
1010
0001
1000
0100
1010
0001
2000
0000
0100
0100
0100
0000
0100
0100
,
3110
0000
0000
0010
0001
0010
1100
0000
0000
1000
0000
0000
0110
0000
0000
0010
0100
0010
1001
0000
0000
0010
0000
0000
,
0110
1000
0100
0010
1001
0100
0010
1000
0011
0100
0010
1000
0101
0010
0001
1000
,
0011
0000
0000
1000
0010
1000
0101
0000
0000
1000
0000
0000
0011
0000
0000
0100
0001
0100
1010
0000
0000
1000
0000
0000
,
1001
0010
0100
0010
0101
1000
0010
0100
1001
0010
0100
1000
0101
1000
0010
0100
,
0011
0000
0010
0100
0000
0000
1000
0000
0100
0000
0010
0001
0000
0000
0020
0030
,
0100
1000
0000
0000
1000
0100
0000
0010
0000
0100
0000
0010
0000
0001
1000
0000
,
1000
0000
0001
1000
0000
0000
1000
0000
0010
0000
0100
0010
0000
0000
2000
3000
,
0001
0100
0000
0010
0000
1000
0000
0001
0000
1000
0000
0100
0000
0010
0000
0001
,
0010
0001
0000
1000
0000
0001
0010
0100
1000
0100
0010
0001
0100
0010
0000
0100
,
0110
0000
0001
0100
0000
0000
0010
0000
1000
0000
0010
0100
0000
0000
0002
0003
,
1000
0100
1000
0000
0001
0010
0000
0100
0000
1000
0000
0001
1010
0100
1000
0100
,
1001
0000
0010
1000
0000
0000
0001
0000
0100
0000
0001
1000
0000
0000
0020
0030
,
0100
0000
0001
0000
0100
0000
0000
0010
0000
0010
1000
0010
1001
0100
1000
0100
,
1010
0000
1000
0100
0000
0000
0100
0000
0010
0000
0100
1000
0000
0000
2000
3000
,
0001
0010
0100
0000
1000
0001
0000
0010
0000
0100
0000
0010
0000
0100
1000
0000
,
0001
0000
1000
0010
0000
0000
0100
0000
0010
0000
1000
0010
0000
0000
0200
0300
,
1001
0010
0100
1000
0011
0100
0010
1000
0101
0010
0001
0100
1010
0100
0001
1000
,
0100
0010
0100
1000
0100
0010
0001
0010
0200
0300
1000
1000
0001
0000
1000
0000
,
1002
0100
1000
0100
,
2103
0001
3120
0001
,
1230
0300
0001
0000
0011
0000
0100
0010
0101
0000
1000
0000
0110
0000
0100
0010
,
0101
0001
1100
0010
0210
0000
0300
0000
,
2101
0001
0100
3001
,
0102
1000
0100
0010
,
1203
0300
1000
0000
0110
0000
0010
0000
0101
0000
1000
0000
1100
0000
0010
0000
,
0100
0010
0100
0010
0220
0032
0023
0032
,
1313
0000
0000
0000
0010
0000
0001
0000
0000
0001
1000
0000
2000
3000
0001
0000
,
0020
0030
0000
0000
0200
0300
1000
0000
2000
3001
1000
0000
0020
0030
1000
0001
,
0000
0001
1000
0000
0100
0000
1000
0000
0000
0001
0010
0000
0200
0300
0010
0000
,
0000
0000
0000
0000
0200
0300
1000
0000
0000
1000
0001
0000
0002
0003
0100
0000
,
0020
0030
0000
0000
0001
0000
0100
0000
0000
0010
0100
0000
0001
0000
0100
0000
,
0000
0000
0020
1000
0230
0000
0320
0000
,
1031
0000
0110
0200
,
1310
0000
0000
0000
0000
0000
0000
0000
1000
0100
1000
0100
0010
0001
0010
0001
,
2000
3000
0001
0000
1000
0000
0010
0000
0000
0010
1000
0000
0002
0003
0010
0000
,
0200
0300
0000
0000
2000
3000
0010
0000
2000
3001
1000
0000
0002
0003
1000
0001
,
0000
0100
0010
0000
1000
0000
0100
0000
0000
0010
0001
0000
2000
3000
0001
0000
,
0000
0000
0000
0000
0200
0300
0001
0000
0002
1003
0010
0000
2000
3000
0100
0000
,
0020
0030
0000
0000
0001
0000
0100
0000
0000
0010
0100
0000
0001
0000
0100
0000
,
0000
2000
3020
2030
,
3011
0000
0000
0000
1100
0000
0200
0320
,
1030
0000
0100
0000
0010
0000
0001
0000
1000
0100
0010
0001
1000
0100
0010
0001
,
1100
0000
0000
0001
0100
0001
1010
0000
0000
0010
0000
0000
0101
0000
0000
0010
0100
0010
1100
0000
0000
0001
0000
0000
,
1001
0100
1000
0010
1100
0001
0100
0010
0101
0010
1000
0100
1010
0001
0010
0100
,
1010
0000
0000
0100
0010
0100
1010
0000
0000
0001
0000
0000
0110
0000
0000
0001
0100
0001
1010
0000
0000
0100
0000
0000
,
1001
0100
1000
0010
1100
0010
1000
0100
0011
0100
1000
0001
1010
0100
1000
0001
,
1010
0000
0000
0001
1000
0001
0110
0000
0000
0010
0000
0000
1100
0000
0000
0010
0100
0010
1001
0000
0000
0001
0000
0000
,
1010
0100
0010
0100
1010
0001
1000
0100
1010
0001
0100
0001
1010
0100
0010
0100
,
0011
0000
0000
0010
0100
0010
1000
0000
0000
0001
0000
0000
0110
0000
0000
0100
1000
0100
0010
0000
0000
0001
0000
0000
,
2200
0000
0000
0000
0000
0000
0000
0000
0000
0000
0000
0000
0000
0000
0000
0000
0000
0000
0000
0000
0000
0020
0000
0000
0000
0000
0000
0000
0000
0000
0000
0000
0000
0000
0000
0000
0000
0000
0000
0000
3330
0000
0000
0000
0000
0000
0000
0000
0000
0000
0000
0000
0000
0000
0000
0000
0000
0000
0000
0000
0000
0000
0000
0000
;
