#TITLE:Where's The Exit?;
#SUBTITLE:;
#ARTIST:DDR Mario Mix;
#TITLETRANSLIT:;
#SUBTITLETRANSLIT:;
#ARTISTTRANSLIT:;
#CREDIT:;
#BANNER:Where's The Exit-BN.png;
#BACKGROUND:Where's The Exit-BG.png;
#LYRICSPATH:;
#CDTITLE:-SK-.png;
#MUSIC:28 Deguchi wa doko da!.mp3;
#OFFSET:-0.060;
#SAMPLESTART:10.000;
#SAMPLELENGTH:15.000;
#SELECTABLE:YES;
#BPMS:0.000=133.150,31.000=266.300,33.000=133.150,96.000=266.300,98.000=133.150,159.000=266.300,161.000=133.150;
#STOPS:142.750=0.240
,144.250=0.240
,157.750=0.240
,158.750=0.240
;
#BGCHANGES:;
// cache tags:
#FIRSTBEAT:0.000;
#LASTBEAT:229.000;
#SONGFILENAME:Songs/newbie/Where's The Exit/Wtf where's the exit.sm;
#HASMUSIC:1;
#HASBANNER:1;
#MUSICLENGTH:103.137;
// end cache tags

//---------------dance-single - Blank----------------
#NOTES:
     dance-single:
     Blank:
     Challenge:
     11:
     1.000,1.000,1.000,0.204,1.000,635.000,123.000,21.000,0.000,4.000:

0101
0000
0010
0000
1100
0000
0010
0000
0101
0000
0001
0001
1100
0000
0001
0000
,
0010
1000
0002
0000
0013
1000
0002
0000
0013
1000
0010
0100
0001
0010
0002
0000
,
1003
1000
0001
0000
0110
0000
1000
0001
0000
0000
0010
0010
0100
0000
0002
0000
,
0013
0000
0000
0100
0000
0000
0002
0000
0000
0000
0000
0000
0013
0000
0000
0100
0000
0000
0002
0000
0000
0000
0000
0000
1013
0000
0000
0001
0000
0000
0001
0000
0000
0001
0000
0000
1000
0000
0100
0000
0010
0000
0001
0000
0010
0000
0100
0000
,
1000
0000
0000
1000
0000
0000
0001
0000
0000
0001
0000
0000
0100
0000
0000
0100
0000
0000
0010
1000
0010
0100
0001
1000
,
0100
0000
0000
0100
0000
0000
0010
0000
0000
0010
0000
0000
1000
0000
0000
1000
0000
0000
0001
0100
0010
1000
0100
0010
,
0100
0001
0100
1000
0100
0001
0100
1000
,
0110
0000
0110
0001
0001
0110
1000
1000
0110
1000
0100
1000
0002
0000
0000
0000
,
0000
0000
0000
0000
0113
0000
1000
0000
0011
0000
0001
0000
0101
0000
0000
1100
,
0000
0000
0101
0000
1010
0000
1000
0000
1100
0000
0001
0000
0110
0000
0000
1010
,
0000
0000
0011
0000
1100
0000
0010
0000
0101
0000
0001
0000
1010
0000
0000
0011
,
0000
0000
0101
0000
1100
0000
0101
0000
1100
0000
0001
0010
0100
1000
0010
0100
,
0010
1000
0100
1000
0110
0000
0001
0000
1100
0000
1000
0000
1010
0000
0000
0110
,
0000
0000
0101
0000
1100
0000
0001
0000
0110
0000
1000
0000
0011
0000
0000
0110
,
0000
0000
0101
0000
1010
0001
0010
0001
0100
0001
0010
0001
1010
0001
1000
0001
,
0100
0000
0000
0001
0000
0000
1000
0000
0000
0001
0000
0000
1000
0000
0010
0000
0100
0000
0001
0000
0100
0000
0010
0000
1000
0000
0100
0000
0010
0000
0001
0000
0010
0000
0100
0000
1000
0000
0001
0000
0100
0000
0001
0000
1000
0000
0010
0000
,
0100
0000
0100
0000
0001
0100
0010
0000
1100
0000
0001
0100
0000
0000
0010
0000
,
0000
0000
0000
0000
0100
0010
2000
0000
3100
0010
2000
0000
3100
0010
1000
0001
,
0100
0010
2000
0000
3001
0001
1000
0000
0110
0000
1000
0001
0000
0000
0010
0000
,
0000
0000
0000
0000
0100
0001
2000
0000
3010
0001
2000
0000
3100
0001
1000
0001
,
0010
0001
2000
0000
3100
0100
0010
0000
1001
0000
0010
0100
0000
0000
0001
0000
,
0000
0000
0000
0000
1000
0100
2000
0000
3010
0100
2000
0000
3001
0010
0100
1000
,
0100
0010
2000
0000
3001
0001
0100
0000
0101
0000
0001
0100
0000
0000
0010
0000
,
0000
0000
0000
0000
1100
0010
0100
0010
1001
0010
0100
0010
1100
0010
0100
0010
,
2002
0000
0000
0000
0000
0000
0000
0000
3113
0000
0001
0000
1100
0000
0001
1000
,
0001
1000
0000
1000
0010
0000
0010
0000
0110
0000
0001
0000
0101
0000
1000
0100
,
1000
0100
0000
0100
0010
0000
0001
0000
1100
0000
0001
0000
0110
0000
1000
0001
,
1000
0001
0000
0001
0100
0000
0010
0000
1001
0000
0100
0000
1001
0000
0010
0001
,
0010
0001
0000
0001
0110
0000
0001
0000
0110
0000
1000
0000
1100
0000
0001
1000
,
0001
1000
0000
1000
0100
0000
0010
0000
1100
0000
0010
0000
0101
0000
0001
0100
,
0001
0100
0000
0100
0010
0000
1000
0000
0101
1000
0100
1000
0010
1000
0100
1000
,
0101
1000
0100
1000
0001
1000
0100
1000
0101
0010
0100
0010
1100
0010
0100
0010
,
1001
0100
0010
1000
0001
0100
0010
1000
0001
0001
1000
0000
1010
0000
0100
0001
,
0000
0000
1000
0000
0000
0000
0000
0000
1000
0001
1000
0001
0000
0000
0000
0000
,
0001
1000
0001
0010
0001
0100
0000
0000
0100
0100
0010
0000
1001
0000
0100
0010
,
0000
0000
0100
0000
0000
0000
0000
0000
1000
0100
0010
0100
0000
0000
0001
0010
,
0100
0010
1001
0000
1001
0100
0010
0000
0101
0000
1000
0001
0000
0000
0100
0000
,
0011
0000
1000
0000
0110
0001
1000
0001
0110
1000
0001
1000
0110
0001
0010
0001
,
1000
0100
1000
0010
1001
0100
0010
0000
1100
0000
0001
0010
0000
0000
1000
0000
,
0000
0000
0000
0000
0110
0001
1000
0001
0000
0000
0010
0100
2002
0000
0000
0000
,
0000
0000
0000
0000
3113
0000
1000
0000
0011
0000
1000
0000
0101
0000
0000
1100
,
0000
0000
0101
0000
0011
0000
1000
0000
0110
0000
0001
0000
1100
0000
0000
0101
,
0000
0000
1100
0000
0110
0000
0001
0000
1010
0000
0010
0000
1001
0000
0000
1010
,
0000
0000
0011
0000
0110
1000
0001
1000
0110
0001
1000
0001
1100
0010
0100
0010
,
1100
0000
0011
0000
1100
0000
0010
0000
0101
0000
0001
0000
0011
0000
0000
1010
,
0000
0000
0011
0000
1100
0000
0001
0000
0110
0000
1000
0000
0101
0000
0000
1100
,
0000
0000
0011
0000
1100
0010
0100
0010
1001
0100
0010
0100
0011
1000
0100
1000
,
0110
0001
1100
0001
0110
0000
1010
0000
0011
0000
1000
0001
0000
0001
0000
0001
,
1000
0010
1000
0010
1000
0100
0010
0100
1000
0010
0100
0010
1000
0100
1000
0001
,
0010
0100
1000
0010
0100
0010
1000
0100
0010
0100
1000
0010
0100
0001
0010
0001
,
1000
0100
1000
0010
0100
0010
1000
0100
0010
0100
1000
0010
0100
0001
0010
0100
,
0010
0001
0100
0010
1000
0100
1000
0010
0100
0001
0100
0010
1000
0010
1000
0010
,
1000
0000
0001
0000
0100
0000
0001
0000
1000
0000
0010
0000
0100
0000
0000
0010
0000
0000
1000
0000
0000
0001
0000
0000
1000
0000
0000
0100
0000
0000
1000
0000
0000
0010
0000
0000
0100
0000
0000
0010
0000
0000
1000
0000
0000
0100
0000
0000
,
0010
0001
1000
0010
0100
0010
1000
0100
0010
0001
0010
0100
1000
0010
0100
0001
,
0010
0100
0010
0001
1000
0010
0100
0001
1000
0100
1000
0010
0100
0010
0100
0010
,
0100
0000
0011
0000
1100
0010
0100
0010
1001
0100
0010
0100
0011
1000
0100
1000
,
0110
0000
0000
0001
0000
0000
1000
0000
0000
0001
0000
0000
0110
0000
0000
0000
0000
0000
0001
0000
0000
0000
0000
0000
0010
0000
0000
0000
0000
0000
0100
0000
0000
0000
0000
0000
1000
0000
0100
0000
1000
0000
0010
0000
0100
0000
0001
0000
,
0020
0030
0000
0000
;

//---------------dance-single - Blank----------------
#NOTES:
     dance-single:
     Blank:
     Hard:
     10:
     0.928,0.944,0.766,0.039,0.911,587.000,79.000,4.000,0.000,3.000:



1001
0000
0100
0000
1010
0000
0001
0000
1100
0000
0001
0001
0100
0000
0001
0000
,
1000
0100
0000
0000
1000
0100
0000
0000
1000
0100
0010
0001
0100
0010
0000
0000
,
0001
0010
0100
0000
1010
0000
0100
0010
0000
0000
0001
0001
1000
0000
0010
0000
,
0001
1000
0000
0000
0001
1000
0000
0000
0001
1000
0010
0100
0010
1000
0010
0100
,
0001
0000
0001
0000
1000
0000
1000
0000
0010
0000
0010
0000
0100
1000
0100
1000
,
0001
0000
0001
0000
1000
0000
1000
0000
0010
0000
0010
0000
1000
0001
1000
0010
,
1000
1000
0001
0001
0100
0100
0010
0010
,
1000
0000
1000
0000
0000
0001
0000
0000
0100
0000
0000
0000
0002
0000
0000
0000
,
0000
0000
0000
0000
1103
0000
0010
0000
0101
0000
0001
0000
1100
0000
1000
0001
,
1000
0000
0010
0000
1100
0000
0001
0000
0110
0000
1000
0000
0101
0000
0010
0100
,
0010
0000
1000
0000
0110
0000
0001
0000
1100
0000
1000
0000
1010
0000
1000
0001
,
1000
0000
0010
0000
0110
0000
0010
0000
0110
0000
0010
0000
1010
0000
0001
0100
,
0001
0000
0001
0000
1100
0000
0001
0000
0110
0000
1000
0000
0011
0000
1000
0100
,
1000
0000
0001
0000
0110
0000
1000
0000
1010
0000
0010
0000
0110
0000
1000
0100
,
1000
0000
0011
0000
0100
0001
0100
0000
0110
0000
1010
0000
0100
0010
0100
0000
,
1001
0000
0110
0000
1000
0100
0010
0001
1000
0010
0100
0001
1000
0100
0010
0100
,
1000
0001
0100
0001
1000
0000
0001
0000
1000
0000
0010
0100
0000
0000
0001
0000
,
0000
0000
0000
0000
1000
0100
0000
0000
1000
0010
0000
0000
1000
0100
1000
0010
,
0100
0001
0000
0000
1000
0001
0100
0000
0100
0000
0010
1000
0000
0000
0100
0000
,
0000
0000
0000
0000
0100
0010
0000
0000
0100
0001
0000
0000
0100
0010
0100
0001
,
1000
0010
0000
0000
0001
0010
0100
0000
1000
0000
0100
0010
0000
0000
0001
0000
,
0000
0000
0000
0000
0001
0100
0000
0000
0001
0010
0000
0000
0001
0100
0001
0010
,
0100
1000
0000
0000
1000
0010
0100
0000
0100
0000
0001
1000
0000
0000
1000
0000
,
0000
0000
0000
0000
1000
0100
0010
0001
1000
0100
0010
0001
1000
0001
0100
0010
,
0002
0000
0000
0000
0000
0000
0000
0000
1103
0000
0010
0000
0101
0000
1000
0001
,
1000
0001
0000
0001
1000
0000
0010
0000
1100
0000
0010
0000
0101
0000
1000
0100
,
1000
0100
0000
0100
0010
0000
0001
0000
0110
0000
1000
0000
0101
0000
0001
0010
,
0001
0010
0000
0010
0100
0000
1000
0000
1010
0000
0010
0000
0110
0000
1000
0001
,
1000
0010
0000
0010
1100
0000
0010
0000
1100
0000
0001
0000
0110
0000
0001
0010
,
0100
1000
0000
1000
0100
0000
0001
0000
0110
0000
1000
0000
0101
0000
0010
0100
,
0010
0100
0000
0100
0001
0000
1000
0000
0001
0010
0100
1000
0001
0100
0010
0100
,
0001
1000
0100
1000
0010
0100
0010
0100
0010
1000
0001
0100
0010
1000
0001
0100
,
1010
0000
0100
0000
1010
0000
0001
0000
1000
0100
1000
0000
0010
0000
0001
0100
,
0000
0000
0010
0000
0000
0000
0000
0000
1000
0100
0010
0001
0010
0000
0000
0000
,
0001
0010
0100
1000
0100
0000
0000
0000
1000
0100
0010
0000
0001
0000
0010
0100
,
0000
0000
1000
0000
0000
0000
0000
0000
1000
0100
0010
0100
0000
0000
0001
0010
,
0100
0010
1001
0000
1001
0000
0001
0000
1100
0000
0010
0000
0101
0000
1000
0100
,
1000
0000
0010
0000
1000
0100
1000
0010
1000
0100
1000
0001
0100
0010
0100
0001
,
1000
0100
0010
0001
1000
0010
0100
0000
0100
0000
0001
0100
0000
0000
0010
0000
,
0000
0000
0000
0000
1000
0001
0100
0010
0000
0000
0010
0100
0002
0000
0000
0000
,
0000
0000
0000
0000
1103
0000
0010
0000
0101
0000
0001
0000
1100
0000
0010
0100
,
0010
0000
1000
0000
0101
0000
0010
0000
1100
0000
0001
0000
0110
0000
1000
0100
,
1000
0000
0001
0000
1010
0000
1000
0000
1100
0000
0001
0000
0110
0000
0001
0100
,
0001
0000
1000
0000
0110
0000
0001
0010
0001
0000
0110
0000
1100
0000
0010
0100
,
0010
0000
0011
0000
0110
0000
0001
0000
1100
0000
0010
0000
0101
0000
0100
0010
,
0100
0000
0001
0000
1100
0000
0010
0000
0101
0000
1000
0000
0110
0000
0001
0010
,
0001
0000
0100
0000
1000
0100
0010
0001
1000
0100
0010
0100
1000
0010
0100
0001
,
0010
0100
1000
0001
0110
0000
0010
0000
0010
0000
1100
0000
0110
0000
0010
0000
,
0110
1000
0001
1000
0110
0000
0001
0000
1100
0000
0001
0000
0101
0000
1000
0100
,
1000
0000
0010
0000
0101
0000
0010
0000
1100
0000
0001
0000
0110
0000
0001
0100
,
0001
0000
0010
0100
0010
1000
0100
0010
0001
0010
0100
0010
0100
0001
0010
0100
,
1000
0100
0010
0001
1000
0100
1000
0010
1000
0100
1000
0001
1000
0100
1000
0010
,
1000
0100
0010
0001
1100
0001
0010
0100
1000
0010
0100
0010
1000
0100
0010
0100
,
1000
0010
0100
0001
0010
0001
0100
0010
0100
0001
0010
0001
1000
0100
0010
0100
,
1000
0010
0100
0001
0010
0001
1000
0100
0010
0001
0010
0001
0100
0010
0100
0010
,
1000
0100
1000
0100
1000
0010
1000
0100
1000
0001
1000
0010
1000
0100
1000
0001
,
1100
0000
0010
0000
0101
0000
0001
0000
0101
0000
0001
0000
1000
0001
0100
0010
,
0200
0300
0000
0000
;
