#TITLE:Orbital Strike;
#SUBTITLE:;
#ARTIST:Helblinde;
#TITLETRANSLIT:;
#SUBTITLETRANSLIT:;
#ARTISTTRANSLIT:;
#CREDIT:;
#BANNER:../banner.png;
#BACKGROUND:../bg.png;
#LYRICSPATH:;
#CDTITLE:;
#MUSIC:Orbital Strike.ogg;
#OFFSET:0.373;
#SAMPLESTART:78.300;
#SAMPLELENGTH:21.340;
#SELECTABLE:YES;
#BPMS:0.000=179.996;
#STOPS:;
#BGCHANGES:;
// cache tags:
#FIRSTBEAT:8.000;
#LASTBEAT:932.000;
#SONGFILENAME:Songs/Cirque du Lykan/Orbital Strike - [Zaia]/Orbital Strike.sm;
#HASMUSIC:1;
#HASBANNER:1;
#MUSICLENGTH:312.441;
// end cache tags

//---------------dance-single - Zaia - 16(low)----------------
#NOTES:
     dance-single:
     Zaia - 16(low):
     Challenge:
     16:
     1.000,1.000,0.061,0.019,1.000,2791.000,19.000,6.000,0.000,0.000:
0000
0000
0000
0000
,
0000
0000
0000
0000
,
0001
0100
0010
1000
0001
1000
0100
0010
0001
0000
1000
0000
0001
0000
1000
0000
,
0010
0100
0001
1000
0001
0010
0100
0010
,
0001
1000
0010
0100
0010
1000
0001
1000
,
0100
1000
0001
0010
0001
1000
0001
0100
,
0010
1000
0001
1000
0100
0010
0100
1000
0001
0000
1000
0000
0010
0000
0100
0000
,
0010
1000
0001
0010
0001
1000
0001
0100
,
0010
0100
0001
1000
0100
1000
0001
1000
,
0010
0100
0001
1000
0100
0010
0100
1000
,
0001
1000
0010
1000
0001
0100
0001
1000
0100
0000
0010
0000
0001
0000
1000
0000
,
0001
0010
0100
1000
0001
1000
0010
1000
,
0100
0010
0001
1000
0010
0100
0001
1000
,
0100
0010
0001
1000
0010
1000
0001
0010
,
0001
1000
0010
1000
0001
0010
0100
1000
0001
0000
1000
0000
0001
0000
0100
0000
,
0010
0100
0001
1000
0100
1000
0001
1000
,
0010
0100
0010
1000
0001
0010
0100
1000
,
0001
1000
0010
0100
0001
0010
0100
0010
,
0100
1000
1100
0100
0010
0001
0011
0010
,
0001
1000
1010
0010
0100
0001
0101
0100
,
0010
1000
1001
0001
0010
0100
0110
0010
,
0001
1000
1100
0100
0010
0001
1001
1000
,
0010
0100
0001
1000
0001
0010
0100
1000
0001
0000
0100
0000
0101
0000
0001
0000
,
1000
0100
1100
1000
0001
0010
0011
0001
,
1000
0010
1010
1000
0100
0010
0110
0100
,
1000
0001
0101
0100
0010
1000
1001
0001
,
1000
0000
0001
0000
1000
0010
0100
0001
1000
0000
0100
0000
0010
0100
0010
0100
,
1000
0000
0001
0000
0100
0001
1000
0100
0010
0000
0100
0000
1000
0100
1000
0100
,
0010
0000
0001
0000
0100
0010
0100
0001
1000
0000
0001
0000
0010
0001
0010
0001
,
1000
0000
0010
0000
0100
0001
1000
0100
0010
0000
0001
0000
1000
0010
1000
0010
,
0100
0000
0001
0000
0010
0100
1000
0001
1000
0000
0010
0000
0100
0001
0100
0001
,
0010
0000
0001
0000
1000
0010
0100
0010
1000
0000
0001
0000
0010
0100
0010
0100
,
1000
0000
0010
0000
0100
0001
0100
0010
1000
0000
0001
0000
1000
0100
1000
0100
,
0010
0000
0001
0000
1000
0010
0100
0010
1000
0000
0001
0000
0100
0010
0100
0010
,
1000
0001
0100
0010
1000
0001
1000
0100
0010
0100
1000
0010
0100
0001
1000
0001
,
1000
0100
0010
0001
0100
0010
1000
0001
0100
0001
1000
0100
0010
0001
0010
0001
,
0100
0010
1000
0001
1000
0100
0010
0001
0100
0010
1000
0001
0010
0100
0010
0100
,
1000
0001
0100
0010
1000
0001
0100
0001
0010
0100
1000
0001
1000
0100
1000
0100
,
0010
0001
1000
0010
0100
0010
1000
0001
0010
0001
1000
0010
0100
0001
0100
0001
,
0010
0100
0010
0001
1000
0001
0100
0010
1000
0001
1000
0100
0010
0001
0010
0001
,
1000
0010
0100
0010
1000
0100
0010
0001
1000
0010
1000
0001
0100
0010
0100
0010
,
1000
0001
0010
0100
1000
0010
0100
0001
1000
0001
0100
0010
1000
0001
1000
0001
,
0010
0000
0000
0000
0100
1000
0001
1000
0001
0000
0100
0000
0010
0000
1000
0000
,
0001
0001
0000
0000
,
0100
0010
1000
0000
0001
0000
1000
0000
,
0000
0000
0000
0000
,
0100
0000
0000
0000
0010
0001
0010
0001
1000
0000
0010
0000
0100
0000
0001
0000
,
0010
0010
0000
0000
,
0100
1000
0001
0000
0100
0000
0001
0000
,
0000
0000
0000
0000
,
1000
0000
0000
0000
0001
0100
0001
0100
0010
0000
1000
0000
0100
0000
0010
0000
,
0001
1000
0001
1000
,
0010
0100
0001
0000
1000
0000
0100
0000
,
0010
0001
1000
0001
,
1000
0010
1000
0001
0100
0010
1000
0010
1000
0001
0010
0100
0010
0001
1000
0100
,
1000
0001
0010
0100
1000
0001
1000
0010
0100
0001
1000
0001
0100
0010
1000
0001
,
1000
0100
1000
0010
0100
0001
0010
0001
0100
0010
0100
0001
0010
0001
0100
0010
,
1000
0100
1000
0001
0010
0001
1000
0010
1000
0100
0010
0001
0100
0001
0010
0100
,
1000
0000
0000
0001
,
1000
0010
0100
0001
1000
0100
1000
0001
0010
0001
1000
0010
0100
0001
1000
0001
,
0010
0001
1000
0010
0100
0010
1000
0001
1000
0001
0010
0100
1000
0001
0100
0001
,
0010
0100
1000
0001
1000
0010
0100
0001
1000
0100
1000
0001
0100
0010
1000
0001
,
0010
0100
0010
0001
1000
0010
1000
0001
0010
0100
1000
0001
1000
0001
0100
0010
,
1000
0100
0010
0100
1000
0001
0100
0001
1000
0010
1000
0001
0010
0100
1000
0001
,
1000
0010
1000
0001
0010
0100
0010
0001
1000
0001
1000
0010
0100
0001
1000
0100
,
1000
0010
0100
0001
1000
0001
0010
0100
1000
0001
0100
0001
1000
0100
0010
0001
,
1000
0010
0100
0010
1000
0001
0010
0100
1000
0010
0100
0001
1000
0001
1000
0100
,
0010
0001
0100
0001
1000
0010
1000
0001
0100
0001
1000
0100
0010
0001
1000
0001
,
0100
0001
1000
0100
0010
0100
1000
0001
1000
0001
0100
0010
1000
0001
0100
0001
,
0010
0100
1000
0001
1000
0100
0010
0001
1000
0010
1000
0001
0010
0100
1000
0001
,
0100
0010
0100
0001
1000
0100
1000
0001
0100
0010
1000
0001
1000
0001
0010
0100
,
1000
0010
0100
0010
1000
0001
0010
0001
1000
0100
1000
0001
0100
0010
1000
0001
,
1000
0100
1000
0001
0100
0010
0100
0001
1000
0001
1000
0100
0010
0001
1000
0010
,
1000
0100
0010
0001
1000
0001
0100
0010
1000
0001
0010
0001
1000
0010
0100
0001
,
1000
0100
0010
0100
1000
0001
0100
0010
1000
0001
0010
0001
1000
0100
0010
0001
,
0100
0010
1000
0001
1000
0100
1000
0001
0010
0001
1000
0010
0100
0001
1000
0001
,
0010
0001
1000
0010
0100
0010
1000
0001
1000
0001
0010
0100
1000
0001
0100
0001
,
0010
0100
1000
0001
1000
0010
0100
0001
1000
0100
1000
0001
0100
0010
1000
0001
,
0010
0100
0010
0001
1000
0010
1000
0001
0010
0100
1000
0001
1000
0001
0100
0010
,
1000
0100
0010
0100
1000
0001
0100
0001
1000
0010
1000
0001
0010
0100
1000
0001
,
1000
0010
1000
0001
0010
0100
0010
0001
1000
0001
1000
0010
0100
0001
1000
0100
,
1000
0010
0100
0001
1000
0001
0010
0100
1000
0001
0100
0001
1000
0100
0010
0001
,
1000
0010
0100
0010
1000
0001
0010
0100
1000
0010
0100
0001
1000
0001
1000
0100
,
0010
0001
0100
0001
1000
0010
1000
0001
0100
0001
1000
0100
0010
0001
1000
0001
,
0100
0001
1000
0100
0010
0100
1000
0001
1000
0001
0100
0010
1000
0001
0100
0001
,
0010
0100
1000
0001
1000
0100
0010
0001
1000
0010
1000
0001
0010
0100
1000
0001
,
0100
0010
0100
0001
1000
0100
1000
0001
0100
0010
1000
0001
1000
0001
0010
0100
,
1000
0010
0100
0010
1000
0001
0010
0001
1000
0100
1000
0001
0100
0010
1000
0001
,
1000
0100
1000
0001
0100
0010
0100
0001
1000
0001
1000
0100
0010
0001
1000
0010
,
1000
0100
0010
0001
1000
0001
0100
0010
1000
0001
0010
0001
1000
0010
0100
0001
,
1000
0100
0010
0100
1000
0001
0100
0010
1000
0001
0010
0001
1000
0001
1000
0010
,
0100
0000
0000
0000
,
0000
0000
0000
0000
,
0010
0000
0010
0000
1000
0000
0100
1000
0001
1000
0010
0000
0100
0000
0001
0000
,
1000
0000
1000
0000
0100
0000
0010
0001
1000
0001
0100
0000
0000
0010
1000
0000
,
0001
0000
0001
0000
0010
0000
0100
1000
0001
1000
0100
0000
0010
0000
0001
0000
,
0100
0000
0000
0000
0000
0000
0100
0000
0000
0000
0000
0000
0010
0000
0000
0000
0000
0000
1000
0000
0000
0001
0000
0000
0020
0000
0000
0000
0000
0000
0000
0000
0230
0000
0000
0000
0000
0000
0000
0000
2300
0000
0000
0000
0000
0000
0000
0000
,
3001
0000
0001
0000
0010
0000
0100
1000
0001
1000
0010
0000
0100
0000
0001
0000
,
0010
0000
0010
0000
0100
0000
0010
0001
1000
0001
0100
0000
0010
0000
1000
0000
,
0100
0000
0100
0000
0010
0000
0001
1000
0010
1000
0001
0000
0010
0000
0100
0000
,
1000
0000
1000
0000
0010
0000
0100
0001
1000
0001
0010
0000
0000
0100
0010
0000
,
0001
0000
0001
0000
1000
0000
0100
1000
0001
1000
0010
0000
0100
0000
0001
0000
,
1000
0000
1000
0000
0100
0000
0010
0001
1000
0001
0100
0000
0001
0000
1000
0000
,
0010
0000
0010
0000
1000
0000
0100
1000
0001
1000
0100
0000
0010
0000
0001
0000
,
0100
0000
0100
0000
0010
0000
1000
0001
0010
0001
1000
0000
0000
0100
1000
0000
,
0001
0000
0001
0000
0010
0000
0100
1000
0001
1000
0010
0000
0100
0000
0001
0000
,
0010
0000
0010
0000
0100
0000
0010
0001
1000
0001
0100
0000
0010
0000
1000
0000
,
0100
0000
0100
0000
0010
0000
0001
1000
0010
1000
0001
0000
0010
0000
0100
0000
,
1000
0000
1000
0000
0010
0000
0100
0001
1000
0001
0010
0000
0000
0100
1000
0000
,
0001
0000
0001
0000
0010
0000
0100
1000
0010
1000
0001
0000
0010
0000
0100
0000
,
1000
0000
1000
0000
0010
0000
0100
0001
0010
0001
1000
0000
0001
0000
0010
0000
,
0100
0000
0100
0000
1000
0000
0010
0100
0001
0100
0010
0000
1000
0000
0001
0000
,
0010
0000
0010
0000
0100
0000
1000
0010
0100
0010
1000
0000
0001
0000
0010
0000
,
0110
0000
0000
0000
,
0000
0000
0000
0000
,
0000
0000
0000
0000
,
0000
0000
0000
0000
,
1000
0010
0100
0001
1000
0001
0010
0100
1000
0001
1000
0001
0100
0010
1000
0000
,
0100
0010
0001
1000
0001
0100
0010
0100
,
0001
1000
0100
0010
0001
1000
0001
0100
0010
0100
0001
1000
0001
1000
0100
0000
,
0010
0001
1000
0010
1000
0001
1000
0100
,
0010
0001
1000
0001
0100
0010
0100
0001
0100
0001
1000
0100
0010
0001
1000
0000
,
0010
0000
0000
0000
,
0100
0010
1000
0001
0010
0100
1000
0001
1000
0010
0100
0001
1000
0001
0010
0001
,
1000
0000
0100
0010
0100
0000
1000
0000
0010
0000
0100
0000
0001
0000
0010
0000
,
0100
1000
0001
1000
0010
0100
0001
1000
0001
0000
0100
0000
0001
0000
0010
0000
,
0100
1000
0100
1000
0001
0100
0010
0100
,
0001
0010
0001
0010
0100
1000
0010
0100
,
0010
1000
0001
1000
0100
0010
0001
0100
,
0010
1000
0010
1000
0001
0100
0001
0100
,
0001
0010
0001
0010
0100
1000
0100
1000
,
0001
0010
0100
1000
0001
1000
0010
0100
0001
1000
0100
1000
0010
0100
0001
0010
,
0200
0000
0000
0300
,
1000
0001
0010
0001
1000
0001
1000
0100
1000
0001
0100
0010
0100
0001
0010
0100
,
1000
0001
0100
0001
1000
0001
1000
0010
1000
0001
0010
0100
0010
0001
0100
0010
,
1000
0001
1000
0010
1000
0001
1000
0001
0100
0001
1000
0100
0010
0100
1000
0010
,
0100
0001
1000
0100
1000
0001
1000
0001
0010
0001
1000
0010
0100
0010
1000
0100
,
1000
0001
0010
0001
1000
0001
1000
0100
1000
0001
0100
0010
0100
0001
0010
0100
,
1000
0001
0100
0001
1000
0001
1000
0010
1000
0001
0010
0100
0010
0001
0100
0010
,
1000
0001
1000
0010
1000
0001
1000
0001
0100
0001
1000
0100
0010
0100
1000
0010
,
0100
0001
1000
0001
1000
0001
1000
0001
1000
0001
1000
0001
1000
0001
1000
0001
,
1000
0010
0100
0001
1000
0001
1000
0010
1000
0001
0010
0100
0010
0001
0100
0010
,
1000
0001
0010
0001
1000
0001
1000
0100
1000
0001
0100
0010
0100
0001
0010
0100
,
1000
0001
1000
0100
1000
0001
1000
0001
0010
0001
1000
0010
0100
0010
1000
0100
,
0010
0001
1000
0010
1000
0001
1000
0001
0100
0001
1000
0100
0010
0100
1000
0010
,
1000
0001
0100
0001
1000
0001
1000
0010
1000
0001
0010
0100
0010
0001
0100
0010
,
1000
0001
0010
0001
1000
0001
1000
0100
1000
0001
0100
0010
0100
0001
0010
0100
,
4000
0000
0000
0000
,
3004
0000
0000
0000
,
1003
0010
0100
0001
0010
0100
1000
0010
0100
0001
0010
0100
1000
0010
0100
0001
,
0010
0100
1000
0100
0010
0001
0010
0100
1000
0001
0100
0010
1000
0010
0100
0001
,
0010
0100
1000
0010
0100
0001
0010
0100
1000
0010
0100
0001
0010
0100
1000
0010
,
0100
0010
1000
0100
0010
0001
0100
0010
1000
0100
0010
0001
0100
0010
1000
0100
,
0010
0001
0010
0100
1000
0001
1000
0100
0010
0001
1000
0001
0010
0100
1000
0001
,
1000
0010
0100
0001
1000
0001
0100
0010
1000
0001
1000
0010
0100
0001
1000
0001
,
0100
0010
1000
0100
0010
0001
0100
0010
1000
0100
0010
0001
0100
0010
1000
0100
,
0010
0001
0010
0100
1000
0001
1000
0100
0010
0001
1000
0001
0010
0100
1000
0100
,
0010
0100
1000
0010
0100
0001
0010
0100
1000
0010
0100
0001
0010
0100
1000
0010
,
0100
0001
0100
0010
1000
0010
0100
0001
0100
0010
1000
0010
0100
0001
0100
0010
,
1000
0100
0010
0001
0100
0010
1000
0100
0010
0001
0100
0010
1000
0100
0010
0001
,
0100
0010
1000
0001
1000
0010
0100
0001
1000
0001
0100
0010
1000
0001
1000
0010
,
0100
0001
0010
0100
1000
0010
0100
0001
0010
0100
1000
0010
0100
0001
0010
0100
,
1000
0100
0010
0001
1000
0001
0010
0100
1000
0001
1000
0100
0010
0001
1000
0001
,
0010
0001
0100
0010
1000
0100
0010
0001
0100
0010
1000
0100
0010
0001
0100
0010
,
1000
0010
0100
0001
1000
0010
0100
0010
1000
0001
1000
0001
1000
0001
1000
0001
,
0100
0010
1000
0001
0010
0001
1000
0100
1000
0001
0100
0010
1000
0001
1000
0100
,
1000
0001
0100
0010
0100
0001
1000
0001
1000
0100
0010
0001
1000
0010
1000
0100
,
0010
0001
1000
0001
0100
0010
1000
0001
0010
0001
1000
0010
0100
0001
1000
0100
,
0010
0100
1000
0001
0100
0001
1000
0100
0010
0001
1000
0001
1000
0010
0100
0001
,
0010
0100
0010
0001
1000
0010
1000
0001
0100
0001
1000
0100
0010
0001
1000
0001
,
0100
0001
1000
0100
0010
0100
1000
0001
1000
0001
0100
0010
1000
0001
0010
0001
,
0100
0010
1000
0001
1000
0100
0010
0001
1000
0010
1000
0001
0010
0100
1000
0001
,
0100
0010
0100
0001
1000
0100
0010
0001
0100
0010
1000
0001
1000
0001
0010
0100
,
1000
0010
1000
0001
0100
0001
1000
0010
1000
0001
0010
0100
1000
0001
1000
0010
,
1000
0001
0010
0100
0010
0001
1000
0001
1000
0010
0100
0001
1000
0010
1000
0100
,
0010
0001
1000
0001
0010
0100
1000
0001
0100
0001
1000
0100
0010
0001
1000
0010
,
0100
0010
1000
0001
0010
0001
1000
0010
0100
0001
1000
0001
1000
0100
0010
0001
,
0100
0010
0100
0001
1000
0100
1000
0001
0010
0001
1000
0010
0100
0001
1000
0001
,
0010
0001
1000
0010
0100
0010
1000
0001
1000
0001
0010
0100
1000
0001
0100
0001
,
0010
0100
0010
0100
1000
0001
1000
0001
0100
0001
1000
0001
1000
0100
0010
0001
,
0100
0010
1000
0001
1000
0001
0100
0001
1000
0001
1000
0100
1000
0001
1000
0010
,
0100
0001
1000
0001
0010
0001
1000
0100
1000
0001
0100
0010
1000
0001
1000
0100
,
1000
0001
0100
0010
0100
0001
1000
0001
1000
0100
0010
0001
1000
0010
1000
0100
,
0010
0001
1000
0001
0100
0010
1000
0001
0010
0001
1000
0010
0100
0001
1000
0100
,
0010
0100
1000
0001
0100
0001
1000
0100
0010
0001
1000
0001
1000
0010
0100
0001
,
0010
0100
0010
0001
1000
0010
1000
0001
0100
0001
1000
0100
0010
0001
1000
0001
,
0100
0001
1000
0100
0010
0100
1000
0001
1000
0001
0100
0010
1000
0001
0010
0001
,
0100
0010
1000
0001
1000
0100
0010
0001
1000
0010
1000
0001
0010
0100
1000
0001
,
0100
0010
0100
0001
1000
0100
1000
0100
0010
0001
0100
0010
0100
0001
1000
0001
,
1000
0010
1000
0001
0100
0001
1000
0010
1000
0001
0010
0100
1000
0001
1000
0010
,
1000
0001
0010
0100
0010
0001
1000
0001
1000
0010
0100
0001
1000
0010
1000
0100
,
0010
0001
1000
0001
0010
0100
1000
0001
0100
0001
1000
0100
0010
0001
1000
0010
,
0100
0010
1000
0001
0010
0001
1000
0010
0100
0001
1000
0001
1000
0100
0010
0001
,
0100
0010
0100
0001
1000
0100
1000
0001
0010
0001
1000
0010
0100
0001
1000
0001
,
0010
0001
1000
0010
0100
0010
1000
0001
1000
0001
0010
0100
1000
0001
0100
0001
,
0010
0100
1000
0001
1000
0010
0100
0001
1000
0100
1000
0001
0100
0010
1000
0001
,
0010
0100
0010
0001
1000
0010
0100
0001
1000
0100
1000
0001
1000
0001
0100
0010
,
1000
0100
0010
0001
1000
0010
1000
0001
0100
0001
1000
0100
0010
0001
1000
0001
,
0100
0001
1000
0100
0010
0100
1000
0001
1000
0001
0100
0010
1000
0001
0010
0001
,
0100
0010
1000
0001
1000
0100
0010
0001
1000
0010
1000
0001
0010
0100
1000
0001
,
0100
0010
0100
0001
1000
0100
1000
0001
0100
0010
1000
0001
1000
0001
0010
0100
,
1000
0010
0100
0010
1000
0001
0010
0001
1000
0100
1000
0001
0100
0010
1000
0001
,
1000
0100
1000
0001
0100
0010
0100
0001
1000
0001
1000
0100
0010
0001
1000
0010
,
1000
0100
0010
0001
1000
0001
0100
0010
1000
0001
0010
0001
1000
0010
0100
0001
,
1000
0100
0010
0100
1000
0001
0100
0010
1000
0100
0010
0001
1000
0001
1000
0010
,
0100
0001
0010
0001
1000
0100
1000
0001
0010
0001
1000
0010
0100
0001
1000
0001
,
0010
0001
1000
0010
0100
0010
1000
0001
1000
0001
0010
0100
1000
0001
0010
0001
,
0100
0010
1000
0001
1000
0010
0100
0001
1000
0100
1000
0001
0100
0010
1000
0001
,
0010
0100
0010
0001
1000
0010
1000
0001
0010
0100
1000
0001
1000
0001
0100
0010
,
1000
0100
0010
0100
1000
0001
0100
0001
1000
0010
1000
0001
0010
0100
1000
0001
,
1000
0010
1000
0001
0010
0100
0010
0001
1000
0001
1000
0010
0100
0001
1000
0100
,
1000
0010
0100
0001
1000
0001
0010
0100
1000
0001
0100
0001
1000
0100
0010
0001
,
1000
0010
0100
0010
1000
0001
0010
0100
1000
0001
0100
0001
1000
0010
0100
0001
,
0010
0100
1000
0100
0010
0100
1000
0001
,
0100
0010
0100
0001
0100
0010
0100
0001
,
1000
0001
0010
0001
1000
0001
0010
0001
,
0100
0010
1000
0010
0100
0010
1000
0000
,
0001
1000
0100
1000
0001
1000
0100
1000
,
0001
0100
0010
0100
0001
0100
0010
1000
,
0100
0010
0001
0010
0100
0010
0001
1000
,
0040
0000
0000
0000
,
0130
0001
0010
0001
0100
0001
0010
0001
,
1000
0100
1000
0010
1000
0100
1000
0010
,
0100
0001
1000
0001
0010
0001
1000
0001
,
1000
0010
1000
0001
1000
0010
0000
0100
,
0001
0010
0100
1000
0001
0100
0010
1000
,
0001
0010
0100
1000
0001
0100
0010
1000
,
0001
0010
0100
1000
0001
1000
0010
1000
0001
0100
0010
0100
0001
1000
0001
0010
,
0400
0000
0000
0000
,
2302
0000
0000
0000
,
0000
0000
0000
0000
,
0000
0000
0000
0000
,
0000
0000
0000
0000
,
3003
0000
0000
0000
;
