#TITLE:Escape -Beyond Big Boss-;
#SUBTITLE:Metal Gear;
#ARTIST:Konami;
#TITLETRANSLIT:;
#SUBTITLETRANSLIT:;
#ARTISTTRANSLIT:;
#CREDIT:;
#BANNER:escape-banner.png;
#BACKGROUND:escape-bg.png;
#LYRICSPATH:;
#CDTITLE:;
#MUSIC:07 Escape -beyond Big Boss-.mp3;
#OFFSET:-2.090;
#SAMPLESTART:35.423;
#SAMPLELENGTH:12.000;
#SELECTABLE:YES;
#BPMS:0.000=179.700;
#STOPS:;
#BGCHANGES:;
// cache tags:
#FIRSTBEAT:0.000;
#LASTBEAT:260.000;
#SONGFILENAME:Songs/IzzySM Keyboard Mega Pack/snake/snake.sm;
#HASMUSIC:1;
#HASBANNER:1;
#MUSICLENGTH:92.768;
// end cache tags

//---------------dance-single - MANIAC----------------
#NOTES:
     dance-single:
     MANIAC:
     Hard:
     9:
     0.815,0.876,0.086,0.485,0.086,476.000,8.000,45.000,0.000,0.000:
1000
0001
1000
0001
0100
0010
0100
0010
,
1000
0010
1000
0010
1000
0010
1000
0010
,
1000
0010
1000
0010
1000
0010
1000
1000
,
0001
0100
0001
0100
0001
0100
0001
0100
,
0001
0100
0001
0100
0001
0100
0001
0100
,
0001
1000
0100
0000
0001
1000
0100
0000
,
0001
1000
0100
0000
0001
1000
0100
0000
,
1000
0010
1000
1000
0001
0100
0001
0001
,
1000
0001
1000
0001
0100
0010
0100
0010
,
1000
0100
0010
0001
1000
0100
0010
0001
,
0020
0001
0230
1000
,
0301
0010
0100
1000
0001
0010
0100
1000
,
0001
1000
1000
0001
0100
0001
0010
0100
,
1000
0100
0010
0001
1000
0100
0010
0001
,
0010
0100
1000
0001
0100
0010
1000
0100
,
2000
3200
0320
0032
,
1003
0100
0010
0100
2000
0000
3002
0000
,
1003
0010
1000
0010
1000
0010
1000
0010
,
1000
0010
1000
0010
1000
0010
1000
1000
,
0001
0100
0001
0100
0001
0100
0001
0100
,
0001
0100
0001
0100
0001
0100
0001
0001
,
1000
0001
1000
0000
1000
0001
1000
0000
,
1000
0001
1000
0000
1000
0001
1000
0000
,
2000
3200
0320
0032
,
0023
0000
0032
0000
2003
0000
3002
0003
,
0001
0100
0001
0100
0001
0100
0001
0100
,
0001
0100
0001
0100
0001
0100
0001
0001
,
1000
0010
1000
0010
1000
0010
1000
0010
,
1000
0010
1000
0010
1000
0010
1000
0010
,
1000
0100
1000
0000
1000
0010
1000
0000
,
1000
0100
1000
0000
1000
0010
1000
0000
,
0001
1000
0001
0100
0001
0100
0010
1000
,
0010
1000
0100
1000
0001
0010
0001
0001
,
1000
0100
0010
0001
1000
0100
0010
0001
,
1000
1000
1000
1000
1000
0001
0001
0001
,
0001
0010
0100
1000
0001
0010
0100
1000
,
1000
0100
1000
0100
1000
0010
0100
0010
0100
0010
0100
0001
0010
0001
0010
0001
,
1000
0100
0010
0001
1000
0100
0010
0001
,
0100
0010
0100
0010
1000
0001
1000
0001
,
2000
3002
0203
0302
,
2003
0000
3100
1000
2000
0000
3020
0000
,
1030
0010
1000
0010
1000
0010
1000
0010
,
1000
0010
1000
0010
1000
0010
1000
0010
,
0001
0010
0001
0010
0001
0010
0001
0010
,
0001
0010
0001
0010
0001
0010
0001
0010
,
0100
0010
0100
0000
0100
0010
0100
0000
,
0100
0010
0100
0000
0100
0010
1000
0000
,
2000
3200
0320
0032
0203
0320
0230
0302
,
0023
0230
2300
3200
0320
0032
2003
3100
,
0010
0100
0010
0100
0010
0100
0010
0100
,
0010
0100
0010
0100
0010
0100
0010
0100
,
0001
0100
0001
0100
0001
0100
0001
0100
,
0001
0100
0001
0100
0001
0100
0001
0100
,
1000
0010
0001
0000
0001
0010
1000
0000
,
1000
0010
0001
0000
0001
0010
1000
0000
,
1001
0110
1100
0011
,
1010
0101
0110
1001
,
0001
0010
0100
1000
0001
0010
0100
1000
,
0100
1000
0100
1000
0001
0010
0001
0001
,
1000
0100
0010
0001
1000
0100
0010
0001
,
0001
0100
0001
0100
0001
0010
0100
0010
0100
0010
0100
1000
0010
1000
0010
1000
,
0001
1000
0001
1000
0001
1000
0001
1000
,
0010
0100
0010
0100
0010
0100
0010
0100
,
0002
0203
0320
2030
,
3020
0000
1030
0001
2000
0000
3020
0000
,
0030
0000
0000
0000
;

//---------------dance-single - ----------------
#NOTES:
     dance-single:
     :
     Challenge:
     12:
     1.000,1.000,0.248,0.302,1.000,735.000,23.000,28.000,0.000,7.000:
1000
0100
1000
0100
0010
0001
0010
0001
,
1000
0100
0010
0001
1000
0100
0010
0001
1000
0100
0010
0001
1000
0100
0010
0001
,
1000
0100
0010
0001
1000
0100
0010
0001
1000
0100
0010
0001
1000
0100
0010
0001
,
0010
0100
1000
0001
0010
0100
1000
0001
0010
0100
1000
0001
0010
0100
1000
0001
,
0010
0100
1000
0001
0010
0100
1000
0001
0010
0100
1000
0001
0010
0100
1000
0001
,
1000
0000
0100
1000
0100
0000
0000
0000
0010
0000
0001
0100
0001
0000
0000
0000
,
0001
0000
0010
0100
1000
0000
0000
0000
1000
0000
0100
1000
0100
0000
0000
0000
,
1000
0000
0100
1000
0100
0000
1000
0000
0100
0000
0010
0100
0010
0000
0100
0000
,
0010
0000
0001
0010
0001
0000
0001
0000
0010
0000
0010
0100
1000
0000
1100
0000
,
1000
0100
0010
0001
1000
0100
0010
0001
,
0001
0010
0001
0010
0001
0010
0001
0010
0100
1000
0100
1000
0100
1000
0100
1000
,
0100
1000
0010
0100
0001
1000
0010
0100
,
0001
0100
0001
0100
0001
1000
0001
1000
0001
0010
0001
0010
0001
1000
0001
1000
,
0001
1000
0001
1000
0001
1000
0001
1000
,
0010
0100
0010
0100
0010
0100
0010
0010
,
2000
3002
2003
3200
,
0320
0000
0000
0000
0031
0010
0000
0000
0200
0000
0000
0000
2300
0000
0000
0000
,
3001
0100
0010
1000
0001
0100
0010
1000
0001
0100
0010
1000
0001
0100
0010
1000
,
0001
0100
0010
1000
0001
0100
0010
1000
0001
0100
0010
1000
0001
0100
0010
1000
,
0001
1000
0010
0100
0001
1000
0010
0100
0001
1000
0010
0100
0001
1000
0010
0100
,
0001
1000
0010
0100
0001
1000
0010
0100
0001
1000
0010
0100
0001
1000
0010
0100
,
0001
0000
0010
0100
1000
0000
0000
0000
0001
0000
0010
0100
1000
0000
0000
0000
,
1000
0000
0100
0010
0001
0000
0000
0000
1000
0000
0100
0010
0001
0000
0000
0000
,
0001
0100
0001
0000
0010
0000
0100
0000
1000
0100
1000
0000
0001
0000
0100
0000
,
0010
0100
0010
0000
1000
0000
0100
0000
0010
0001
0010
0000
0100
0000
1000
0000
,
1000
0100
0010
0001
1000
0100
0010
0001
1000
0100
0010
0001
1000
0100
0010
0001
,
1000
0100
0010
0001
1000
0100
0010
0001
1000
0100
0010
0001
1000
0100
0010
0001
,
0010
0100
1000
0001
0010
0100
1000
0001
0010
0100
1000
0001
0010
0100
1000
0001
,
0010
0100
1000
0001
0010
0100
1000
0001
0010
0100
1000
0001
0010
0100
1000
0001
,
0010
0000
0010
0100
0010
0000
0000
0000
0010
0000
0010
0100
0010
0000
0000
0000
,
0100
0000
0010
0100
0010
0000
0000
0000
0100
0000
0100
0010
0100
0000
0000
0000
,
0010
0000
1000
0010
1000
0000
0100
0000
0010
0000
0100
0010
0100
0000
0010
0000
,
0001
0000
0001
0010
0001
0000
0010
0000
0010
0000
0010
0100
1000
0000
1100
0000
,
1000
0100
0001
0100
1000
0010
0001
0010
,
1000
0010
1000
0010
1000
0010
1000
0010
0100
0001
0100
0001
0100
0001
0100
0001
,
0100
0010
1000
0001
0100
0010
1000
0001
,
0001
0010
0001
0010
0100
0010
0100
1000
0100
1000
0001
1000
0001
1000
0100
0010
,
0001
0010
0100
1000
0001
0010
0100
1000
,
0011
0010
0100
1100
0001
0010
1100
1000
,
2200
0000
3322
0030
0223
0000
2332
3000
,
2203
0000
3300
0000
0010
0100
0000
0000
0022
0000
0000
0000
2233
0000
0000
0000
,
3301
0100
0010
1000
0001
0100
0010
1000
0001
0100
0010
1000
0001
0100
0010
1000
,
0001
0100
0010
1000
0001
0100
0010
1000
0001
0100
0010
1000
0001
0100
0010
1000
,
0010
0100
0001
1000
0010
0100
0001
1000
0010
0100
0001
1000
0010
0100
0001
1000
,
0010
0100
0001
1000
0010
0100
0001
1000
0010
0100
0001
1000
0010
0100
0001
1000
,
0010
0000
0100
1000
0100
0000
0100
0000
1100
0000
0100
0010
0100
0000
0100
0000
,
1010
0000
1000
0010
1000
0000
1000
0000
0101
0000
0001
0100
0001
0000
0100
0000
,
0001
0100
0001
0000
0010
0000
0100
0000
1000
0100
1000
0000
0100
0000
0010
0000
,
0001
0010
0100
0000
1000
0000
0010
0000
0100
1000
0001
0000
0010
0000
0100
0000
,
1000
0100
0010
0001
0010
0100
1000
0100
0010
0001
0010
0100
1000
0100
0010
0001
,
0010
0100
1000
0100
0010
0001
0010
0100
1000
0100
0010
0001
0010
0100
1000
0100
,
0010
0100
0001
0100
0010
1000
0010
0100
0001
0100
0010
1000
0010
0100
0001
0100
,
0010
1000
0010
0100
0001
0100
0010
1000
0010
0100
0001
0100
0010
1000
0100
0010
,
0100
0000
1000
0100
0001
0000
0100
0000
0100
0000
1000
0100
0001
0000
0010
0000
,
0010
0000
1000
0010
0001
0000
0010
0000
0010
0000
1000
0010
0001
0000
0010
0000
,
0110
0000
0010
0100
0010
0000
0010
0000
0101
0000
0100
0001
0100
0000
0100
0000
,
1010
0000
1000
0010
1000
0000
1000
0000
1100
0000
0100
1000
0100
0000
1000
0000
,
1000
0100
0010
0001
1000
0100
0010
0001
,
0001
0100
0001
0100
0001
0100
0001
0100
0010
1000
0010
1000
0010
1000
0010
1000
,
0010
0100
0010
0100
0010
0001
0010
1000
,
0100
0010
0100
0010
0001
0010
0001
0010
0100
1000
0100
0010
0001
0010
0100
1000
,
0100
0010
0001
1000
0100
0010
0001
1000
,
1100
0100
0010
0011
1000
0100
0110
0001
,
0002
2003
3002
0203
,
0320
0000
0000
0000
0031
1000
0000
0000
0220
0000
0000
0000
1000
0000
0000
0000
,
0330
0000
0000
0000
;
