#TITLE:When Irony Wears Thin;
#SUBTITLE:;
#ARTIST:Prefuse 73;
#TITLETRANSLIT:;
#SUBTITLETRANSLIT:;
#ARTISTTRANSLIT:;
#CREDIT:;
#BANNER:irony-banner.png;
#BACKGROUND:irony-bg.png;
#LYRICSPATH:;
#CDTITLE:cyn2.png;
#MUSIC:02 When Irony Wears Thin (Cut).mp3;
#OFFSET:-1.584;
#SAMPLESTART:68.271;
#SAMPLELENGTH:12.000;
#SELECTABLE:YES;
#DISPLAYBPM:24.000:95.000;
#BPMS:0.000=90.000,22.000=95.000,37.000=190.000,38.000=95.000,78.000=23.750,80.000=95.000,135.000=190.000,136.000=95.000,171.000=190.000,172.000=95.000,175.000=190.000,176.000=95.000,179.000=190.000,180.000=95.000,184.000=23.750,186.000=95.000;
#STOPS:37.000=0.316
,135.000=0.316
,171.000=0.315
,175.000=0.316
,179.000=0.316
;
#BGCHANGES:;
// cache tags:
#FIRSTBEAT:0.000;
#LASTBEAT:186.000;
#SONGFILENAME:Songs/Community Keyboard Megapack - Volume 3/(cynic) irony/irony.sm;
#HASMUSIC:1;
#HASBANNER:1;
#MUSICLENGTH:129.965;
// end cache tags

//---------------dance-single - ----------------
#NOTES:
     dance-single:
     :
     Challenge:
     11:
     0.949,0.859,1.000,0.616,1.000,635.000,148.000,80.000,0.000,0.000:  // measure 1
1000
0000
0000
0000
0000
0000
0000
0000
0000
1000
0000
0000
0000
0000
0000
0000
0000
0000
1000
0000
0000
0000
0000
0000
0001
0000
0100
0000
0001
0000
0100
0000
0010
0000
1000
0000
0002
0000
0000
0000
0000
0000
0000
0000
0000
0003
0000
0000
,  // measure 2
1200
0000
0000
0000
0000
0000
0000
0000
0000
0010
0000
0000
0000
0000
0000
0000
0000
0000
0310
0000
0000
0000
0000
0000
0100
0000
1000
0000
0100
0000
1000
0000
0100
0000
0010
0000
0002
0000
0000
0000
0000
0000
0000
0000
0000
0003
0000
0000
,  // measure 3
0101
0000
0000
0000
0000
0000
0000
0000
0000
0101
0000
0000
0000
0000
0000
0000
0000
0000
0001
0000
0000
0000
0000
0000
0100
0000
0001
0000
1000
0000
0001
0000
0100
0000
0010
0000
1000
0000
0000
0000
0000
0000
0010
0000
0000
1000
0000
0000
,  // measure 4
1100
0000
0000
0000
0000
0000
0000
0000
0000
1100
0000
0000
0000
0000
0000
0000
0000
0000
1100
0000
0000
0000
0000
0000
0100
0000
0010
0000
0001
0000
0100
0000
0010
0000
0100
0000
0002
0000
0000
0000
0000
0000
0000
0000
0000
0003
0000
0000
,  // measure 5
2010
0000
0000
0000
0000
0000
0000
0000
0000
0000
0000
0000
0010
0000
0000
3000
2000
0000
0000
0000
0000
0000
0000
0000
0000
0000
0000
0000
0001
0000
0000
3000
2000
0000
0000
0000
0000
0000
0000
0000
0000
0000
0000
0000
0100
0000
0000
3000
2000
0000
0000
0000
0000
0000
0000
0000
0000
0000
0000
0000
0000
0000
0000
0000
,  // measure 6
0002
0000
0000
0000
0000
0000
0000
0000
0000
3003
0000
0000
0110
0000
0010
0000
1000
0000
0001
0000
0010
0000
0100
0000
,  // measure 7
1000
0010
0100
0000
0001
0000
1010
0000
0100
0000
0010
0000
0001
0000
0100
0000
1000
0000
0100
0000
0001
0000
1000
0000
,  // measure 8
0001
0010
0100
1010
0001
0100
0010
1000
0001
0010
0100
0001
,  // measure 9
0100
1000
0100
1000
0010
0000
0101
0000
0001
0000
1000
0000
0001
0000
0010
0000
0100
0000
1000
0000
0010
0000
0100
0000
,  // measure 10
0001
0000
1010
0000
0100
0000
0022
0033
0000
0000
0000
0000
2100
0000
0010
0000
3100
0000
0201
0000
0000
0001
0300
0100
,  // measure 11
0010
0000
0000
0000
1000
0000
0010
0000
0000
0000
0100
0000
0001
0000
0000
0000
0001
0010
0100
0000
0000
0000
0100
0000
2010
0000
0000
0000
0010
0000
0000
0000
3001
0000
0000
0000
0201
0000
0000
0000
0000
0000
0310
0000
0000
0000
1000
0000
,  // measure 12
0010
0000
0000
0000
0100
0000
0001
0000
0000
0000
0010
0000
0100
0000
0000
0000
0100
1000
0001
0000
0000
0000
0001
0000
2100
0000
0000
0000
0100
0000
0000
0000
3010
0000
0000
0000
0102
0000
0000
0000
0000
0000
0013
0000
0000
0000
0100
0000
,  // measure 13
1000
0000
0000
0000
1000
0001
0100
0000
0000
0000
0001
0000
0010
0000
0000
0000
0100
0000
1000
0000
0000
0000
0100
0000
0012
0000
0000
0000
0010
0000
0000
0000
0103
0000
0000
0000
1020
0000
0000
0000
0000
0000
0130
0000
0000
0000
0010
0000
,  // measure 14
1000
0000
0000
0000
0001
0000
0010
0000
0000
0000
0010
0000
0100
0000
0000
0000
1000
0000
0010
0100
0001
0000
1000
0000
0201
0000
0000
0000
0001
0000
0000
0000
0310
0000
0000
0000
1020
0000
0000
0000
0000
0000
1000
0000
0030
0000
0010
0000
,  // measure 15
0100
0000
0000
0000
0001
0000
0100
0000
0000
0000
0010
0000
1000
0000
0000
0000
1000
0100
0010
0000
0000
0000
0010
0000
0102
0000
0000
0000
0100
0000
0000
0000
1003
0000
0000
0000
1020
0000
0000
0000
0000
0000
0130
0000
0000
0000
0001
0000
,  // measure 16
0100
0000
0000
0000
0010
0000
1000
0000
0000
0000
0100
0000
0010
0000
0000
0000
0010
0001
1000
0000
0000
0000
1000
0000
0012
0000
0000
0000
0010
0000
0000
0000
0103
0000
0000
0000
2010
0000
0000
0000
0000
0000
3100
0000
0000
0000
0010
0000
,  // measure 17
0001
0000
0000
0000
0001
0000
0010
0000
0000
0000
0100
0000
0010
0000
0000
0000
0010
0001
1000
0000
0000
0000
0010
0000
2100
0000
0000
0000
0100
0000
0000
0000
3010
0000
0000
0000
0201
0000
0000
0000
0000
0000
0310
0000
0000
0000
0100
0000
,  // measure 18
0001
0000
0000
0000
1000
0000
0100
0000
0000
0000
0100
0000
0010
0000
0000
0000
0001
0000
0100
0010
1000
0000
0001
0000
1010
0000
0000
0000
0100
0000
0001
0000
0010
0000
0000
0000
1100
0000
0000
0000
0010
0000
0000
0000
0101
0000
0000
0000
,  // measure 19
1010
0001
0100
0000
0010
0000
1100
0000
1000
0000
0011
0000
0101
0000
0010
1000
0100
0000
0011
0000
0001
0000
1100
0000
,  // measure 20
0101
0000
0000
0000
0000
0000
0000
0000
0000
0000
0000
0000
0000
0000
0000
0000
0010
0000
0000
0000
0000
0000
0000
0000
0000
0000
0000
0000
0000
0000
0000
0000
0101
0000
0000
0000
0000
0000
0000
0000
0000
0000
0000
0000
0000
0000
0000
0000
1010
0000
0000
0000
0000
0000
0000
0000
0000
0000
0000
0000
0000
0000
0000
0000
1000
0000
0000
0000
0000
0000
0000
0000
0000
0000
0000
0000
0000
0000
0000
0000
0011
0000
0000
0000
0000
0000
0000
0000
0000
0000
0000
0000
0000
0000
0000
0000
2200
0000
0000
0000
0000
0000
0000
0000
0000
0000
0000
0000
0000
0000
0000
0000
0000
0000
0000
0000
0000
0000
0000
0000
0000
0000
0000
0000
0000
0000
0000
0000
0000
0000
0000
0000
0000
0000
0000
0000
0000
0000
0000
0000
0000
0000
0000
0000
0000
0000
0000
0000
0000
0000
0000
0000
0000
0000
0000
0000
0000
0000
0000
0000
0000
0000
0000
0000
0000
3000
0000
0000
0002
0000
0000
0000
0000
0000
0000
0000
0000
0300
0000
0000
2000
0000
0000
0000
0000
0000
0000
0000
0000
0003
0000
0000
,  // measure 21
0010
3000
0000
0000
0001
0000
0000
0000
0101
0000
0000
0000
2001
0000
0000
0000
0010
0000
0000
0000
0001
0000
3000
0000
0100
0000
0010
0000
0100
0000
0001
0000
0100
0000
1000
0000
0010
0000
0000
0000
2010
0000
0000
0000
3001
0000
0000
0000
,  // measure 22
1200
0000
0010
0000
1000
0000
0310
0000
0001
0000
0100
0000
1010
0000
0010
0100
1000
0100
0001
0000
0010
0000
0011
0000
,  // measure 23
2100
0000
0100
0000
3001
0000
1002
0000
0010
0000
0103
0000
0010
0000
0001
0010
0100
1000
0201
0000
0301
0000
0010
0000
,  // measure 24
1100
0000
1000
0000
0010
0000
0201
0000
0010
0300
0001
0000
1100
0000
1000
0100
0001
0100
0020
0000
1000
0000
0130
0000
,  // measure 25
0011
0000
0012
0000
0103
0000
1020
0000
0100
0000
0130
0000
0010
0100
0001
0000
1000
0000
0011
0000
0010
0001
1000
0000
,  // measure 26
0201
0000
0001
0000
0310
0000
2010
0000
3100
0000
1100
0000
1001
0000
0001
0010
1000
0010
0100
0000
1000
0000
1010
0000
,  // measure 27
0102
0000
0100
0000
0013
0000
2001
0000
0010
0000
3100
0000
0011
0000
0001
0100
1000
0001
0010
0000
2100
0000
3001
0000
,  // measure 28
2100
0000
0010
0000
3001
0000
0102
0000
1000
0000
0103
0000
0001
0010
0100
0000
1000
0000
0101
0000
0001
0000
1000
0000
,  // measure 29
0101
0000
0010
1000
0100
0000
0011
0000
0100
0000
1010
0000
0101
1000
0010
0000
0100
0000
0011
0000
0001
0000
1100
0000
,  // measure 30
1010
0000
0000
0000
0100
0000
0001
0000
0010
0000
0000
0000
1100
0000
0000
0000
1000
0000
0000
0000
0011
0000
0000
0000
1010
0000
0000
0000
0100
0000
0000
0000
1010
0000
0000
0000
0101
0000
0000
0000
0001
0000
0000
0000
1000
0000
0100
0010
,  // measure 31
0001
0000
0101
0000
0100
0010
1000
0000
0102
0000
0010
0000
1003
0100
0010
0000
0001
0000
0102
0000
1003
0000
2010
0000
,  // measure 32
3100
0000
0010
0001
1000
0000
0101
0000
0001
0000
0100
0010
1000
0000
0100
0000
0110
0000
0012
0000
1000
0000
0103
0000
,  // measure 33
1010
0000
1200
0000
0310
0000
0001
1000
0010
0000
0101
0000
0010
1000
0100
0000
0011
0000
2100
0000
0010
0000
3001
0000
,  // measure 34
0201
0000
0010
0000
0301
0000
0100
0010
1000
0000
0001
0000
0010
0100
1000
0001
1000
0010
0202
0303
0000
0000
0000
0000
,  // measure 35
1010
0000
0101
0000
0100
0010
1000
0000
0102
0000
0010
0000
1003
0100
0010
0000
0011
0000
0102
0000
1003
0000
2010
0000
,  // measure 36
3100
0000
0010
0001
1000
0000
0101
0000
0001
0000
0100
0010
1000
0000
0100
0000
0110
0000
0012
0000
1000
0000
0103
0000
,  // measure 37
1010
0000
1200
0000
0310
0000
0001
1000
0010
0000
0101
0000
0010
1000
0100
0000
0011
0000
2100
0000
0010
0000
3001
0000
,  // measure 38
0201
0000
0010
0000
0301
0000
0100
0010
1000
0000
0001
0000
0010
0100
1000
0001
1000
0010
0201
0000
1000
0000
0000
0300
,  // measure 39
0101
0000
1010
0000
0010
0100
1001
0000
2010
0000
0100
0000
3001
0010
1100
0000
1001
0000
2010
0000
3001
0000
0102
0000
,  // measure 40
0013
0000
0100
1000
0011
0000
1010
0000
1001
0000
0010
0100
0001
0000
0011
0000
0110
0000
2100
0000
0001
0000
3010
0000
,  // measure 41
0101
0000
0021
0000
0130
0000
1000
0001
0110
0000
1010
0000
0100
0001
1010
0000
1100
0000
0012
0000
0100
0000
1003
0000
,  // measure 42
1020
0000
0100
0000
1030
0000
0010
0100
1001
0000
1100
0000
0100
0010
0001
1000
0001
0100
1010
0000
1100
0000
0011
0000
,  // measure 43
1100
0010
0001
0000
1010
0000
0101
0010
1000
0000
0100
1000
0010
0100
0001
0100
0010
1000
0202
0303
0000
0000
0000
0000
,  // measure 44
1010
0100
0001
1000
0001
0010
0100
0000
1000
0010
0001
0010
0100
0001
1000
0100
0010
0001
2200
3300
0000
0000
0000
0000
,  // measure 45
0011
0100
1000
0000
0001
0100
0010
1000
0001
0000
0010
0100
1000
0001
0100
0010
1000
0100
0002
0000
0000
0000
0000
0003
,  // measure 46
0100
1000
0010
0100
0001
0000
0100
1000
0100
0001
1000
0010
0001
0010
1000
0001
0010
0100
2000
0000
0010
0000
0001
3000
,  // measure 47
2200
0000
3300
0000
;
