#TITLE:Fire Mix 2009 Intro;
#SUBTITLE:;
#ARTIST:Swampyboy;
#TITLETRANSLIT:;
#SUBTITLETRANSLIT:;
#ARTISTTRANSLIT:;
#CREDIT:;
#BANNER:;
#BACKGROUND:;
#LYRICSPATH:;
#CDTITLE:monst3rjoe - cdtitle.png;
#MUSIC:fire mix 2009.ogg;
#OFFSET:-0.024;
#SAMPLESTART:40.620;
#SAMPLELENGTH:12.000;
#SELECTABLE:YES;
#DISPLAYBPM:175.000;
#BPMS:0.000=175.000,381.000=87.500;
#STOPS:60.000=1.029
;
#BGCHANGES:;
// cache tags:
#FIRSTBEAT:0.000;
#LASTBEAT:383.000;
#SONGFILENAME:Songs/SSSC Pack 2/Fire Mix 2009 Intro - [Monst3rjoe]/blank sm.sm;
#HASMUSIC:1;
#HASBANNER:0;
#MUSICLENGTH:133.578;
// end cache tags

//---------------dance-single - Monst3rjoe----------------
#NOTES:
     dance-single:
     Monst3rjoe:
     Challenge:
     12:
     1.000,1.000,0.382,0.973,0.756,810.000,51.000,130.000,56.000,0.000:

M000
0000
0000
0000
,
0000
0000
0000
0000
,
MM00
0000
0000
0000
,
0000
0000
0000
0000
,
MMM0
0000
0000
0000
,
0000
0000
0000
0000
,
MMMM
0000
0000
0000
,
0000
0000
0000
0000
,
1000
0000
0010
0000
0000
0000
1000
0000
0001
0000
0010
0100
1000
0000
0100
0000
,
MM0M
0010
0100
0010
0001
0010
1000
0010
,
0001
0000
0100
0000
0000
0000
0001
0000
0010
0000
0001
1000
0010
0000
0100
0000
,
MM0M
0010
0100
0010
1000
0010
0001
0010
,
1000
0000
0100
0000
0000
0000
1000
0000
0001
0000
0010
0001
1000
0000
0100
0000
,
MM0M
0010
0100
0010
0001
0010
1000
0010
,
0100
0000
1000
0000
0000
0000
0100
0000
0010
0000
0001
1000
0001
0000
0100
0000
,
M0M0
0000
0000
0000
0101
0000
0001
0000
0100
0000
0001
0010
0001
1000
0010
0100
,
0001
1000
0001
0000
0000
0000
0100
0000
0110
0000
0010
1000
0001
1000
0100
0010
,
0001
0000
0010
0000
0110
0000
0000
0000
1100
0000
0100
1000
0100
0010
0001
0010
,
0100
1000
0010
0000
0000
0000
0100
0000
0101
0000
0001
0010
0001
1000
0100
0010
,
0004
0000
0000
0000
1003
0000
0010
0000
1010
0000
1000
0001
0010
0100
0010
0001
,
1000
0001
0100
0000
0000
0000
0010
0000
0110
0000
0100
0001
1000
0001
0010
0100
,
1000
0001
0200
0000
0320
0000
0032
0000
,
2003
3020
0230
2300
,
3002
0000
0000
0000
0103
0000
0001
0000
1001
0000
1000
0001
0010
0100
1000
0001
,
1000
0001
0100
0000
0000
0000
0010
0000
0110
0000
0100
0001
1000
0001
0010
0100
,
1000
0000
0100
0000
0110
0000
0000
0000
0011
0000
0010
0001
1000
0010
1000
0001
,
0100
0010
1000
0000
0000
0000
0010
0000
1010
0000
1000
0010
1000
0001
0100
0010
,
4000
0000
0000
0000
3001
0000
0100
0000
0110
0000
0010
1000
0001
1000
0100
0010
,
0001
1000
0100
0000
0000
0000
0010
0000
0011
0000
0001
1000
0001
1000
0010
0000
,
1000
0100
M11M
0000
1MM1
0000
M11M
0000
,
1MM1
0000
0000
0000
1000
0000
1000
0000
0001
0000
0001
0000
1000
0100
1000
0100
,
1000
0000
0100
0000
1000
0000
0100
0000
1000
0000
0100
0000
1000
0000
0000
0000
0000
0000
0100
0000
0000
0010
0000
0000
0001
0000
0000
0000
0000
0000
0100
0000
0000
0010
0000
0000
1000
0000
0000
0000
0000
0000
1001
0000
0000
0000
0000
0000
,
0001
0000
0200
0000
M00M
0000
0310
0000
0110
0000
0100
0001
0100
0001
1000
0000
,
1001
0000
0001
0000
1001
0000
1000
0001
1000
0000
0001
1000
0010
0000
0100
0000
,
0110
0000
0020
0000
M00M
0000
0130
0000
1001
0000
0001
0100
0010
0100
0010
0100
,
0002
0003
0000
0000
0000
0000
0000
0000
0000
0000
0000
0000
0020
0030
0000
0000
0000
0000
0000
0000
0000
0000
0000
0000
0200
0300
0000
0000
0000
0000
0000
0000
0000
0000
0000
0000
0020
0030
0000
0000
0000
0000
0000
0000
0000
0000
0000
0000
0001
0000
0000
0000
0000
0000
0000
0000
0000
0000
0000
0000
0000
0000
0000
0000
0000
0000
0000
0000
0000
0000
0000
0000
0100
0000
0000
0000
0000
0000
0000
0000
0000
0000
0000
0000
0000
0000
0000
0000
0000
0000
0000
0000
0000
0000
0000
0000
0101
0000
0000
0000
0000
0000
0000
0000
0000
0000
0000
0000
0000
0000
0000
0000
0000
0000
0000
0000
0000
0000
0000
0000
0001
0000
0000
0000
0000
0000
0000
0000
0000
0000
0000
0000
1000
0000
0000
0000
0000
0000
0000
0000
0000
0000
0000
0000
0010
0000
0000
0000
0000
0000
0000
0000
0000
0000
0000
0000
0000
0000
0000
0000
0000
0000
0000
0000
0000
0000
0000
0000
1000
0000
0000
0000
0000
0000
0000
0000
0000
0000
0000
0000
0000
0000
0000
0000
0000
0000
0000
0000
0000
0000
0000
0000
,
0100
0000
0200
0000
M01M
0000
0320
0000
0031
0000
0001
1000
0010
1000
0100
0010
,
0001
0000
0100
0000
0010
1000
0100
0000
0110
0000
0010
0000
0001
0100
0010
0100
,
0001
0000
1000
0001
0000
0001
1000
0000
0001
0010
0001
0010
0100
1000
0100
0010
,
0004
0000
0000
0003
1000
0000
0010
0100
0001
0000
0001
0000
1000
0010
1000
0000
,
0100
0010
0001
0010
0001
0000
1000
0010
1000
0000
0001
0000
1000
0010
1000
0000
,
0100
0000
0010
0000
0011
0000
0101
0000
0001
0100
0010
1000
0010
0000
0100
0001
,
1000
0000
2000
0000
00MM
0000
3100
0010
0001
0000
1001
0000
1000
0010
0100
0001
,
4000
0000
0000
0000
0000
0000
0000
0000
3000
0000
0000
0000
0001
0000
0000
1000
0000
0000
0001
0000
0000
1000
0000
0000
0100
0000
0000
0000
0000
0000
0100
0000
0000
0000
0000
0000
1000
0000
0000
0010
0000
0000
1000
0000
0000
0000
0000
0000
,
0100
0000
1000
0010
1000
0000
1100
0000
1001
0000
1010
0000
0010
1000
0100
1000
,
0001
0010
0001
0100
0010
1000
0100
1000
0100
0010
0001
0010
0001
1000
0001
1000
,
0010
0010
1MM1
0100
0100
1MM1
0010
0010
,
1MM1
0000
1000
0000
0001
0100
0010
0100
0020
0000
0230
0000
2300
0000
0000
3200
,
0000
0000
0302
0000
1003
0100
0010
0100
0020
0000
0230
0000
0302
0000
0000
0203
,
0000
0000
0000
0000
0000
0000
2300
0000
0000
0000
0000
0000
3001
0000
1000
0000
0001
0000
1000
0000
0001
0000
1000
0000
0001
0000
1000
0000
0001
0000
1000
0000
0000
0000
0000
0000
0200
0000
0000
0000
0000
0000
0000
0000
0000
0302
0000
0000
,
0000
0000
0203
0000
0310
0001
1000
0010
0100
0000
0001
1000
0000
1000
0001
0000
,
MM11
0000
0001
0000
1000
0100
1000
0001
1000
0010
1000
0001
0040
0000
MM0M
0000
,
0130
0000
0010
0000
0011
0000
0001
0100
0010
0100
0001
1000
0100
0000
0010
0001
,
1000
0000
1000
0000
0004
0010
0000
0013
0100
0000
0100
0000
1000
0010
1000
0000
,
0100
0000
1000
0010
1000
0000
1000
0000
0001
0000
0011
0000
0010
0000
0100
0010
,
0001
0000
1001
0000
0001
0100
0010
0100
0010
1000
0100
0010
0200
0000
0000
0302
,
0000
0000
0000
0000
0000
0000
0203
0000
0000
0000
0000
0000
1300
0000
0100
0000
1000
0000
0100
0000
0000
0010
0000
0000
0001
0000
0000
0100
0000
0000
0010
0000
0000
1000
0000
0000
0020
0000
0000
0000
0000
0000
0000
0000
0000
0032
0000
0000
,
0000
0000
0023
0000
0130
0001
0100
0010
1000
0100
0010
0001
0200
0000
0000
2300
,
0000
0000
0000
0000
3200
0000
0000
0000
0310
0000
0100
0000
0001
0000
1000
0000
0004
0000
0403
0000
0340
0000
4030
3000
1001
0000
0000
0000
0001
0000
1000
0000
,
0010
0000
0000
0000
0000
0000
0000
0000
0000
0000
0000
0000
1000
0000
0000
0010
0000
0000
0100
0000
0000
0010
0000
0000
1000
0000
0000
0001
0000
0000
0100
0000
0000
0010
0000
0000
1000
0000
0001
0000
1000
0000
0001
0000
0000
1000
0000
0000
,
0100
0010
0001
0000
1000
0000
1001
0000
0001
0100
0010
0100
0001
1000
0100
0010
,
0001
0000
0100
0000
0001
0010
0001
0000
0001
0010
0001
0000
1000
0000
0000
1000
,
0000
0000
0000
0000
0000
0000
1000
0000
0000
0000
0000
0000
1200
0000
0000
0000
0000
0000
0320
0000
0000
0000
0000
0000
0032
0000
0000
0000
0000
0000
2003
0000
0000
0000
0000
0000
3001
0000
1000
0000
0001
0000
1000
0000
0000
0001
0000
0000
,
0400
0304
0403
0340
4030
3000
0010
0000
1000
0000
0100
0000
1000
0000
0100
0000
,
0010
0000
0100
0000
0010
0001
0100
0000
0001
0000
0100
0000
0001
0000
0100
0000
,
0020
0030
0000
0000
0000
0000
0000
0000
0000
0000
0000
0000
0000
0000
0000
0000
0000
0000
0000
0000
0000
0000
0000
0000
0100
0000
0000
0000
0000
0000
0000
0000
0000
0000
0000
0000
0000
0000
0000
0000
0000
0000
0000
0000
0000
0000
0000
0000
0010
0000
0000
0000
0000
0000
0000
0000
0000
0000
0000
0000
1000
0000
0000
0000
0000
0000
0000
0000
0000
0000
0000
0000
0100
0000
0000
0000
0000
0000
0000
0000
0000
0000
0000
0000
0000
0000
0000
0000
0000
0000
0000
0000
0000
0000
0000
0000
0010
0000
0000
0000
0000
0000
0000
0000
0000
0000
0000
0000
0000
0000
0000
0000
0000
0000
0000
0000
0000
0000
0000
0000
0100
0000
0000
0000
0000
0000
0000
0000
0000
0000
0000
0000
0000
0000
0000
0000
0000
0000
0000
0000
0000
0000
0000
0000
0010
0000
0000
0000
0000
0000
0000
0000
0000
0000
0000
0000
0000
0000
0000
0000
0000
0000
0000
0000
0000
0000
0000
0000
0100
0000
0000
0000
0000
0000
0000
0000
0000
0000
0000
0000
0000
0000
0000
0000
0000
0000
0000
0000
0000
0000
0000
0000
,
1000
0000
0000
0000
0000
0000
0000
0000
0000
0000
0000
0000
0000
0000
0000
0000
0000
0000
0000
0000
0000
0000
0000
0000
0001
0000
0000
0000
0000
0000
0000
0000
0000
0000
0000
0000
0000
0000
0000
0000
0000
0000
0000
0000
0000
0000
0000
0000
0100
0000
0000
0000
0000
0000
0000
0000
0000
0000
0000
0000
0001
0000
0000
0000
0000
0000
0000
0000
0000
0000
0000
0000
0010
0000
0000
0000
0000
0000
0000
0000
0000
0000
0000
0000
0000
0000
0000
0000
0000
0000
0000
0000
0000
0000
0000
0000
0100
0000
0000
0000
0000
0000
0000
0000
0000
0000
0000
0000
0000
0000
0000
0000
0000
0000
0000
0000
0000
0000
0000
0000
2000
3000
0000
0000
0000
0000
0000
0000
0000
0000
0000
0000
0000
0000
0000
0000
0000
0000
0000
0000
0000
0000
0000
0000
0100
0000
0000
0000
0000
0000
0000
0000
0000
0000
0000
0000
0000
0000
0000
0000
0000
0000
0000
0000
0000
0000
0000
0000
2000
3000
0000
0000
0000
0000
0000
0000
0000
0000
0000
0000
0000
0000
0000
0000
0000
0000
0000
0000
0000
0000
0000
0000
,
0004
0003
0000
0000
0000
0000
0000
0000
0000
0000
0000
0000
0000
0000
0000
0000
0000
0000
0000
0000
0000
0000
0000
0000
0010
0000
0000
0000
0000
0000
0000
0000
0000
0000
0000
0000
0000
0000
0000
0000
0000
0000
0000
0000
0000
0000
0000
0000
0100
0000
0000
0000
0000
0000
0000
0000
0000
0000
0000
0000
1000
0000
0000
0000
0000
0000
0000
0000
0000
0000
0000
0000
0001
0000
0000
0000
0000
0000
0000
0000
0000
0000
0000
0000
0000
0000
0000
0000
0000
0000
0000
0000
0000
0000
0000
0000
0100
0000
0000
0000
0000
0000
0000
0000
0000
0000
0000
0000
0000
0000
0000
0000
0000
0000
0000
0000
0000
0000
0000
0000
0010
0000
0000
0000
0000
0000
0000
0000
0000
0000
0000
0000
0000
0000
0000
0000
0000
0000
0000
0000
0000
0000
0000
0000
0100
0000
0000
0000
0000
0000
0000
0000
0000
0000
0000
0000
0000
0000
0000
0000
0000
0000
0000
0000
0000
0000
0000
0000
0010
0000
0000
0000
0000
0000
0000
0000
0000
0000
0000
0000
0000
0000
0000
0000
0000
0000
0000
0000
0000
0000
0000
0000
,
1000
0000
0001
0000
0100
0001
1000
0000
0100
0000
0010
0000
0100
0000
0010
0000
,
0002
0003
0000
0000
0000
0000
0000
0000
0000
0000
0000
0000
0000
0000
0000
0000
0000
0000
0000
0000
0000
0000
0000
0000
1000
0000
0000
0000
0000
0000
0000
0000
0000
0000
0000
0000
0000
0000
0000
0000
0000
0000
0000
0000
0000
0000
0000
0000
0100
0000
0000
0000
0000
0000
0000
0000
0000
0000
0000
0000
1000
0000
0000
0000
0000
0000
0000
0000
0000
0000
0000
0000
0001
0000
0000
0000
0000
0000
0000
0000
0000
0000
0000
0000
0000
0000
0000
0000
0000
0000
0000
0000
0000
0000
0000
0000
0100
0000
0000
0000
0000
0000
0000
0000
0000
0000
0000
0000
0000
0000
0000
0000
0000
0000
0000
0000
0000
0000
0000
0000
0001
0000
0000
0000
0000
0000
0000
0000
0000
0000
0000
0000
0000
0000
0000
0000
0000
0000
0000
0000
0000
0000
0000
0000
0100
0000
0000
0000
0000
0000
0000
0000
0000
0000
0000
0000
0000
0000
0000
0000
0000
0000
0000
0000
0000
0000
0000
0000
0001
0000
0000
0000
0000
0000
0000
0000
0000
0000
0000
0000
0000
0000
0000
0000
0000
0000
0000
0000
0000
0000
0000
0000
,
0100
0000
0000
0000
0000
0000
0000
0000
0000
0000
0000
0000
0000
0000
0000
0000
0000
0000
0000
0000
0000
0000
0000
0000
0001
0000
0000
0000
0000
0000
0000
0000
0000
0000
0000
0000
0000
0000
0000
0000
0000
0000
0000
0000
0000
0000
0000
0000
1000
0000
0000
0000
0000
0000
0000
0000
0000
0000
0000
0000
0100
0000
0000
0000
0000
0000
0000
0000
0000
0000
0000
0000
0010
0000
0000
0000
0000
0000
0000
0000
0000
0000
0000
0000
0000
0000
0000
0000
0000
0000
0000
0000
0000
0000
0000
0000
0001
0000
0000
0000
0000
0000
0000
0000
0000
0000
0000
0000
0000
0000
0000
0000
0000
0000
0000
0000
0000
0000
0000
0000
0200
0300
0000
0000
0000
0000
0000
0000
0000
0000
0000
0000
0000
0000
0000
0000
0000
0000
0000
0000
0000
0000
0000
0000
0010
0000
0000
0000
0000
0000
0000
0000
0000
0000
0000
0000
0000
0000
0000
0000
0000
0000
0000
0000
0000
0000
0000
0000
2000
3000
0000
0000
0000
0000
0000
0000
0000
0000
0000
0000
0000
0000
0000
0000
0000
0000
0000
0000
0000
0000
0000
0000
,
0400
0000
0000
0000
M0MM
0000
0300
0000
0000
0000
0000
0000
1100
0000
0000
0000
0000
0000
1000
0000
0000
0000
0000
0000
0001
0000
0000
0010
0000
0000
0001
0000
0000
0000
0000
0000
1000
0000
0000
0000
0000
0000
0100
0000
0000
0000
0000
0000
,
0020
0030
0000
0000
0000
0000
0000
0000
0000
0000
0000
0000
0000
0000
0000
0000
0000
0000
0000
0000
0000
0000
0000
0000
0020
0030
0000
0000
0000
0000
0000
0000
0000
0000
0000
0000
0000
0000
0000
0000
0000
0000
0000
0000
0000
0000
0000
0000
0001
0000
0000
0000
0000
0000
0000
0000
0000
0000
0000
0000
1000
0000
0000
0000
0000
0000
0000
0000
0000
0000
0000
0000
0001
0000
0000
0000
0000
0000
0000
0000
0000
0000
0000
0000
0000
0000
0000
0000
0000
0000
0000
0000
0000
0000
0000
0000
0100
0000
0000
0000
0000
0000
0000
0000
0000
0000
0000
0000
0000
0000
0000
0000
0000
0000
0000
0000
0000
0000
0000
0000
0010
0000
0000
0000
0000
0000
0000
0000
0000
0000
0000
0000
0000
0000
0000
0000
0000
0000
0000
0000
0000
0000
0000
0000
4000
0000
0000
0000
0000
0000
0000
0000
0000
0000
0000
0000
3000
0000
0000
0000
0000
0000
0000
0000
0000
0000
0000
0000
0400
0000
0000
0000
0000
0000
0000
0000
0000
0000
0000
0000
0300
0000
0000
0000
0000
0000
0000
0000
0000
0000
0000
0000
,
1000
0000
0100
0000
1000
0000
0400
0000
0000
0000
0000
0000
1300
0000
0000
0001
0000
0000
1000
0000
0000
0000
0000
0000
0001
0000
0000
0000
0000
0000
1000
0000
0000
0000
0000
0000
0001
0000
0000
0000
0000
0000
1000
0000
0000
0000
0000
0000
,
1010
0010
1000
1000
0001
0001
0000
0001
,
4000
0000
0000
0000
3100
0010
0001
0000
0100
0000
0100
0000
0001
0000
0010
0000
,
0001
0000
0000
0000
0000
0000
0000
0000
0000
0000
0000
0000
0000
0000
0000
0000
0000
0000
0000
0000
0000
0000
0000
0000
0010
0000
0000
0000
0000
0000
0000
0000
0000
0000
0000
0000
0000
0000
0000
0000
0000
0000
0000
0000
0000
0000
0000
0000
0002
0003
0000
0000
0000
0000
0000
0000
0000
0000
0000
0000
1000
0000
0000
0000
0000
0000
0000
0000
0000
0000
0000
0000
0001
0000
0000
0000
0000
0000
0000
0000
0000
0000
0000
0000
0000
0000
0000
0000
0000
0000
0000
0000
0000
0000
0000
0000
0100
0000
0000
0000
0000
0000
0000
0000
0000
0000
0000
0000
0000
0000
0000
0000
0000
0000
0000
0000
0000
0000
0000
0000
0002
0003
0000
0000
0000
0000
0000
0000
0000
0000
0000
0000
0000
0000
0000
0000
0000
0000
0000
0000
0000
0000
0000
0000
0010
0000
0000
0000
0000
0000
0000
0000
0000
0000
0000
0000
0000
0000
0000
0000
0000
0000
0000
0000
0000
0000
0000
0000
0100
0000
0000
0000
0000
0000
0000
0000
0000
0000
0000
0000
0000
0000
0000
0000
0000
0000
0000
0000
0000
0000
0000
0000
,
2000
3000
0000
0000
0000
0000
0000
0000
0000
0000
0000
0000
0000
0000
0000
0000
0000
0000
0000
0000
0000
0000
0000
0000
2000
3000
0000
0000
0000
0000
0000
0000
0000
0000
0000
0000
0000
0000
0000
0000
0000
0000
0000
0000
0000
0000
0000
0000
0010
0000
0000
0000
0000
0000
0000
0000
0000
0000
0000
0000
0100
0000
0000
0000
0000
0000
0000
0000
0000
0000
0000
0000
0001
0000
0000
0000
0000
0000
0000
0000
0000
0000
0000
0000
0000
0000
0000
0000
0000
0000
0000
0000
0000
0000
0000
0000
0004
0003
0000
0000
0000
0000
0000
0000
0000
0000
0000
0000
0000
0000
0000
0000
0000
0000
0000
0000
0000
0000
0000
0000
0020
0030
0000
0000
0000
0000
0000
0000
0000
0000
0000
0000
0000
0000
0000
0000
0000
0000
0000
0000
0000
0000
0000
0000
0100
0000
0000
0000
0000
0000
0000
0000
0000
0000
0000
0000
1000
0000
0000
0000
0000
0000
0000
0000
0000
0000
0000
0000
0100
0000
0000
0000
0000
0000
0000
0000
0000
0000
0000
0000
1000
0000
0000
0000
0000
0000
0000
0000
0000
0000
0000
0000
,
0001
0000
0000
0000
0000
0000
0000
0000
0000
0000
0000
0000
0100
0000
0000
0000
0000
0000
0000
0000
0000
0000
0000
0000
0001
0000
0000
0000
0000
0000
0000
0000
0000
0000
0000
0000
0100
0000
0000
0000
0000
0000
0000
0000
0000
0000
0000
0000
0010
0000
0000
0000
0000
0000
0000
0000
0000
0000
0000
0000
1000
0000
0000
0000
0000
0000
0000
0000
0000
0000
0000
0000
0100
0000
0000
0000
0000
0000
0000
0000
0000
0000
0000
0000
1000
0000
0000
0000
0000
0000
0000
0000
0000
0000
0000
0000
0001
0000
0000
0000
0000
0000
0000
0000
0000
0000
0000
0000
0000
0000
0000
0000
0000
0000
0000
0000
0000
0000
0000
0000
0000
0000
0000
0000
0000
0000
0000
0000
0000
0000
0000
0000
0000
0000
0000
0000
0000
0000
0000
0000
0000
0000
0000
0000
0010
0000
0000
0000
0000
0000
0000
0000
0000
0000
0000
0000
0000
0000
0000
0000
0000
0000
0000
0000
0000
0000
0000
0000
0002
0003
0000
0000
0000
0000
0000
0000
0000
0000
0000
0000
0000
0000
0000
0000
0000
0000
0000
0000
0000
0000
0000
0000
,
1001
0000
1000
0100
1000
0100
0002
0203
,
0302
0203
0301
1000
0001
1000
0020
2030
,
3020
2030
3001
0100
0001
0100
2000
3020
,
2030
3020
0031
0010
0001
0010
0200
2300
,
3200
2300
3001
1000
0001
1000
0020
2030
,
3020
2030
3001
0100
0001
0100
0020
0230
,
0320
0230
0301
0010
0001
0010
0200
2300
,
3002
0023
0230
0302
0023
2030
3002
0203
,
0320
2030
3010
0100
0010
0100
0002
0203
,
0302
0203
0310
1000
0010
1000
0020
0032
,
0023
0032
0103
0010
0100
0010
0002
0023
,
0032
0023
0130
1000
0100
1000
0002
0023
,
0032
0023
0130
0001
0100
0001
0020
2030
,
3020
2030
3001
0100
0001
0100
0002
2003
,
3002
2003
3010
0100
0010
0100
2000
3200
,
0302
2003
3002
0203
0320
0032
0203
2300
,
3002
0023
M23M
0000
0000
0000
M3MM
0000
;
