#TITLE:Angeline;
#SUBTITLE:;
#ARTIST:Groove Coverage feat. Nightcore;
#TITLETRANSLIT:;
#SUBTITLETRANSLIT:;
#ARTISTTRANSLIT:;
#CREDIT:owenviau1;
#BANNER:../owenviau1 Simfiles 5-bn.png;
#BACKGROUND:../owenviau1 Simfiles 5-bg.png;
#LYRICSPATH:;
#CDTITLE:../ov1_title.png;
#MUSIC:Nightcore - Angeline.mp3;
#OFFSET:-1.447;
#SAMPLESTART:90.556;
#SAMPLELENGTH:29.999;
#SELECTABLE:YES;
#DISPLAYBPM:165.630;
#BPMS:0.000=165.623,1.000=165.644,2.000=165.634,3.000=165.623,4.000=165.644,5.000=165.634,6.000=165.623,7.000=165.644,8.000=165.623,9.000=165.644,10.000=165.634,11.000=165.623,12.000=165.644,13.000=165.634,14.000=165.623,15.000=165.644,16.000=165.623,17.000=165.644,18.000=165.634,19.000=165.623,20.000=165.644,21.000=165.634,22.000=165.623,23.000=165.644,24.000=165.623,25.000=165.644,26.000=165.634,27.000=165.623,28.000=165.634,29.000=165.644,30.000=165.623,31.000=165.634,32.000=165.623,33.000=165.634,34.000=165.644,35.000=165.623,36.000=165.634,37.000=165.644,38.000=165.623,39.000=165.634,40.000=165.623,41.000=165.634,42.000=165.644,43.000=165.623,44.000=165.634,45.000=165.644,46.000=165.623,47.000=165.634,48.000=165.623,49.000=165.634,50.000=165.644,51.000=165.623,52.000=165.634,53.000=165.644,54.000=165.623,55.000=165.634,56.000=165.623,57.000=165.634,58.000=165.644,59.000=165.623,60.000=165.634,62.000=165.623,63.000=165.634,64.000=165.623,65.000=165.634,67.000=165.623,68.000=165.634,70.000=165.623,71.000=165.634,72.000=165.623,73.000=165.634,75.000=165.623,76.000=165.634,78.000=165.623,79.000=165.634,80.000=165.623,81.000=165.634,83.000=165.623,84.000=165.634,86.000=165.623,87.000=165.634,88.000=165.623,89.000=165.634,91.000=165.623,92.000=165.634,94.000=165.623,95.000=165.634,96.000=165.623,97.000=165.634,99.000=165.623,100.000=165.634,102.000=165.623,103.000=165.634,104.000=165.623,105.000=165.634,107.000=165.623,108.000=165.634,110.000=165.623,111.000=165.634,112.000=165.623,113.000=165.634,115.000=165.623,116.000=165.634,118.000=165.623,119.000=165.634,120.000=165.623,121.000=165.634,123.000=165.623,124.000=165.634,126.000=165.623,127.000=165.634,129.000=165.623,130.000=165.634,133.000=165.623,134.000=165.634,137.000=165.623,138.000=165.634,141.000=165.623,142.000=165.634,145.000=165.623,146.000=165.634,149.000=165.623,150.000=165.634,153.000=165.623,154.000=165.634,157.000=165.623,158.000=165.634,161.000=165.623,162.000=165.634,165.000=165.623,166.000=165.634,169.000=165.623,170.000=165.634,173.000=165.623,174.000=165.634,177.000=165.623,178.000=165.634,181.000=165.623,182.000=165.634,185.000=165.623,186.000=165.634,189.000=165.623,190.000=165.634,193.000=165.623,194.000=165.634,197.000=165.623,198.000=165.634,201.000=165.623,202.000=165.634,205.000=165.623,206.000=165.634,209.000=165.623,210.000=165.634,213.000=165.623,214.000=165.634,217.000=165.623,218.000=165.634,221.000=165.623,222.000=165.634,225.000=165.623,226.000=165.634,229.000=165.623,230.000=165.634,233.000=165.623,234.000=165.634,237.000=165.623,238.000=165.634,241.000=165.623,242.000=165.634,245.000=165.623,246.000=165.634,249.000=165.623,250.000=165.634,253.000=165.623,254.000=165.634,257.000=165.623,258.000=165.634,259.000=165.623,260.000=165.634,261.000=165.623,262.000=165.634,263.000=165.623,264.000=165.634,265.000=165.623,266.000=165.634,267.000=165.623,268.000=165.634,269.000=165.623,270.000=165.634,271.000=165.623,272.000=165.634,273.000=165.623,274.000=165.634,275.000=165.623,276.000=165.634,277.000=165.623,278.000=165.634,279.000=165.623,280.000=165.634,281.000=165.623,282.000=165.634,283.000=165.623,284.000=165.634,285.000=165.623,286.000=165.634,287.000=165.623,288.000=165.634,289.000=165.623,290.000=165.634,291.000=165.623,292.000=165.634,293.000=165.623,294.000=165.634,295.000=165.623,296.000=165.634,297.000=165.623,298.000=165.634,299.000=165.623,300.000=165.634,301.000=165.623,302.000=165.634,303.000=165.623,304.000=165.634,305.000=165.623,306.000=165.634,307.000=165.623,308.000=165.634,309.000=165.623,310.000=165.634,311.000=165.623,312.000=165.634,313.000=165.623,314.000=165.634,315.000=165.623,316.000=165.634,317.000=165.623,318.000=165.634,319.000=165.623,320.000=165.634,321.000=165.623,322.000=165.634,323.000=165.623,324.000=165.634,325.000=165.623,326.000=165.634,327.000=165.623,328.000=165.634,329.000=165.623,330.000=165.634,331.000=165.623,332.000=165.634,333.000=165.623,334.000=165.634,335.000=165.623,336.000=165.634,337.000=165.623,338.000=165.634,339.000=165.623,340.000=165.634,341.000=165.623,342.000=165.634,343.000=165.623,344.000=165.634,345.000=165.623,346.000=165.634,347.000=165.623,348.000=165.634,349.000=165.623,350.000=165.634,351.000=165.623,352.000=165.634,353.000=165.623,354.000=165.634,355.000=165.623,356.000=165.634,357.000=165.623,358.000=165.634,359.000=165.623,360.000=165.634,361.000=165.623,362.000=165.634,363.000=165.623,364.000=165.634,365.000=165.623,366.000=165.634,367.000=165.623,368.000=165.634,369.000=165.623,370.000=165.634,371.000=165.623,372.000=165.634,373.000=165.623,374.000=165.634,375.000=165.623,376.000=165.634,377.000=165.623,378.000=165.634,379.000=165.623,380.000=165.634,381.000=165.623,382.000=165.634,383.000=165.623,384.000=165.634,385.000=165.623,386.000=165.634,387.000=165.623,388.000=165.634,389.000=165.623,390.000=165.634,391.000=165.623,392.000=165.634,393.000=165.623,394.000=165.634,395.000=165.623,396.000=165.634,397.000=165.623,398.000=165.634,399.000=165.623,400.000=165.634,401.000=165.623,402.000=165.634,403.000=165.623,404.000=165.634,405.000=165.623,406.000=165.634,407.000=165.623,408.000=165.634,409.000=165.623,410.000=165.634,411.000=165.623,412.000=165.634,413.000=165.623,414.000=165.634,415.000=165.623,416.000=165.634,417.000=165.623,418.000=165.634,419.000=165.623,420.000=165.634,421.000=165.623,422.000=165.634,423.000=165.623,424.000=165.634,425.000=165.623,426.000=165.634,427.000=165.623,428.000=165.634,429.000=165.623,430.000=165.634,431.000=165.623,432.000=165.634,433.000=165.623,434.000=165.634,435.000=165.623,436.000=165.634,437.000=165.623,438.000=165.634,439.000=165.623,440.000=165.634,441.000=165.623,442.000=165.634,443.000=165.623,444.000=165.634,445.000=165.623,446.000=165.634,447.000=165.623,448.000=165.634,449.000=165.623,450.000=165.634;
#STOPS:;
#BGCHANGES:;
// cache tags:
#FIRSTBEAT:0.000;
#LASTBEAT:448.000;
#SONGFILENAME:Songs/owenviau1 Simfiles 5/Angeline - [owenviau1] v1.3/Angeline.sm;
#HASMUSIC:1;
#HASBANNER:1;
#MUSICLENGTH:164.884;
// end cache tags

//---------------dance-single - ----------------
#NOTES:
     dance-single:
     :
     Hard:
     10:
     0.792,1.000,0.024,0.376,0.294,848.000,4.000,62.000,14.000,2.000:

1000
0001
0100
0010
1000
0010
1000
0001
,
0100
0001
0010
0100
1000
0010
0100
0001
,
0010
0100
1000
0100
0010
0001
1000
0010
,
0100
0001
0010
0100
1000
0001
0100
0001
,
0010
0100
1000
0001
0100
0010
1000
0001
,
1000
0010
0100
0001
1000
0001
0010
0100
,
1000
0001
0100
0001
1000
0010
0100
0001
,
1000
0010
1000
0001
0010
0100
1000
0001
,
1001
1000
0100
0010
0001
0100
0010
1000
,
0001
1000
0100
0010
0001
1000
0001
0010
,
0100
1000
0001
0100
0001
0010
0100
1000
,
0010
0100
0010
1000
0001
0100
0001
0010
,
0100
1000
0001
0100
0010
1000
0001
0010
,
0100
1000
0001
0100
0010
1000
0100
0010
,
0001
1000
0001
1000
0001
1000
0001
1000
0001
1000
0001
1000
0001
1000
0001
1000
,
0001
0100
0001
0000
0100
0010
0100
0000
1000
0010
1000
0000
0001
1000
0001
1000
,
0002
0000
0000
0000
,
0000
0000
0000
0000
0000
0023
2030
3200
,
0320
0000
0032
2003
0000
0000
0000
0000
,
3000
0000
000M
2000
3200
0000
0320
0000
,
0032
0000
0000
0000
,
0000
0003
0000
M000
0020
0000
0230
0000
,
2300
0000
3020
0230
0302
0000
0023
0230
,
0000
2300
0000
3002
0000
0203
0000
0320
,
0000
0000
0000
0000
,
0000
0030
0M00
0000
2000
0000
3200
0000
,
0320
MM0M
0000
MM0M
,
0030
0000
MM0M
00M0
0000
0000
0000
0000
2000
0000
0000
0000
3002
0000
0000
0000
,
0203
0000
0000
0000
,
0000
0300
0000
0000
0002
0000
2003
0000
,
3020
0000
0230
0302
0023
0000
0230
2300
,
0000
3020
0000
2030
0000
3002
0000
0203
,
0000
0000
0000
0300
,
000M
0000
2000
3200
0000
0320
0000
0000
,
0002
0000
0000
0000
,
0033
0000
2000
3020
,
0130
0001
0010
0100
1000
0001
0100
0001
,
1000
0010
1000
0100
0010
0001
0100
0010
,
1000
0001
1000
0010
1000
0001
0100
0001
,
0010
0100
1000
0010
0100
0010
1000
0001
,
0100
0010
0100
0001
1000
0001
0100
0010
,
1000
0010
0100
0001
0100
0010
1000
0100
,
1000
0010
0100
0001
0010
0001
1000
0001
,
0100
0000
0010
0000
1000
0000
0100
0000
0010
0000
0001
0000
0100
0000
0001
1000
,
0001
0100
0010
1000
0001
1000
0100
0010
,
0001
1000
0100
0010
0001
1000
0010
1000
,
0001
0100
0001
0010
0100
1000
0001
1000
,
0010
0100
0001
0100
0010
1000
0001
0010
,
0100
1000
0010
0100
0001
0010
0100
1000
,
0010
1000
0001
1000
0010
0100
0001
1000
,
0001
0100
0001
0100
0001
0100
0001
0100
0001
0100
0001
0100
0001
0100
0001
0100
,
0001
0000
0000
1000
0000
0000
0001
0000
0000
1000
0000
0001
0000
0000
0000
1000
,
0002
2003
3002
2003
,
3002
0000
0000
0000
2003
0000
0000
0000
3002
0000
0000
0000
2003
0000
0000
3001
,
0100
0000
0001
0000
1000
0000
0010
0000
0100
0000
0001
0010
0001
0000
0100
0000
,
0010
0000
1000
0000
0001
0000
1000
0000
0010
0100
0010
0100
0010
0000
1000
0000
,
0001
0000
0010
0000
0100
0000
1000
0000
0001
0000
1000
0010
1000
0000
0100
0000
,
0010
0000
0001
0000
0100
0000
0010
0000
1000
0000
0010
0000
0100
0000
0001
1000
,
0001
0000
0010
0000
0100
0000
0001
0000
1000
0000
0010
1000
0010
0000
0100
0000
,
0001
0000
0010
0000
1000
0000
0010
0000
0001
0000
1000
0001
1000
0000
0100
0010
,
0001
0000
0010
0000
0100
0000
1000
0001
0010
0000
0100
0000
1000
0000
0001
0100
,
0010
0000
1000
0010
0000
0010
0100
0000
0100
0001
0000
0001
0020
0000
0000
0000
0000
0000
0230
0000
0000
0000
0000
0000
,
1301
0000
0001
0000
0010
0000
0100
0000
1000
0000
0001
1000
0001
0000
0010
0000
,
0100
0000
1000
0000
0001
0000
0100
0000
0010
1000
0010
1000
0010
0000
0100
0000
,
0001
0000
1000
0000
0001
0000
0100
0000
0010
0000
1000
0001
1000
0000
0100
0000
,
0010
0001
1000
0010
1000
0100
0010
0001
,
0100
0001
0100
0001
0100
0000
0010
0000
1000
0000
0001
1000
0001
0000
0100
0000
,
0010
0000
1000
0000
0001
0000
0010
0000
0100
1000
0100
1000
0100
0000
0010
0000
,
0001
0000
1000
0000
0100
0000
1000
0000
0010
0000
0100
0001
0100
0000
0001
0000
,
0010
0100
1000
0001
1000
0010
0100
0001
,
1001
0000
1000
0000
0001
0000
0010
0000
0100
0000
1000
0001
1000
0000
0001
0000
,
0010
0000
0100
0000
1000
0000
0001
0000
1000
0010
1000
0010
1000
0000
0100
0000
,
0010
0000
0001
0000
1000
0000
0001
0000
1000
0000
0001
1000
0001
0000
0100
0000
,
0010
0001
1000
0010
1000
0001
0010
0100
,
1000
0001
1000
0001
1000
0000
0010
0000
0100
0000
1000
0010
1000
0000
0100
0000
,
0010
0000
0001
0000
0100
0000
0001
0000
1000
0010
1000
0010
1000
0000
0001
0000
,
0010
0000
0100
0000
1000
0000
0010
0000
0100
0000
0001
0100
0001
0000
1000
0000
,
0100
0010
0001
0100
0020
2030
3020
2030
,
3101
0000
0010
0000
1000
0000
0100
0000
0010
0000
0001
0100
0001
0000
1000
0000
,
0100
0000
0010
0000
0001
0000
1000
0000
0010
0100
0010
0100
0010
0000
0100
0000
,
0001
0000
1000
0000
0010
0000
1000
0000
0001
0000
0100
0001
0100
0000
0010
0000
,
1000
0000
0001
0000
0010
0000
0100
0000
1000
0001
1000
0001
1000
0000
0100
0000
,
0010
0001
1000
0010
0100
0001
0010
0001
,
0100
0010
1000
0010
0100
0001
1000
0001
,
0100
0001
0100
0001
0100
0001
0100
0001
0100
0001
0100
0001
0100
0001
0100
0001
,
0100
0001
0100
0001
0100
0001
0100
0001
0100
0001
0100
0001
0100
0001
0100
0001
,
0100
0010
1000
0001
1000
0100
0010
0001
,
0100
0010
1000
0001
0100
0001
0010
0100
,
1000
0100
0010
0001
1000
0010
1000
0001
,
0100
0000
0010
0000
1000
0000
0001
0000
0010
0000
0100
0000
0001
0000
1000
0100
,
1000
0001
1000
0100
0010
0001
0100
0001
,
1000
0001
0100
0010
1000
0100
1000
0001
,
0100
0010
1000
0001
0010
0100
1000
0001
,
1000
0000
0010
0000
0100
0000
0001
0000
0100
0000
0010
0000
1000
0000
0001
0010
,
0001
1000
0001
0100
0001
1000
0001
0100
,
0010
0100
0001
1000
0010
0100
0010
1000
,
0100
0010
0001
0100
0010
1000
0010
0100
,
0001
0000
1000
0000
0100
0000
0010
0000
0001
0000
0100
0000
0001
0000
1000
0010
,
1000
0001
0100
0010
1000
0100
1000
0001
,
0100
0001
0010
0100
1000
0010
1000
0001
,
0010
0100
1000
0100
0010
0001
0100
0010
,
1000
0000
0001
0000
0100
0000
0001
0000
1000
0000
0100
0000
0010
0000
0001
1000
,
0001
1000
0001
0010
1000
0010
0001
1000
,
0100
0010
0001
0100
1000
0010
1000
0001
,
0100
0010
0100
0001
1000
0010
0100
0010
,
1000
0000
0100
0000
0010
0000
0001
0000
0100
0000
0001
0000
1000
0000
0010
0100
,
0010
0001
1000
0001
0010
0100
1000
0010
,
0100
0001
1000
0100
1000
0010
0100
0001
,
0010
0001
1000
0100
0010
0001
1000
0001
,
0010
0100
0010
0100
0010
0100
0010
0100
0010
0100
0010
0100
0010
0100
0010
0100
,
0020
0000
0000
0000
,
0000
0000
0000
0000
,
0030
0000
0000
0000
;

//---------------dance-single - ----------------
#NOTES:
     dance-single:
     :
     Challenge:
     11:
     1.000,1.000,1.000,0.388,0.282,842.000,325.000,64.000,14.000,5.000:

1001
0010
0101
0010
1001
1000
0110
0001
,
1010
0001
1100
1000
0011
0100
1001
0001
,
0110
0001
1010
0100
0011
1000
1100
0001
,
0110
1000
0101
1000
0011
0100
1001
0010
,
0110
0001
1100
0010
1001
0010
0101
1000
,
0110
0001
1010
0001
1100
0100
0011
0100
,
1001
0001
0110
0001
1010
1000
0101
0010
,
1100
0100
0011
0100
1010
0001
0110
1000
,
1001
0010
0101
1000
0110
0001
1010
0100
,
0011
1000
0110
0010
1001
0001
0110
1000
,
0011
1000
0110
0001
1010
0100
1001
0001
,
0110
1000
0011
0001
1100
0001
0110
0010
,
1001
0110
0101
1010
0110
1001
1010
0101
,
1001
1010
0110
1001
0011
1100
0110
1001
,
1000
0001
0100
0001
1000
0100
0010
0001
1000
0001
0100
0010
1000
0100
0010
0001
,
1000
0010
0100
0000
0001
1000
0010
0000
0100
1000
0001
0000
1000
0001
1000
0010
,
0200
0000
0000
0000
,
0000
0000
0000
0000
0000
0320
2030
3200
,
0320
0000
0032
2003
0000
0000
0000
0000
,
3000
0000
000M
2000
3200
0000
0320
0000
,
0032
0000
0000
0000
,
0000
0003
0000
M000
0020
0000
0230
0000
,
2300
0000
3020
0230
0302
0000
0023
0230
,
0000
2300
0000
3002
0000
0203
0000
0320
,
0000
0000
0000
0000
,
0000
0030
0M00
0000
2000
0000
3200
0000
,
0320
MM0M
0000
MM0M
,
0030
0000
MM0M
00M0
0000
0000
0000
0000
2000
0000
0000
0000
3002
0000
0000
0000
,
0203
0000
0000
0000
,
0000
0300
0000
0000
0002
0000
2003
0000
,
3020
0000
0230
0302
0023
0000
0230
2300
,
0000
3020
0000
2030
0000
3002
0000
0203
,
0000
0000
0000
0300
,
000M
0000
2000
3200
0000
0320
0000
0002
,
0000
0000
0000
0000
,
0033
0000
2000
3020
,
1031
0100
1010
1000
0011
1000
0110
0010
,
1001
0100
0101
0010
1001
0001
0110
0001
,
1100
0010
1001
0100
0011
0100
1010
0001
,
0110
0100
1001
1000
0011
0001
1100
0010
,
1001
1000
0110
1000
0011
0100
1010
0001
,
0110
0100
1001
0100
0011
0010
1001
0001
,
1100
0001
0110
0100
1001
0100
0011
1000
,
1010
0000
0010
0000
0101
0000
0010
0000
1100
0000
0010
0000
1001
0000
0001
1000
,
0101
0010
1001
0100
0011
1000
1001
0100
,
0110
0001
1010
0100
0011
1000
0110
0010
,
1001
0010
1100
0001
0110
0010
1001
0100
,
0101
0010
1001
1000
0110
1000
0101
0010
,
1100
0110
1001
1010
0101
1001
0110
0101
,
1010
1100
0011
0101
0110
1010
1100
0101
,
1000
0001
0010
0100
1000
0010
0100
0001
1000
0001
0100
0010
1000
0001
0010
0100
,
1000
0000
0000
0001
0000
0000
1000
0000
0000
0001
0000
0100
0000
0000
0000
1000
,
1002
2003
3002
2003
,
3002
0000
0000
0000
2003
0000
0000
0000
3002
0000
0000
0000
2003
0000
0000
0001
,
1001
0000
0010
0000
1100
0000
0001
0000
1010
0000
0100
0010
0001
0000
0010
0000
,
1001
0000
0100
0000
1100
0000
0001
0000
1010
0000
0001
1000
0010
0000
0100
0000
,
1001
0000
0010
0000
0110
0000
1000
0000
0101
0000
1000
0100
0010
0000
0001
0000
,
1001
0000
1000
0000
0011
0000
0010
0000
2100
0000
0000
0000
3020
0000
0000
1000
,
1031
0000
1100
0000
0110
0000
0011
0000
1001
0000
0001
1000
0010
0000
0100
0000
,
1001
0000
0110
0000
1001
0000
0110
0000
1001
0000
0010
0100
0001
0000
0010
1000
,
1001
0000
0011
0000
0110
0000
1000
0001
1001
0000
0110
0000
0011
0000
1000
0001
,
1001
0000
1000
0010
0000
0010
0100
0000
0100
0001
0000
0001
0020
0000
0000
0000
0000
0000
0230
0000
0000
0000
0000
0000
,
1301
0000
0001
0000
1100
0000
0100
0000
0011
0000
1000
0010
0100
0000
0010
0000
,
1001
0000
0001
0000
0110
0000
0001
0000
1000
0001
0100
0010
1000
0000
0100
0000
,
1001
0000
0001
0000
0110
0000
1000
0000
0011
0000
1000
0001
0010
0000
0001
0000
,
1100
0001
0110
1000
1100
0001
1010
0100
,
0001
0010
0100
1000
0001
0000
0100
0000
1001
0000
0010
0100
1000
0000
0001
0000
,
0110
0000
1000
0000
0011
0000
0100
0000
1000
0100
0010
0001
1000
0000
0010
0000
,
1001
0000
0001
0000
0110
0000
1000
0000
0101
0000
0010
0100
1000
0000
0001
0000
,
1001
0010
0101
1000
1010
0100
1001
0001
,
0110
0000
0010
0000
1001
0000
0100
0000
1010
0000
0001
0100
0001
0000
1000
0000
,
0110
0000
1000
0000
0101
0000
0010
0000
1000
0100
0010
0001
0010
0000
0001
0000
,
1100
0000
0001
0000
1010
0000
1000
0000
0101
0000
0010
0100
0010
0000
0001
0000
,
1010
0100
1001
0010
1100
0001
0011
1000
,
0010
0100
0001
1000
0100
0000
0001
0000
0110
0000
0001
1000
0001
0000
0100
0000
,
0011
0000
0100
0000
1001
0000
0010
0000
0100
0010
0001
1000
0001
0000
0100
0000
,
1010
0000
0001
0000
0110
0000
0010
0000
1001
0000
1000
0010
0100
0000
1000
0000
,
0101
0010
1001
0001
1020
0230
0321
0230
,
1301
0000
0001
0000
1010
0000
0100
0000
0011
0000
1000
0010
0100
0000
0010
0000
,
1001
0000
0001
0000
0110
0000
0001
0000
1000
0001
0100
0010
1000
0000
0100
0000
,
1001
0000
0001
0000
0110
0000
1000
0000
0011
0000
1000
0001
0010
0000
0001
0000
,
1100
0001
0110
1000
1100
0001
1010
0100
,
1001
0110
1100
0110
0011
0101
1001
0110
,
1100
0011
0101
0110
1001
1010
0110
0101
,
1000
0100
0010
0001
0100
0001
1000
0010
0100
0001
1000
0100
1000
0010
1000
0001
,
0100
0010
1000
0100
0010
0001
1000
0010
1000
0001
0100
0001
1000
0010
0100
0001
,
1000
0010
1001
0010
1100
0001
1010
0100
,
0011
1000
0101
0001
1010
0100
1001
0001
,
0110
0001
1100
1000
0011
1000
0101
0001
,
1010
0000
0100
0000
0011
0000
0010
0000
1100
0000
0001
0000
0110
0000
1000
0001
,
1001
0010
0101
0001
1100
0001
0110
1000
,
0101
0010
1001
0100
0110
1000
1001
0100
,
1010
0010
0101
0001
1010
0001
0110
1000
,
0011
0000
0001
0000
1100
0000
0100
0000
0011
0000
1000
0000
0110
0000
1000
0010
,
0101
0010
1001
1000
0110
0001
1010
0001
,
1100
1000
0011
1000
0110
1000
0101
0010
,
1100
0001
0110
0100
1001
0001
0110
1000
,
0101
0000
0010
0000
1100
0000
0001
0000
0110
0000
1000
0000
0011
0000
1000
0001
,
1100
0001
0110
0100
1010
0001
1100
0010
,
1001
0100
0110
1000
0011
0100
1001
0001
,
0110
0001
1010
0100
1001
0010
0110
1000
,
0011
0000
0001
0000
1100
0000
0001
0000
0110
0000
0100
0000
1001
0000
1000
0010
,
1100
0010
1001
0100
0011
1000
0110
0010
,
1001
0100
1010
0001
1100
0010
1001
0100
,
0110
1000
0101
1000
0011
0001
1100
0010
,
1001
0100
0110
1000
0011
0010
1100
0010
,
0101
0010
1001
0001
0110
1000
0011
0001
,
1100
0001
0110
0010
1001
0010
1100
0110
,
1001
1100
1001
0101
0110
1001
0011
1100
,
0001
0010
0100
1000
0001
0100
0001
1000
0100
1000
0010
0100
0001
1000
0001
0100
,
0020
0000
0000
0000
,
0000
0000
0000
0000
,
0030
0000
0000
0000
;
