#TITLE:DemonHeart;
#SUBTITLE:;
#ARTIST:Luca Turilli;
#TITLETRANSLIT:;
#SUBTITLETRANSLIT:;
#ARTISTTRANSLIT:;
#CREDIT:;
#BANNER:DemonHeart Banner.jpg;
#BACKGROUND:DeamonHeart BG.jpg;
#LYRICSPATH:;
#CDTITLE:!IzzyTitle.png;
#MUSIC:Luca Turilli - 08 - Demonheart.mp3;
#OFFSET:0.000;
#SAMPLESTART:33.330;
#SAMPLELENGTH:12.000;
#SELECTABLE:YES;
#BPMS:0.000=180.020,585.000=90.020,599.000=180.020;
#STOPS:;
#BGCHANGES:;
// cache tags:
#FIRSTBEAT:1.000;
#LASTBEAT:895.000;
#SONGFILENAME:Songs/Bemani.se Megapack/(Izzy) Demonheart/Demonheart.sm;
#HASMUSIC:1;
#HASBANNER:1;
#MUSICLENGTH:308.591;
// end cache tags

//---------------dance-single - ----------------
#NOTES:
     dance-single:
     :
     Hard:
     11:
     1.000,1.000,1.000,0.259,1.000,2253.000,351.000,80.000,0.000,3.000:
0000
0000
1000
0100
0100
0010
1000
1000
,
0001
0100
0100
0001
0010
0010
0100
1000
,
1000
0010
0001
0001
0100
0010
0010
0001
,
1000
1000
0001
1000
1000
0100
0010
0010
,
0001
0100
1000
0100
0100
0010
1000
1000
,
0001
0100
0100
0001
0010
0010
0100
1000
,
1000
0010
0001
0001
0100
0010
0010
0001
,
1000
1000
0001
1000
1000
0100
0010
0010
,
0001
0110
1001
1001
1001
1001
0011
0011
,
0011
0011
1100
1100
1100
1100
0110
0110
,
0110
0110
1001
1001
1001
1001
0101
0101
,
0101
0101
1010
1010
1010
1010
0101
1100
,
0101
0110
1001
1001
1001
1001
0011
0011
,
0011
0011
1100
1100
1100
1100
0110
0110
,
0110
0110
1001
1001
1001
1001
0101
0101
,
0101
0101
1010
1010
1010
1010
0101
1100
,
0101
0110
1001
0000
1001
0100
0010
0000
,
0001
0001
1001
0000
0110
0100
1100
0000
,
0001
0010
1010
0000
0001
0100
0101
0000
,
0011
0000
0110
0000
1010
0000
0000
0000
0011
0000
0011
0000
1000
0100
0010
0001
,
0011
0000
1000
0010
0100
0001
1000
0100
1000
0001
0010
0001
1000
0100
0010
0001
,
0100
0010
1000
0100
1000
0001
0010
0001
1000
0100
0010
0001
0010
0100
1000
0100
,
1000
0001
0010
0001
0010
0100
1000
0100
1000
0100
0010
0001
1000
0100
1000
0001
,
0100
0001
0100
0010
1000
0010
1000
0001
0010
0100
1000
0100
1000
0100
1000
0100
,
0010
0001
0100
0001
0100
0001
0100
0001
0100
0010
1000
0010
1000
0100
0010
0001
,
1000
0100
0010
0001
0010
0001
0010
0001
0010
0001
0010
0001
0010
0100
1000
0100
,
1000
0001
0010
0100
1000
0010
0100
0001
0010
0100
1000
0100
1000
0100
0010
0001
,
1000
0010
1000
0010
1000
0100
1000
0100
0010
0001
0010
0001
1000
0100
0010
0001
,
1000
0100
1000
0100
1001
0000
0100
0000
0010
0000
0100
0000
0011
0000
1000
0000
,
0110
0001
2002
0000
3003
0000
0010
0100
,
1000
0000
0001
0000
1000
0100
0010
0001
1000
0000
1000
0100
1000
0000
0001
0010
,
0001
0000
1000
0001
1000
0001
1000
0000
0100
0010
0100
0000
0001
1000
0001
0000
,
1000
0100
1000
0010
1000
0100
0010
0001
1000
0000
1000
0100
1000
0000
0001
0010
,
0001
0000
1000
0001
1000
0001
1000
0000
0100
0010
0100
0000
0001
1000
0001
0000
,
1000
0100
1000
0010
0100
0010
0100
0010
0100
0000
1000
0010
1000
0000
0001
0100
,
0001
0000
1000
0001
1000
0001
1000
0000
0001
0100
0010
0000
0001
0010
0001
0000
,
0100
0010
0100
0010
0100
0010
0100
0010
1000
0000
0100
0010
0100
0000
0100
0010
,
0001
0000
1000
0100
1000
0100
1000
0000
0010
0100
0010
0000
0001
0100
0001
0000
,
1000
0100
0010
0001
1000
0100
0010
0001
1000
0100
1000
0001
0010
0001
1000
0010
,
1000
0010
1000
0100
1000
0010
0100
0010
0100
0010
1000
0100
1000
0100
1000
0001
,
0010
0001
0010
0100
2000
0000
0000
0000
0000
0000
3200
0000
0000
0000
0000
0000
,
0320
0032
0000
0223
,
0330
0000
0000
0000
1000
0100
0010
0001
1000
0010
1000
0100
0010
0001
1000
0100
,
1000
0001
0010
0001
1000
0010
1000
0010
1000
0010
0100
0001
0100
0001
0100
0001
,
1000
0100
0010
0001
2000
0000
0000
0000
0000
3000
0002
0000
0000
0000
0000
0003
,
0110
0000
0000
0000
0010
0100
0010
0100
0010
0100
0010
0100
0010
0100
0010
0100
,
1001
0000
0000
0000
1100
0000
0010
0100
0010
0000
1100
0000
1100
0000
0010
0100
,
0010
0000
0011
0000
1100
0000
0010
0100
0010
0000
1001
0000
1001
0000
1001
0000
,
0110
1001
2000
0000
0000
3200
0000
0000
,
0320
0000
0000
0000
0032
0000
0000
0000
0000
0000
0000
0003
2002
0000
0000
0000
,
3003
0000
0000
0000
0101
0000
0010
1000
0010
0000
1100
0000
1100
0000
0010
0100
,
0010
0000
1001
0000
1001
0000
0001
1000
0010
0000
0011
0000
1000
0100
2000
0000
,
3000
0000
0000
0000
0202
0000
0000
0000
0000
0303
2020
0000
0000
0000
0000
3030
,
0022
0000
0000
0033
2200
0000
0000
0000
0000
0000
0000
0000
0000
0000
0000
0000
,
3300
0000
0011
0000
0000
1100
0000
0000
,
0011
0000
0000
0101
0000
0000
1010
0000
,
1010
0000
0101
0000
0000
0011
0000
0000
,
1100
0000
0000
0110
0000
0000
1001
0000
,
0110
0000
1100
0000
0000
0011
0000
0000
,
1100
0000
0000
1010
0000
0000
0101
0000
,
0101
0000
1010
0000
0000
1100
0000
0000
,
0011
0000
0000
1001
0000
0000
0110
0000
,
0110
0000
0000
1000
0100
0010
0001
1000
0100
1000
0001
0010
,
0001
1000
0100
0010
0100
1000
0001
0010
0100
0010
0001
1000
,
0100
0010
0001
1000
0001
0100
0010
1000
0010
0100
0010
1000
,
0001
1000
0100
1000
0100
0010
0001
0010
0001
0010
0001
0010
,
0001
0010
0100
2000
0000
0000
0000
0000
0000
0000
0000
0000
,
3000
0000
0010
0001
1000
0100
0010
0001
1000
0100
1000
0010
0100
0010
0100
0001
,
0010
0001
0010
0100
1000
0100
1000
0001
0010
0001
0100
0010
1000
0100
1000
0100
,
1000
0100
1000
0100
0010
0001
0010
0001
0010
0001
0010
0001
1000
0010
1000
0010
,
1000
0010
1000
0010
0100
0001
0100
0010
1000
0010
1000
0100
1000
0001
0010
0001
,
0100
0010
0100
0010
1000
0010
1000
0010
0100
0001
0100
0010
1000
0100
0010
0001
,
1000
0010
0100
0001
1000
0100
0010
0001
1000
0100
1000
0001
2000
0000
0000
0000
,
0000
3200
0000
0320
,
0000
0000
1031
0000
1001
0100
0010
0000
,
0001
0001
1001
0000
0110
0100
1100
0000
,
0001
0010
1010
0000
0001
0100
0101
0000
,
0011
0000
0110
0000
1010
0000
0000
0000
0011
0000
0011
0000
1000
0100
0010
0001
,
0011
0000
1000
0010
0100
0001
1000
0100
1000
0001
0010
0001
1000
0100
0010
0001
,
0100
0010
1000
0100
1000
0001
0010
0001
1000
0100
0010
0001
0010
0100
1000
0100
,
1000
0001
0010
0001
0010
0100
1000
0100
1000
0100
0010
0001
1000
0100
1000
0001
,
0100
0001
0100
0010
1000
0010
1000
0001
0010
0100
1000
0100
1000
0100
1000
0100
,
0010
0001
0100
0001
0100
0001
0100
0001
0100
0010
1000
0010
1000
0100
0010
0001
,
1000
0100
0010
0001
0010
0001
0010
0001
0010
0001
0010
0001
0010
0100
1000
0100
,
1000
0001
0010
0100
1000
0010
0100
0001
0010
0100
1000
0100
1000
0100
0010
0001
,
1000
0010
1000
0010
1000
0100
1000
0100
0010
0001
0010
0001
1000
0100
0010
0001
,
1000
0100
1000
0100
1001
0000
0100
0000
0010
0000
0100
0000
0011
0000
1000
0000
,
0110
0000
0001
0000
2002
0000
0000
0000
3003
0000
0001
0010
0001
0000
0001
0000
,
0100
0000
0010
0000
1000
0100
0010
0001
1000
0000
1000
0100
1000
0000
0001
0010
,
0001
0000
1000
0001
1000
0001
1000
0000
0100
0010
0100
0000
0001
1000
0001
0000
,
1000
0100
1000
0010
1000
0100
0010
0001
1000
0000
1000
0100
1000
0000
0001
0010
,
0001
0000
1000
0001
1000
0001
1000
0000
0100
0010
0100
0000
0001
1000
0001
0000
,
1000
0100
1000
0010
0100
0010
0100
0010
0100
0000
1000
0010
1000
0000
0001
0100
,
0001
0000
1000
0001
1000
0001
1000
0000
0001
0100
0010
0000
0001
0010
0001
0000
,
0100
0010
0100
0010
0100
0010
0100
0010
1000
0000
0100
0010
0100
0000
0100
0010
,
0001
0000
1000
0100
1000
0100
1000
0000
0010
0100
0010
0000
0001
0100
0001
0000
,
1000
0100
0010
0001
1000
0100
0010
0001
1000
0100
1000
0001
0010
0001
1000
0010
,
1000
0010
1000
0100
1000
0010
0100
0010
0100
0010
1000
0100
1000
0100
1000
0001
,
0010
0001
0010
0100
2000
0000
0000
0000
0000
0000
3200
0000
0000
0000
0000
0000
,
0320
0032
0000
0223
,
0330
0000
0000
0000
1000
0100
0010
0001
1000
0010
1000
0100
0010
0001
1000
0100
,
1000
0001
0010
0001
1000
0010
1000
0010
1000
0010
0100
0001
0100
0001
0100
0001
,
1000
0100
0010
0001
1000
0100
1000
0001
0010
0001
1000
0100
0010
0001
0010
0100
,
1000
0001
0010
0001
0010
0100
0010
0100
0010
0100
0010
0100
0010
0100
0010
0100
,
1001
0000
0000
0000
1100
0000
0010
0100
0010
0000
1100
0000
1100
0000
0010
0100
,
0010
0000
0011
0000
1100
0000
0010
0100
0010
0000
1001
0000
1001
0000
1001
0000
,
0110
1001
2000
0000
0000
3200
0000
0000
,
0320
0000
0000
0000
0032
0000
0000
0000
0000
0000
0000
0003
2002
0000
0000
0000
,
3003
0000
0000
0000
0101
0000
0010
1000
0010
0000
1100
0000
1100
0000
0010
0100
,
0010
0000
1001
0000
1001
0000
0001
1000
0010
0000
0011
0000
1001
0000
0000
0000
,
1001
0000
0000
0000
0202
0000
0000
0000
0000
0303
2020
0000
0000
0000
0000
3030
,
0022
0000
0000
0033
2200
0000
0000
0000
0000
0000
0000
0000
0000
0000
0000
0000
,
3300
0000
0011
0000
0000
1100
0000
0000
,
0011
0000
0000
0101
0000
0000
1010
0000
,
1010
0000
0101
0000
0000
0011
0000
0000
,
1100
0000
0000
0110
0000
0000
1001
0000
,
0110
0000
1100
0000
0000
0011
0000
0000
,
1100
0000
0000
1010
0000
0000
0101
0000
,
0101
0000
1010
0000
0000
1100
0000
0000
,
0011
0000
0000
1001
0000
0000
0110
0000
,
0110
0000
0000
0001
0010
0100
1000
0001
0010
0001
1000
0100
,
1000
0001
0010
0100
0010
0001
1000
0100
0010
0100
1000
0001
,
0010
0100
1000
0001
1000
0010
0100
0001
0100
0010
0100
0001
,
1000
0001
0010
0001
0010
0100
1000
0100
1000
0100
1000
0100
,
1000
0000
0000
0000
0100
0000
0000
0000
0010
0000
0000
0000
2002
0000
0000
0000
0000
0000
0000
0000
0000
0000
0000
0000
0000
0000
0000
0000
0000
0000
0000
0000
0000
0000
0000
0000
0000
0000
0000
0000
0000
0000
0000
0000
0000
3003
0000
0000
,
1000
0100
0010
0001
1000
0010
0100
0001
1000
0010
0100
0001
1000
0100
0010
0001
,
1000
0100
1000
0100
1000
0100
1000
0100
1000
0100
1000
0100
0020
0000
0000
0000
,
0000
0000
0000
0030
0200
0000
0000
0000
0000
0000
0000
0300
0002
0000
0000
0000
,
0000
0000
0000
0003
1000
0100
0010
0001
0100
0010
1000
0001
0010
0001
1000
0100
,
1000
0010
0100
0010
1000
0100
1000
0010
1000
0001
0100
0001
0010
0001
0010
0100
,
1000
0100
1000
0001
0100
0010
1000
0001
0010
0001
0010
0001
0200
0000
0000
0000
,
0000
0000
0000
0300
0200
0000
0000
0000
0000
0000
0000
0300
0200
0000
0000
0000
,
0000
0000
0000
0300
1001
0000
0000
0000
1001
0000
0100
0000
0010
0000
0000
0000
,
0001
0001
1001
0000
0110
0100
1100
0000
,
0001
0010
1010
0000
0001
0100
0101
0000
,
0011
0000
0110
0000
1010
0000
0000
0000
0011
0000
0011
0000
1000
0100
0010
0001
,
0011
0000
1000
0010
0100
0001
1000
0100
1000
0001
0010
0001
1000
0100
0010
0001
,
0100
0010
1000
0100
1000
0001
0010
0001
1000
0100
0010
0001
0010
0100
1000
0100
,
1000
0001
0010
0001
0010
0100
1000
0100
1000
0100
0010
0001
1000
0100
1000
0001
,
0100
0001
0100
0010
1000
0010
1000
0001
0010
0100
1000
0100
1000
0100
1000
0100
,
0010
0001
0100
0001
0100
0001
0100
0001
0100
0010
1000
0010
1000
0100
0010
0001
,
1000
0100
0010
0001
0010
0001
0010
0001
0010
0001
0010
0001
0010
0100
1000
0100
,
1000
0001
0010
0100
1000
0010
0100
0001
0010
0100
1000
0100
1000
0100
0010
0001
,
1000
0010
1000
0010
1000
0100
1000
0100
0010
0001
0010
0001
1000
0100
0010
0001
,
1000
0100
1000
0100
1001
0000
0100
0000
0010
0000
0100
0000
0011
0000
1000
0000
,
0110
0001
2002
0000
3003
1000
0100
0010
,
0001
0000
1000
0000
1010
0100
0010
0001
1000
0100
0010
0001
1000
0100
0010
0001
,
0011
0000
1001
0000
1001
0010
0100
1000
0001
0010
0100
1000
0001
0010
0100
1000
,
1100
0000
1001
0000
1001
1000
0010
0100
0001
1000
0010
0100
0001
1000
0010
0100
,
0110
0000
1001
0000
0110
0010
1010
0010
0110
0010
0011
0010
2010
0000
0010
3000
,
2100
0000
0100
0000
0001
0000
0010
0000
0001
0000
0100
3000
0120
0000
1000
0000
,
1000
0000
0100
0030
0201
0000
0001
0000
0010
0000
0010
0300
2002
0000
0000
0000
,
0000
0000
0000
0000
0000
0000
0000
0000
0000
0000
0000
3003
0220
0000
0000
0000
,
0000
0000
0000
0000
0000
0000
0000
0000
0000
0000
0000
0330
2000
0000
0000
0000
,
0000
0000
0000
3000
0200
0000
0000
0000
0000
0000
0000
0300
0020
0000
0000
0000
,
0000
0000
0000
0030
0000
0000
0000
0000
0000
0000
0000
0000
1001
0000
0100
0000
,
0100
0100
0011
1100
0110
0110
1001
0100
,
0100
0100
0011
0001
0110
1000
1000
0100
,
0010
0001
0010
0100
1000
0100
0010
0001
,
0010
0100
1000
1000
1000
1000
0100
0001
,
0010
0001
0001
0010
0100
1000
0100
1000
,
1000
0001
0100
0010
0001
0100
0010
0001
,
0100
0010
0001
0001
0001
0001
0001
0001
,
1000
1000
1000
1000
1000
1000
0100
0100
,
0100
0100
0010
0010
0010
0010
0010
0010
,
0010
0010
0110
1001
0110
1001
0110
0110
,
0011
1100
1010
0101
0110
0110
1001
0110
,
1001
0000
1001
0000
1000
0100
1000
0010
1000
0001
1000
0010
1000
0100
1000
0010
,
1000
0001
1000
0010
1000
0100
0010
0001
1000
0100
1000
0001
0010
0001
1000
0100
,
1000
0110
1001
0110
1001
0110
1001
1001
,
1100
0011
0101
1010
1001
1001
0110
1001
,
0110
0000
0110
0000
0001
0010
0001
0100
0001
1000
0001
0100
0001
0010
0001
0100
,
0001
1000
0001
0100
0001
0010
0100
1000
0001
0010
0001
1000
0100
1000
0001
0010
,
0001
1100
1010
0101
0011
1100
0110
1001
,
0011
1100
0101
0110
1001
0011
0011
1100
,
1001
0000
1001
0000
0010
0100
0010
1000
0010
0100
0010
1000
0010
0100
0010
1000
,
0010
0100
0010
1000
0010
0100
0010
1000
0010
0100
0010
1000
0010
0100
0010
1000
,
0110
1001
1100
0011
1010
0101
0011
1100
,
0011
1100
1010
0101
0110
0110
1001
0110
,
1001
0000
0110
0000
0100
0010
0100
0001
0100
0010
0100
0001
0100
0010
0100
0001
,
0100
0010
0100
0001
0100
0010
0100
0001
0100
0010
0100
0001
0100
0010
0100
0001
,
0100
0000
1001
0000
1000
0100
0010
0001
1000
0100
0010
0001
1000
0001
1000
0001
,
1000
0000
0000
0000
0001
1000
0010
0100
0001
1000
0010
0100
0010
1000
0010
1000
,
0010
0000
0000
0000
0001
0010
0100
1000
0001
0010
0100
1000
0001
0100
0001
0100
,
0001
0000
0000
0000
1000
0001
0100
0010
1000
0001
0100
0010
0100
0001
0100
0001
,
0100
0000
0000
0000
1000
0100
0010
0001
1000
0100
1000
0010
0100
0010
1000
0100
,
0010
0001
1000
0010
2002
0000
0000
3003
2002
0000
0000
3003
2002
0000
0000
3003
,
0010
0100
0010
0100
0010
0000
0000
0000
0100
0010
0100
0010
0100
0000
0000
0000
,
0001
1000
0001
1000
0001
1000
0001
1000
0001
1000
0001
1000
0001
0000
0000
0000
,
0010
1000
0010
1000
0010
0000
0000
0000
0001
0100
0001
0100
0001
0000
0000
0000
,
1000
0001
1000
0001
1000
0001
1000
0001
1000
0001
1000
0001
1000
0000
0000
0000
,
0001
1000
0001
1000
0001
0000
0000
0000
1000
0001
1000
0001
1000
0000
0000
0000
,
0001
0100
0001
0100
0001
0100
0001
0100
0001
0100
0001
0100
0001
0000
0000
0000
,
1000
0010
1000
0010
1000
0000
0000
0000
0001
0100
0001
0100
0001
0000
0000
0000
,
1000
0001
1000
0001
0010
0001
1000
0100
1000
0100
0010
0001
1000
0000
0000
0000
,
0001
0100
0001
0100
0001
0000
0000
0000
1000
0010
1000
0010
1000
0000
0000
0000
,
0001
1000
0001
1000
0100
1000
0001
0010
0001
0010
0100
1000
1001
0000
0000
0000
,
1001
0100
0010
0000
0001
0001
1001
0000
,
0110
0100
1100
0000
0001
0010
1010
0000
,
0001
0100
0101
0000
0011
0110
1010
0000
,
0011
0000
0011
0000
1000
0100
0010
0001
0011
0000
1000
0010
0100
0001
1000
0100
,
1000
0001
0010
0001
1000
0100
0010
0001
0100
0010
1000
0100
1000
0001
0010
0001
,
1000
0100
0010
0001
0010
0100
1000
0100
1000
0001
0010
0001
0010
0100
1000
0100
,
1000
0100
0010
0001
1000
0100
1000
0001
0100
0001
0100
0010
1000
0010
1000
0001
,
0010
0100
1000
0100
1000
0100
1000
0100
0010
0001
0100
0001
0100
0001
0100
0001
,
0100
0010
1000
0010
1000
0100
0010
0001
1000
0100
0010
0001
0010
0001
0010
0001
,
0010
0001
0010
0001
0010
0100
1000
0100
1000
0001
0010
0100
1000
0010
0100
0001
,
0010
0100
1000
0100
1000
0100
0010
0001
1000
0010
1000
0010
1000
0100
1000
0100
,
0010
0001
0010
0001
1000
0100
0010
0001
1000
0100
1000
0100
1001
0000
0100
0000
,
0010
0100
0011
1000
0110
0001
1100
0100
,
0011
0001
1010
0001
0101
0010
1001
1100
,
0011
1010
0101
0011
0110
0011
1100
0110
,
0101
0000
1100
0000
0110
0000
0000
0000
0000
0000
0000
0000
1000
0100
0010
0001
,
1000
0100
1000
0001
0010
0001
1000
0100
0010
0001
0100
0010
0100
0001
0010
0001
,
0010
0100
1000
0100
1000
0001
1000
0001
1000
0010
0100
0010
1000
0100
1000
0100
,
1000
0100
1000
0100
0010
0001
0010
0001
0010
0001
0100
0010
0100
0010
0100
0010
,
0100
0001
1000
0010
0100
0010
1000
0001
0100
0010
1000
0100
1001
0000
0100
0000
,
0010
0000
0100
0000
0011
0000
1000
0000
0110
0000
0001
0000
2002
0000
0000
3003
,
1000
0100
0100
0010
1000
1000
0001
0100
,
0100
0001
0010
0010
0100
1000
1000
0010
,
0001
0001
0100
0010
0010
0001
1000
1000
,
0001
1000
1000
0100
0010
0010
0001
0100
,
1000
0100
0100
0010
1000
1000
0001
0100
,
0010
0010
1000
0100
0100
0000
1001
0000
;

//---------------dance-single - Challenge----------------
#NOTES:
     dance-single:
     Challenge:
     Challenge:
     13:
     1.000,1.000,1.000,0.262,1.000,2485.000,620.000,81.000,0.000,3.000:
0000
0000
1000
0100
0100
0010
1000
1000
,
0001
0100
0100
0001
0010
0010
0100
1000
,
1000
0010
0001
0001
0100
0010
0010
0001
,
1000
1000
0001
1000
1000
0100
0010
0010
,
0001
0100
1000
0100
0100
0010
1000
1000
,
0001
0100
0100
0001
0010
0010
0100
1000
,
1000
0010
0001
0001
0100
0010
0010
0001
,
1000
1000
0001
1000
1000
0100
0010
0010
,
0001
0110
1001
1001
1001
1001
0011
0011
,
0011
0011
1100
1100
1100
1100
0110
0110
,
0110
0110
1001
1001
1001
1001
0101
0101
,
0101
0101
1010
1010
1010
1010
0101
1100
,
0101
0110
1001
1001
1001
1001
0011
0011
,
0011
0011
1100
1100
1100
1100
0110
0110
,
0110
0110
1001
1001
1001
1001
0101
0101
,
0101
0101
1010
1010
1010
1010
0101
1100
,
0101
0110
1001
0000
1001
0100
0010
0000
,
0001
0001
1001
0000
0110
0100
1100
0000
,
0001
0010
1010
0000
0001
0100
0101
0000
,
0011
0000
0110
0000
1010
0000
0000
0000
0011
0000
0011
0000
1000
0100
0010
0001
,
0011
0000
1000
0010
0100
0001
1000
0100
1000
0001
0010
0001
1000
0100
0010
0001
,
0100
0010
1000
0100
1000
0001
0010
0001
1000
0100
0010
0001
0010
0100
1000
0100
,
1000
0001
0010
0001
0010
0100
1000
0100
1000
0100
0010
0001
1000
0100
1000
0001
,
0100
0001
0100
0010
1000
0010
1000
0001
0010
0100
1000
0100
1000
0100
1000
0100
,
0010
0001
0100
0001
0100
0001
0100
0001
0100
0010
1000
0010
1000
0100
0010
0001
,
1000
0100
0010
0001
0010
0001
0010
0001
0010
0001
0010
0001
0010
0100
1000
0100
,
1000
0001
0010
0100
1000
0010
0100
0001
0010
0100
1000
0100
1000
0100
0010
0001
,
1000
0010
1000
0010
1000
0100
1000
0100
0010
0001
0010
0001
1000
0100
0010
0001
,
1000
0100
1000
0100
1001
0000
0100
0000
0010
0000
0100
0000
0011
0000
1000
0000
,
0110
0001
2002
0000
3003
0000
0010
0100
,
1000
0000
0001
0000
1000
0100
0010
0001
1000
0000
1000
0100
1000
0000
0001
0010
,
0001
0000
1000
0001
1000
0001
1000
0000
0100
0010
0100
0000
0001
1000
0001
0000
,
1000
0100
1000
0010
1000
0100
0010
0001
1000
0000
1000
0100
1000
0000
0001
0010
,
0001
0000
1000
0001
1000
0001
1000
0000
0100
0010
0100
0000
0001
1000
0001
0000
,
1000
0100
1000
0010
0100
0010
0100
0010
0100
0000
1000
0010
1000
0000
0001
0100
,
0001
0000
1000
0001
1000
0001
1000
0000
0001
0100
0010
0000
0001
0010
0001
0000
,
0100
0010
0100
0010
0100
0010
0100
0010
1000
0000
0100
0010
0100
0000
0100
0010
,
0001
0000
1000
0100
1000
0100
1000
0000
0010
0100
0010
0000
0001
0100
0001
0000
,
1000
0100
0010
0001
1000
0100
0010
0001
1000
0100
1000
0001
0010
0001
1000
0010
,
1000
0010
1000
0100
1000
0010
0100
0010
0100
0010
1000
0100
1000
0100
1000
0001
,
0010
0001
0010
0100
2000
0000
0000
0000
0000
0000
3200
0000
0000
0000
0000
0000
,
0320
0032
0000
0223
,
0330
0000
0000
0000
1000
0100
0010
0001
1000
0010
1000
0100
0010
0001
1000
0100
,
1000
0001
0010
0001
1000
0010
1000
0010
1000
0010
0100
0001
0100
0001
0100
0001
,
1000
0100
0010
0001
2000
0000
0000
0000
0000
3000
0002
0000
0000
0000
0000
0003
,
0110
0000
0000
0000
0010
0100
0010
0100
0010
0100
0010
0100
0010
0100
0010
0100
,
1001
0000
0000
0000
1100
0000
0010
0100
0010
0000
1100
0000
1100
0000
0010
0100
,
0010
0000
0011
0000
1100
0000
0010
0100
0010
0000
1001
0000
1001
0000
1001
0000
,
0110
1001
2000
0000
0000
3200
0000
0000
,
0320
0000
0000
0000
0032
0000
0000
0000
0000
0000
0000
0003
2002
0000
0000
0000
,
3003
0000
0000
0000
0101
0000
0010
1000
0010
0000
1100
0000
1100
0000
0010
0100
,
0010
0000
1001
0000
1001
0000
0001
1000
0010
0000
0011
0000
1000
0100
2000
0000
,
3000
0000
0000
0000
0202
0000
0000
0000
0000
0303
2020
0000
0000
0000
0000
3030
,
0022
0000
0000
0033
2200
0000
0000
0000
0000
0000
0000
0000
0000
0000
0000
0000
,
3300
0000
0000
0000
0011
1000
0100
1000
0100
0010
1100
0001
1000
0010
0100
1000
,
0011
0100
0001
1000
0010
1000
0101
0010
0001
0100
0001
0100
1010
0100
0001
0100
,
1010
0001
1000
0010
0101
1000
0001
1000
0010
0100
0011
1000
0001
0010
0001
0010
,
1100
0010
1000
0100
0001
1000
0110
0001
1000
0010
0100
0010
1001
0100
0010
0001
,
0110
0001
0010
0001
1100
0010
0100
0010
0100
1000
0011
1000
0100
0010
0001
0010
,
1100
0010
0001
0010
0100
0001
1010
0100
0010
0100
1000
0010
0101
1000
0001
0010
,
0101
0010
1000
0100
1010
0001
0100
0010
1000
0010
1100
0010
0001
1000
0100
1000
,
0011
0100
0010
0001
0010
0100
1001
0100
0010
0100
0001
1000
0110
0000
0000
0000
,
0110
0000
0000
1001
0010
1000
0110
1000
0010
1001
0100
0010
,
0101
1000
0010
1100
0001
0100
1010
0100
0001
0110
0001
1000
,
0110
1000
0001
1100
0001
0010
1001
0100
0010
0101
1000
0100
,
0011
0100
0001
0110
0001
0010
1100
0010
0100
1010
0001
0010
,
1100
0010
1000
0220
0000
0000
0000
0000
0000
0000
0000
0000
,
0330
0000
0010
0001
1000
0100
0010
0001
1000
0100
1000
0010
0100
0010
0100
0001
,
0010
0001
0010
0100
1000
0100
1000
0001
0010
0001
0100
0010
1000
0100
1000
0100
,
1000
0100
1000
0100
0010
0001
0010
0001
0010
0001
0010
0001
1000
0010
1000
0010
,
1000
0010
1000
0010
0100
0001
0100
0010
1000
0010
1000
0100
1000
0001
0010
0001
,
0100
0010
0100
0010
1000
0010
1000
0010
0100
0001
0100
0010
1000
0100
0010
0001
,
1000
0010
0100
0001
1000
0100
0010
0001
1000
0100
1000
0001
2000
0000
0000
0000
,
0000
3200
0000
0320
,
0000
0000
1031
0000
1001
0100
0010
0000
,
0001
0001
1001
0000
0110
0100
1100
0000
,
0001
0010
1010
0000
0001
0100
0101
0000
,
0011
0000
0110
0000
1010
0000
0000
0000
0011
0000
0011
0000
1000
0100
0010
0001
,
0011
0000
1000
0010
0100
0001
1000
0100
1000
0001
0010
0001
1000
0100
0010
0001
,
0100
0010
1000
0100
1000
0001
0010
0001
1000
0100
0010
0001
0010
0100
1000
0100
,
1000
0001
0010
0001
0010
0100
1000
0100
1000
0100
0010
0001
1000
0100
1000
0001
,
0100
0001
0100
0010
1000
0010
1000
0001
0010
0100
1000
0100
1000
0100
1000
0100
,
0010
0001
0100
0001
0100
0001
0100
0001
0100
0010
1000
0010
1000
0100
0010
0001
,
1000
0100
0010
0001
0010
0001
0010
0001
0010
0001
0010
0001
0010
0100
1000
0100
,
1000
0001
0010
0100
1000
0010
0100
0001
0010
0100
1000
0100
1000
0100
0010
0001
,
1000
0010
1000
0010
1000
0100
1000
0100
0010
0001
0010
0001
1000
0100
0010
0001
,
1000
0100
1000
0100
1001
0000
0100
0000
0010
0000
0100
0000
0011
0000
1000
0000
,
0110
0000
0001
0000
2002
0000
0000
0000
3003
0000
0001
0010
0001
0000
0001
0000
,
0100
0000
0010
0000
1000
0100
0010
0001
1000
0000
1000
0100
1000
0000
0001
0010
,
0001
0000
1000
0001
1000
0001
1000
0000
0100
0010
0100
0000
0001
1000
0001
0000
,
1000
0100
1000
0010
1000
0100
0010
0001
1000
0000
1000
0100
1000
0000
0001
0010
,
0001
0000
1000
0001
1000
0001
1000
0000
0100
0010
0100
0000
0001
1000
0001
0000
,
1000
0100
1000
0010
0100
0010
0100
0010
0100
0000
1000
0010
1000
0000
0001
0100
,
0001
0000
1000
0001
1000
0001
1000
0000
0001
0100
0010
0000
0001
0010
0001
0000
,
0100
0010
0100
0010
0100
0010
0100
0010
1000
0000
0100
0010
0100
0000
0100
0010
,
0001
0000
1000
0100
1000
0100
1000
0000
0010
0100
0010
0000
0001
0100
0001
0000
,
1000
0100
0010
0001
1000
0100
0010
0001
1000
0100
1000
0001
0010
0001
1000
0010
,
1000
0010
1000
0100
1000
0010
0100
0010
0100
0010
1000
0100
1000
0100
1000
0001
,
0010
0001
0010
0100
2000
0000
0000
0000
0000
0000
3200
0000
0000
0000
0000
0000
,
0320
0032
0000
0223
,
0330
0000
0000
0000
1000
0100
0010
0001
1000
0010
1000
0100
0010
0001
1000
0100
,
1000
0001
0010
0001
1000
0010
1000
0010
1000
0010
0100
0001
0100
0001
0100
0001
,
1000
0100
0010
0001
1000
0100
1000
0001
0010
0001
1000
0100
0010
0001
0010
0100
,
1000
0001
0010
0001
0010
0100
0010
0100
0010
0100
0010
0100
0010
0100
0010
0100
,
1001
0000
0000
0000
1100
0000
0010
0100
0010
0000
1100
0000
1100
0000
0010
0100
,
0010
0000
0011
0000
1100
0000
0010
0100
0010
0000
1001
0000
1001
0000
1001
0000
,
0110
1001
2000
0000
0000
3200
0000
0000
,
0320
0000
0000
0000
0032
0000
0000
0000
0000
0000
0000
0003
2002
0000
0000
0000
,
3003
0000
0000
0000
0101
0000
0010
1000
0010
0000
1100
0000
1100
0000
0010
0100
,
0010
0000
1001
0000
1001
0000
0001
1000
0010
0000
0011
0000
1001
0000
0000
0000
,
1001
0000
0000
0000
0202
0000
0000
0000
0000
0303
2020
0000
0000
0000
0000
3030
,
0022
0000
0000
0033
2200
0000
0000
0000
0000
0000
0000
0000
0000
0000
0000
0000
,
3300
0000
0000
0000
0011
1000
0100
1000
0100
0010
1100
0001
1000
0010
0100
1000
,
0011
0100
0001
1000
0010
1000
0101
0010
0001
0100
0001
0100
1010
0100
0001
0100
,
1010
0001
1000
0010
0101
1000
0001
1000
0010
0100
0011
1000
0001
0010
0001
0010
,
1100
0010
1000
0100
0001
1000
0110
0001
1000
0010
0100
0010
1001
0100
0010
0001
,
0110
0001
0010
0001
1100
0010
0100
0010
0100
1000
0011
1000
0100
0010
0001
0010
,
1100
0010
0001
0010
0100
0001
1010
0100
0010
0100
1000
0010
0101
1000
0001
0010
,
0101
0010
1000
0100
1010
0001
0100
0010
1000
0010
1100
0010
0001
1000
0100
1000
,
0011
0100
0010
0001
0010
0100
1001
0100
0010
0100
0001
1000
0110
0000
1001
0000
,
0110
0000
0000
1001
0010
0100
1010
0100
0010
1100
0001
1000
,
0101
0010
1000
0110
1000
0001
0110
0001
0100
0011
1000
0100
,
1001
0010
1000
0110
0001
1000
0011
0100
0001
0110
0001
0010
,
1100
0010
0100
1010
0001
0010
1100
0010
1000
0101
0010
1000
,
0110
0000
0000
0000
1000
0000
0000
0000
0100
0000
0000
0000
2002
0000
0000
0000
0000
0000
0000
0000
0000
0000
0000
0000
0000
0000
0000
0000
0000
0000
0000
0000
0000
0000
0000
0000
0000
0000
0000
0000
0000
0000
0000
0000
0000
3003
0000
0000
,
1000
0100
0010
0001
1000
0010
0100
0001
1000
0010
0100
0001
1000
0100
0010
0001
,
1000
0100
1000
0100
1000
0100
1000
0100
1000
0100
1000
0100
0020
0000
0000
0000
,
0000
0000
0000
0030
0200
0000
0000
0000
0000
0000
0000
0300
0002
0000
0000
0000
,
0000
0000
0000
0003
1000
0100
0010
0001
0100
0010
1000
0001
0010
0001
1000
0100
,
1000
0010
0100
0010
1000
0100
1000
0010
1000
0001
0100
0001
0010
0001
0010
0100
,
1000
0100
1000
0001
0100
0010
1000
0001
0010
0001
0010
0001
0200
0000
0000
0000
,
0000
0000
0000
0300
0200
0000
0000
0000
0000
0000
0000
0300
0200
0000
0000
0000
,
0000
0000
0000
0300
1001
0000
0000
0000
1001
0000
0100
0000
0010
0000
0000
0000
,
0001
0001
1001
0000
0110
0100
1100
0000
,
0001
0010
1010
0000
0001
0100
0101
0000
,
0011
0000
0110
0000
1010
0000
0000
0000
0011
0000
0011
0000
1000
0100
0010
0001
,
0011
0000
1000
0010
0100
0001
1000
0100
1000
0001
0010
0001
1000
0100
0010
0001
,
0100
0010
1000
0100
1000
0001
0010
0001
1000
0100
0010
0001
0010
0100
1000
0100
,
1000
0001
0010
0001
0010
0100
1000
0100
1000
0100
0010
0001
1000
0100
1000
0001
,
0100
0001
0100
0010
1000
0010
1000
0001
0010
0100
1000
0100
1000
0100
1000
0100
,
0010
0001
0100
0001
0100
0001
0100
0001
0100
0010
1000
0010
1000
0100
0010
0001
,
1000
0100
0010
0001
0010
0001
0010
0001
0010
0001
0010
0001
0010
0100
1000
0100
,
1000
0001
0010
0100
1000
0010
0100
0001
0010
0100
1000
0100
1000
0100
0010
0001
,
1000
0010
1000
0010
1000
0100
1000
0100
0010
0001
0010
0001
1000
0100
0010
0001
,
1000
0100
1000
0100
1001
0000
0100
0000
0010
0000
0100
0000
0011
0000
1000
0000
,
0110
0001
2002
0000
3003
1000
0100
0010
,
0001
0000
1000
0000
1010
1100
1010
1001
1001
0101
0011
1001
1100
0110
0110
0101
,
0011
0000
1001
0000
0101
0011
0101
0110
0110
1010
1100
0110
0011
1001
1001
1010
,
1100
0000
0110
0000
0110
1000
0010
0100
0001
1000
0010
0100
0001
1000
0010
0100
,
0110
0000
1001
0000
0110
0010
1010
0010
0110
0010
0011
0010
2010
0000
0010
3000
,
2100
0000
0100
0000
0001
0000
0010
0000
0001
0000
0100
3000
0120
0000
1000
0000
,
1000
0000
0100
0030
0201
0000
0001
0000
0010
0000
0010
0300
2002
0000
0000
0000
,
0000
0000
0000
0000
0000
0000
0000
0000
0000
0000
0000
3003
0220
0000
0000
0000
,
0000
0000
0000
0000
0000
0000
0000
0000
0000
0000
0000
0330
2000
0000
0000
0000
,
0000
0000
0000
3000
0200
0000
0000
0000
0000
0000
0000
0300
0020
0000
0000
0000
,
0000
0000
0000
0030
0000
0000
0000
0000
0000
0000
0000
0000
1001
0000
0100
0000
,
0100
0100
0011
1100
0110
0110
1001
0100
,
0100
0100
0011
0001
0110
1000
1000
0100
,
0010
0001
0010
0100
1000
0100
0010
0001
,
0010
0100
1000
1000
1000
1000
0100
0001
,
0010
0001
0001
0010
0100
1000
0100
1000
,
1000
0001
0100
0010
0001
0100
0010
0001
,
0100
0010
0001
0001
0001
0001
0001
0001
,
1000
1000
1000
1000
1000
1000
0100
0100
,
0100
0100
0010
0010
0010
0010
0010
0010
,
0010
0010
0110
1001
0110
1001
0110
0110
,
0011
1100
1010
0101
0110
0110
1001
0110
,
1001
0000
1001
0000
1010
0100
1000
0010
1100
0001
1000
0010
1001
0100
1000
0010
,
1100
0001
1000
0010
1001
0100
0010
0001
1010
0100
1000
0001
0110
0001
1000
0100
,
1001
0110
1001
0110
1001
0110
1001
1001
,
1100
0011
0101
1010
1001
1001
0110
1001
,
0110
0000
0110
0000
1001
0010
0001
0100
0011
1000
0001
0100
1001
0010
0001
0100
,
0011
1000
0001
0100
1001
0010
0100
1000
0101
0010
0001
1000
0110
1000
0001
0010
,
1001
1100
1010
0101
0011
1100
0110
1001
,
0011
1100
0101
0110
1001
0011
0011
1100
,
1001
0000
1001
0000
1010
0100
0010
1000
0011
0100
0010
1000
0011
0100
0010
1000
,
0011
0100
0010
1000
0011
0100
0010
1000
0011
0100
0010
1000
0011
0100
0010
1000
,
0011
1001
1100
0011
1010
0101
0011
1100
,
0011
1100
1010
0101
0110
0110
1001
0110
,
1001
0000
0110
0000
0101
0010
0100
0001
1100
0010
0100
0001
1100
0010
0100
0001
,
1100
0010
0100
0001
1100
0010
0100
0001
1100
0010
0100
0001
1100
0010
0100
0001
,
1100
0000
1001
0000
1000
0100
0010
0001
1000
0100
0010
1001
0110
1001
0110
1001
,
0110
0000
0000
0000
0001
1000
0010
0100
0001
1000
0010
0101
1010
0101
1010
0101
,
1010
0000
0000
0000
0001
0010
0100
1000
0001
0010
0100
1001
0110
1001
0110
1001
,
0110
0000
0000
0000
1000
0001
0100
0010
1000
0001
0100
1010
0101
1010
0101
1010
,
0101
0000
0000
0000
1000
0100
0010
0001
1000
0100
1000
0010
0100
0010
1000
0100
,
0010
0001
1000
0010
2002
0000
0000
3003
2002
0000
0000
3003
2002
0000
0000
3003
,
0110
1001
0110
1001
0110
0000
0000
0000
0110
1001
0110
1001
0110
0000
0000
0000
,
0011
1100
0011
1100
0011
1100
0011
1100
0011
1100
0011
1100
0011
0000
0000
0000
,
1100
0011
1100
0011
1100
0000
0000
0000
1100
0011
1100
0011
1100
0000
0000
0000
,
0011
1100
0011
1100
0011
1100
0011
1100
0011
1100
0011
1100
0011
0000
0000
0000
,
1001
0110
1001
0110
1001
0000
0000
0000
1001
0110
1001
0110
1001
0000
0000
0000
,
1001
0110
1001
0110
1001
0110
1001
0110
1001
0110
1001
0110
1001
0000
0000
0000
,
1010
0101
1010
0101
1010
0000
0000
0000
1010
0101
1010
0101
1010
0000
0000
0000
,
1100
0011
1100
0011
1100
0011
1100
0011
1100
0011
1100
0011
1100
0000
0000
0000
,
0101
1010
0101
1010
0101
0000
0000
0000
1010
0101
1010
0101
1010
0000
0000
0000
,
1001
0110
1001
0110
1001
0110
1001
0110
1001
0110
1001
0110
1001
0000
0000
0000
,
1001
0100
0010
0000
0001
0001
1001
0000
,
0110
0100
1100
0000
0001
0010
1010
0000
,
0001
0100
0101
0000
0011
0110
1010
0000
,
0011
0000
0011
0000
1000
0100
0010
0001
0011
0000
1000
0010
0100
0001
1000
0100
,
1000
0001
0010
0001
1000
0100
0010
0001
0100
0010
1000
0100
1000
0001
0010
0001
,
1000
0100
0010
0001
0010
0100
1000
0100
1000
0001
0010
0001
0010
0100
1000
0100
,
1000
0100
0010
0001
1000
0100
1000
0001
0100
0001
0100
0010
1000
0010
1000
0001
,
0010
0100
1000
0100
1000
0100
1000
0100
0010
0001
0100
0001
0100
0001
0100
0001
,
0100
0010
1000
0010
1000
0100
0010
0001
1000
0100
0010
0001
0010
0001
0010
0001
,
0010
0001
0010
0001
0010
0100
1000
0100
1000
0001
0010
0100
1000
0010
0100
0001
,
0010
0100
1000
0100
1000
0100
0010
0001
1000
0010
1000
0010
1000
0100
1000
0100
,
0010
0001
0010
0001
1000
0100
0010
0001
1000
0100
1000
0001
0110
0001
1010
0100
,
1010
0001
0110
0001
1010
0100
1010
0001
1100
0010
1001
0100
1010
0001
0110
0001
,
1010
0100
1010
0001
1010
0100
1001
0100
1010
0001
0110
0001
1010
0100
1010
0100
,
1001
0100
1010
0001
1010
0100
1010
0001
0110
0001
1100
0010
1001
0010
1100
0001
,
1010
0100
1010
0100
1010
0100
1010
0100
1010
0001
0110
0001
0110
0001
0110
0001
,
1100
0010
1001
0010
1001
0100
1010
0001
1010
0100
1010
0001
1010
0001
0110
0001
,
1010
0001
0110
0001
1010
0100
1001
0100
1010
0001
1010
0100
1001
0010
1100
0001
,
1010
0100
1010
0100
1001
0100
1010
0001
1100
0010
1001
0010
1001
0100
1010
0100
,
1010
0001
0110
0001
1010
0100
1010
0001
1010
0100
1001
0100
1010
0000
0100
0000
,
0010
0000
0100
0000
0011
0000
1000
0000
0110
0000
0001
0000
2002
0000
0000
3003
,
1000
0100
0100
0010
1000
1000
0001
0100
,
0100
0001
0010
0010
0100
1000
1000
0010
,
0001
0001
0100
0010
0010
0001
1000
1000
,
0001
1000
1000
0100
0010
0010
0001
0100
,
1000
0100
0100
0010
1000
1000
0001
0100
,
0010
0010
1000
0100
0100
0000
1001
0000
;
