#TITLE:Air;
#SUBTITLE:-Full Version-;
#ARTIST:Shiki;
#TITLETRANSLIT:;
#SUBTITLETRANSLIT:;
#ARTISTTRANSLIT:;
#CREDIT:;
#BANNER:../fallback-bn.png;
#BACKGROUND:../fallback-bg.png;
#LYRICSPATH:;
#CDTITLE:monst3rjoe - cdtitle.png;
#MUSIC:06-Air.ogg;
#OFFSET:0.139;
#SAMPLESTART:11.793;
#SAMPLELENGTH:10.040;
#SELECTABLE:YES;
#BPMS:0.000=170.020,68.000=81.750,76.000=178.020;
#STOPS:;
#BGCHANGES:;
// cache tags:
#FIRSTBEAT:4.000;
#LASTBEAT:852.000;
#SONGFILENAME:Songs/SSSC PACK/[Monst3rjoe] - Air (Full Version)/air.sm;
#HASMUSIC:1;
#HASBANNER:1;
#MUSICLENGTH:303.124;
// end cache tags

//---------------dance-single - Monst3rjoe----------------
#NOTES:
     dance-single:
     Monst3rjoe:
     Challenge:
     14:
     1.000,1.000,0.267,0.399,1.000,2260.000,81.000,121.000,51.000,25.000:

0000
0000
0000
0000
,
000M
0000
0000
0000
,
00M0
0000
0000
0000
,
0M00
0000
0000
0000
,
0000
0000
0000
0000
,
2000
0000
0000
0000
,
3002
0000
0000
0000
,
MM23
000M
0000
0000
,
0000
0000
0000
0000
0000
0000
0000
0030
,
0001
0000
0010
0000
0011
0000
0001
0010
0000
1100
0000
0000
0000
0000
0000
0000
,
1000
0000
0010
0000
1010
0000
0010
0100
0000
1001
0000
0000
1001
0000
0000
0000
,
1000
0000
0100
0000
1100
0000
1000
0100
0000
0011
0000
0000
0000
0000
0000
0000
,
0001
0000
0100
0000
0101
0000
0001
0100
0000
1010
0000
0010
1000
0000
0010
1000
,
0100
0000
0010
0000
0110
0000
0010
0100
0000
1001
0000
0000
0000
0000
0000
0000
,
1000
0000
0001
0000
1001
0000
0001
1000
0000
1010
0000
0000
1100
0000
0000
0000
,
0100
0000
0010
0000
0011
0000
0001
0100
0000
0101
0000
0000
0000
0000
0000
0000
,
0001
0000
0010
0000
1100
0000
1000
0010
0000
0101
0000
0000
0100
0010
1000
0001
,
0000
0000
MMMM
0000
0000
0000
000M
00M0
0M00
0000
M000
00M0
0000
000M
0000
0000
,
0000
0000
0000
00M0
000M
0000
00M0
0000
M000
0M00
0000
0M00
00M0
0000
M000
0M00
,
0001
0100
0010
1000
0100
1000
0001
0100
0001
1000
0010
1000
0001
1000
01M0
1000
,
010M
1000
0010
0100
0001
1000
0100
1000
0001
0010
0001
1000
001M
0100
M010
0100
,
0001
0100
0010
1000
0001
0010
0001
1000
0100
1000
0010
0100
M001
0010
0M01
0010
,
0001
0100
0010
1000
0100
0010
0001
0100
0010
1000
0100
1000
00M1
0100
M001
0100
,
0001
0010
0100
0010
0100
0010
0100
0010
0001
0100
0001
0100
0001
0100
0001
0100
,
0010
1000
0010
1000
0010
1000
0010
1000
0100
1000
0100
1000
0100
1000
0100
1000
,
0001
0010
0001
0010
0001
0010
0001
0010
0100
1000
0100
1000
0100
1000
0100
1000
,
0001
1000
0001
1000
0000
0000
0001
0000
0000
1000
0000
0000
0100
0010
0100
0010
0000
0000
0100
1000
0100
1000
0000
0000
,
0001
0000
1000
0001
0100
0000
0010
0000
1000
0010
0000
0100
0001
0000
0010
0001
,
0100
0000
0010
1000
0100
0000
1000
0000
0010
1000
0000
0100
1000
0000
0100
0010
,
0001
0000
1000
0010
1000
0000
0100
0000
1000
0010
0000
0100
0001
0000
0010
0001
,
1000
0000
0010
1000
0100
0000
1000
0000
0010
1000
0000
0001
0100
0001
0010
0001
,
1000
0000
0100
0010
0001
0000
0010
0100
1000
0100
0000
0010
0001
0000
0010
0001
,
0010
0000
0001
0010
0100
0000
1000
0010
0100
0001
0000
0010
0100
0000
1000
0001
,
0100
0000
0001
0010
0001
0000
1000
0000
0010
1000
0000
0001
0100
0000
0001
1000
,
0001
0000
1000
0000
1001
0000
0001
0000
1000
0100
0000
0010
0001
1000
0001
1000
,
0100
0000
1000
0001
1000
0000
0010
0000
0100
0010
0000
0100
0001
0000
0010
0001
,
0100
0000
0010
1000
0100
0000
1000
0000
0010
1000
0000
0001
0100
0000
0010
0100
,
0001
0000
1000
0010
1000
0000
0100
0000
1000
0010
0000
0100
0001
0000
0010
0001
,
1000
0000
0010
1000
0100
0000
1000
0000
0010
1000
0000
0001
0100
0001
0010
0001
,
1000
0000
0100
0010
0001
0000
0010
0100
1000
0100
0000
0010
0001
0000
0010
0001
,
0010
0000
0001
0010
0100
0000
1000
0010
0100
0001
0000
0010
0100
0000
1000
0001
,
0100
0000
0001
0010
0001
0000
1000
0000
0010
1000
0000
0001
0100
0000
0001
1000
,
0001
0101
0000
1010
0000
1100
0000
0011
,
0002
0010
0000
0010
0000
1000
0003
0110
,
1001
0000
0002
0000
0010
0023
0030
1100
,
0011
0000
0000
0002
0000
0100
0003
0101
,
1010
0000
2000
0000
0010
3020
0000
0000
,
0230
0010
0000
0001
0000
0302
0000
0013
,
0020
0000
0230
0000
1000
2000
0300
0000
,
3002
0010
0000
1000
0000
0203
0000
0310
,
2000
0000
0000
0000
3200
0000
0000
0000
0310
0000
0000
0001
1000
0000
1001
0000
,
0002
0013
0001
1000
0010
1000
0001
1000
0100
0010
0100
1000
0001
0100
0010
1000
,
0100
0010
0001
0100
0020
1030
0100
1000
0002
0013
0002
0103
0010
0100
0001
1000
,
0200
0310
0100
1000
0001
0100
0020
0130
0001
1000
0010
1000
0002
0103
0010
1000
,
0002
0103
0001
0010
0200
1300
0001
0010
0002
0103
0020
1030
0100
1000
0001
0100
,
0002
1003
0010
1000
0100
0010
0100
1000
0001
0100
0020
0130
0001
1000
0020
1030
,
0002
0013
0001
0100
0002
1003
0100
1000
0002
0103
0002
1003
0010
1000
0001
0010
,
0200
1300
0100
0010
0100
1000
0001
0010
0001
1000
0200
1300
0001
0100
0002
1003
,
0020
1030
0100
0010
0002
0013
0100
1000
0200
1300
0020
0130
0001
0010
0001
1000
,
0020
1030
0001
1000
0100
0010
0100
1000
0001
0100
0010
1000
0100
0010
0001
0100
,
0010
1000
0100
1000
0002
0013
0001
0100
0020
0130
0002
1003
0100
0010
0100
1000
,
0002
0103
0010
0100
0001
1000
0200
1300
0001
0100
0010
1000
0200
1300
0001
0010
,
0200
1300
0001
0010
0002
0103
0010
1000
0200
1300
0002
0103
0001
1000
0010
1000
,
0200
0310
0100
1000
0001
0100
0010
0100
0001
1000
0200
1300
0001
0010
0002
0103
,
0002
1003
0100
1000
0002
0103
0001
1000
0020
1030
0200
0310
0001
1000
0100
0010
,
0200
1300
0001
0010
0001
1000
0100
1000
0001
0100
0001
1000
0010
1000
0100
0010
,
0001
0010
0100
1000
0001
0100
0010
1000
0100
0010
0001
1000
0100
0010
0001
1000
,
0001
0000
1000
0001
0100
0000
0010
0000
1000
0010
0000
0100
0001
0000
0010
0001
,
0100
0000
0010
1000
0100
0000
1000
0000
0010
1000
0000
0100
1000
0000
0100
0010
,
0001
0000
1000
0010
1000
0000
0100
0000
1000
0010
0000
0100
0001
0000
0010
0001
,
1000
0000
0010
1000
0100
0000
1000
0000
0010
1000
0000
0001
0100
0001
0010
0001
,
1000
0000
0100
0010
0001
0000
0010
0100
1000
0100
0000
0010
0001
0000
0010
0001
,
0010
0000
0001
0010
0100
0000
1000
0010
0100
0001
0000
0010
0100
0000
1000
0001
,
0100
0000
0001
0010
0001
0000
1000
0000
0010
1000
0000
0001
0100
0000
0001
1000
,
0001
0000
1000
0000
1001
0000
0001
0000
1000
0100
0000
0010
0001
0100
0001
1000
,
0100
0000
1000
0001
1000
0000
0001
0000
0010
0001
0000
1000
0100
0000
0010
0001
,
0100
0000
0010
1000
0100
0000
1000
0000
0010
1000
0000
0100
1000
0000
0100
0010
,
0001
0000
1000
0010
1000
0000
0100
0000
1000
0010
0000
0100
0001
0000
0010
0001
,
1000
0000
0010
1000
0100
0000
1000
0000
0010
1000
0000
0001
0100
0001
0010
0001
,
1000
0000
0100
0010
0001
0000
0010
0100
1000
0100
0000
0010
0001
0000
0100
0010
,
1000
0000
0001
0010
0100
0000
1000
0010
0100
0001
0000
0010
0100
0000
1000
0001
,
0100
0000
0001
0010
0001
0000
1000
0000
0010
1000
0000
0001
0100
0000
0001
1000
,
0001
0000
1000
0000
1001
0000
0001
0000
0100
0010
0000
1000
0000
0001
0100
0000
,
0202
0000
0000
0000
0000
0000
0000
0000
0000
0000
0000
0000
0000
0000
0000
0000
0303
0000
0000
0000
0000
0000
0000
0000
0000
0000
0000
0000
0001
0100
0004
0400
,
0000
0303
0000
0000
0000
0000
0000
0000
2010
0000
0000
0000
0010
0000
0000
0000
00M0
0000
0000
0000
3001
0000
0000
0000
0020
0000
0000
0000
0000
0000
0000
0000
,
0200
0030
0000
2000
0000
0300
0200
3310
,
0021
0000
0000
0000
0000
0000
0132
0000
0000
0000
0000
0000
2013
0000
0000
0000
0000
0000
3201
0000
0000
0301
0000
1000
,
0002
M000
0000
0003
,
0000
0000
1102
0M00
1000
1000
0003
0100
,
0010
0000
0000
0000
0000
0000
0100
0001
0010
0000
0000
0000
0000
0000
0000
0000
,
0001
1000
0010
0100
0010
0100
0001
0010
0001
0010
0100
1000
0100
1000
0001
1000
,
0001
0000
0000
0000
0000
0000
0000
0000
0100
0000
0000
0000
0000
0000
0000
0000
0001
0000
0000
0000
0000
0000
0000
0000
0010
0000
0000
0000
0001
0010
0004
0040
,
0000
0033
0000
0000
0000
0000
0000
0000
2100
0000
0000
0000
0100
0000
0000
0000
0M00
0000
0000
0000
0001
0000
0000
0000
3020
0000
0000
0000
0000
0000
0000
0000
,
0032
0000
0000
0203
0000
0000
0310
1000
,
0002
0000
0010
0000
1000
0000
0100
0003
,
1101
0001
0100
0010
,
1000
0000
2011
00M0
0001
0001
0000
3010
,
0200
0000
0302
0000
,
1003
0100
1000
0100
0010
0001
0010
0001
0100
0010
0100
0010
1000
0100
1000
0100
,
0020
0000
0000
0000
0000
0000
0000
0000
0100
0000
0000
0000
0000
0000
0000
0000
0001
0000
0000
0000
0000
0000
0000
0000
0130
0000
0000
0000
1000
0100
4000
0400
,
0000
3300
0000
0000
0000
0000
0000
0000
0012
0000
0000
0000
0010
0000
0000
0000
00M0
0000
0000
0000
0103
0000
0000
0000
0020
0000
0000
0000
0000
0000
0000
0000
,
2000
0030
0000
0002
3000
0000
0103
0010
,
0020
1030
0001
0010
,
0111
0100
1000
0010
,
1000
0000
2101
0000
0001
3001
0000
0010
,
1100
0000
1001
0000
,
0001
1000
0100
0010
0001
1000
0100
0010
0001
1000
0001
1000
0100
0010
0001
1000
,
0100
0010
0001
1000
0010
0100
0001
0010
0001
0100
0010
1000
0001
0100
0010
1000
,
0001
0010
0001
1000
0001
0100
0001
0010
0001
1000
0010
1000
0100
1000
0010
1000
,
0001
0100
0001
0010
0001
0100
0010
1000
0100
1000
0010
0100
0001
1000
0010
0100
,
0001
0010
0100
1000
0010
0100
0001
1000
0100
0010
0001
1000
0001
0100
0010
1000
,
0001
0010
0100
1000
0001
0010
0100
1000
0001
0010
0001
0100
0001
1000
0010
1000
,
0100
0010
0001
0010
0001
0100
0010
1000
0100
0010
0001
0100
0010
1000
0100
1000
,
0001
0010
0001
1000
0001
0010
0001
1000
0010
0100
0001
0010
0001
0100
0010
1000
,
0001
0010
0100
1000
0010
0100
0001
0010
0100
1000
0010
0100
0001
1000
0001
1000
,
0001
0010
0001
0100
0010
1000
0100
1000
0001
1000
0010
1000
0001
1000
0010
0100
,
0001
0010
0001
0100
0010
1000
0100
1000
0010
0100
0001
0010
0001
0100
0010
1000
,
0100
1000
0010
1000
0001
0100
0001
0010
0001
1000
0010
1000
0100
1000
0010
1000
,
0010
0100
0001
1000
0010
0100
0001
0010
0001
0010
0100
1000
0100
1000
0001
0010
,
0100
1000
0100
1000
0010
0100
0001
0100
0001
0010
0001
1000
0010
1000
0100
0010
,
0001
1000
0100
0010
0001
1000
0100
1000
0010
0100
0001
1000
0010
0100
0001
0010
,
0001
1000
0010
1000
0001
1000
0010
1000
0001
0100
0001
0010
0001
1000
0001
1000
,
0100
0010
0001
1000
0100
0010
0001
1000
0100
1000
0010
1000
0010
1000
0001
0010
,
M002
0013
0001
0010
0001
1000
0001
1000
0001
0010
0001
0010
0001
1000
0010
1000
,
0M02
0013
0001
1000
0001
1000
0001
0010
0001
0010
0001
0010
0100
1000
0001
1000
,
0M20
1030
0010
1000
0010
1000
0001
1000
0001
1000
0100
1000
0010
1000
0100
1000
,
0001
0010
0100
1000
0010
0100
0001
1000
0001
0100
0001
0010
0001
0100
0010
1000
,
0010
0100
0001
0100
0010
0100
0001
0100
0010
0100
0001
0100
0010
0100
0001
0100
,
0010
1000
0010
0100
0010
1000
0010
0100
0010
1000
0010
0100
0010
0100
0010
1000
,
0100
0010
0100
1000
0100
0010
0100
1000
0100
0010
0100
1000
0100
0010
0100
1000
,
0001
0100
0001
1000
0001
0100
0001
1000
0001
0010
0001
0010
0001
0010
0001
0010
,
0100
1000
0010
0100
0001
0010
0001
1000
0010
0100
0001
0010
0001
0100
0010
1000
,
0100
1000
0010
0100
0001
0010
0001
0100
0010
1000
0100
1000
0010
0100
0001
0010
,
0001
0100
0001
0010
0001
0100
0010
1000
0100
1000
0010
0100
0001
0010
0001
0100
,
0001
1000
0001
0100
0001
1000
0010
1000
0100
1000
0010
1000
0001
1000
0001
0100
,
0001
0010
0001
0100
0001
1000
0001
0100
0010
1000
0100
1000
0010
1000
0100
0010
,
0001
0010
0100
0010
0100
1000
0100
0010
0001
0010
0100
1000
0001
0100
0001
1000
,
0100
1000
0010
0100
0001
1000
0100
1000
0001
0010
0001
0010
0100
1000
0100
1000
,
0001
0100
0001
1000
0010
1000
0001
0100
0010
1000
0100
0010
0001
1000
0001
1000
,
0001
0100
0010
1000
0001
0100
0010
1000
0001
0100
0010
1000
0001
0100
0010
1000
,
0001
0010
0100
1000
0001
0010
0100
1000
0001
0010
0100
1000
0001
0010
0100
1000
,
0001
0010
0001
0100
0010
1000
0100
1000
0010
0100
0001
0010
0001
0100
0010
1000
,
0100
1000
0010
0100
0001
0010
0001
0100
0010
1000
0100
1000
0010
0100
0001
0010
,
0001
1000
0100
1000
0001
0100
0010
1000
0001
0100
0010
1000
0001
0100
0010
1000
,
0010
0100
0001
1000
0010
0100
0001
1000
0010
0100
0001
1000
0010
0100
0001
1000
,
0001
0010
0100
1000
0010
0100
0001
0010
0001
0100
0010
1000
0100
1000
0010
0100
,
0001
0010
0001
0100
0010
0100
0001
0010
0100
0010
0001
1000
0001
1000
0001
1000
,
0100
1000
0001
0010
0100
1000
0001
0010
0100
1000
0001
0010
0100
1000
0001
0100
,
0001
0010
0100
1000
0001
0010
0100
1000
0001
0010
0100
1000
0001
0010
0100
1000
,
0001
0010
0001
0100
0010
1000
0100
1000
0010
0100
0001
0010
0001
0100
0010
1000
,
0100
1000
0001
0100
0001
0010
0001
0100
0010
1000
0100
1000
0010
1000
0001
0100
,
0001
0010
0100
1000
0001
0010
0100
1000
0001
0010
0100
1000
0001
0010
0100
1000
,
0001
1000
0100
0010
0001
1000
0100
0010
0001
1000
0100
0010
0001
0100
0010
1000
,
0010
0100
0010
1000
0100
0010
0001
1000
0100
1000
0010
0100
0001
1000
0001
0100
,
0001
0000
0000
0000
0000
0000
0000
0000
0000
0000
0000
0000
1000
0000
0000
0000
0000
0000
0000
0000
0000
0000
0000
0000
0001
0000
0000
0000
0000
0000
0000
0000
0000
0000
0000
0000
0000
0000
0000
0000
0000
0000
0000
0000
0000
0000
0000
0000
0010
0000
0000
0000
0000
0000
0000
0000
0000
0000
0000
0000
0100
0000
0000
0000
0000
0000
0000
0000
0000
0000
0000
0000
0010
0000
0000
0000
0000
0000
0000
0000
0000
0000
0000
0000
0000
0000
0000
0000
0000
0000
0000
0000
0000
0000
0000
0000
1100
0000
0000
0000
0000
0000
0000
0000
0000
0000
0000
0000
0000
0000
0000
0000
0000
0000
0000
0000
0000
0000
0000
0000
1000
0000
0000
0000
0000
0000
0000
0000
0000
0000
0000
0000
0100
0000
0000
0000
0000
0000
0000
0000
0000
0000
0000
0000
1000
0000
0000
0000
0000
0000
0000
0000
0100
0000
0000
0000
0000
0000
0000
0000
1000
0000
0000
0000
0000
0000
0000
0000
0400
0000
0000
0000
0000
0000
4000
0000
0000
0000
0000
0000
0000
0000
0000
0000
0000
0000
0000
0000
0000
0000
0000
0000
,
0000
3300
0000
0000
0000
0000
0000
0000
1100
0000
0000
0000
0000
0000
0000
0000
1001
0000
0000
0000
0000
0000
0000
0000
0011
0000
0000
0000
0001
1000
0004
4000
,
0000
3003
1010
1001
0000
0011
0101
0000
,
1101
0000
0000
1011
0000
0000
1000
0100
,
0020
0001
0100
0031
,
1021
0100
1000
0100
,
1030
0000
1012
00M0
0100
0103
0000
0100
,
1101
0000
1011
0000
,
1000
0100
1000
0100
0010
0001
0010
0001
0100
0010
0100
0010
1000
0100
1000
0100
,
2000
0000
0000
0000
0000
0000
0000
0000
0010
0000
0000
0000
0000
0000
0000
0000
0001
0000
0000
0000
0000
0000
0000
0000
3100
0000
0000
0000
1000
0001
4000
0004
,
3000
0003
0000
0000
0000
0000
0000
0000
0012
0000
0000
0000
0010
0000
0000
0000
00M0
0000
0000
0000
1000
0000
0000
0000
0023
0000
0000
0000
0000
0000
0000
0000
,
0200
0030
0000
2000
0000
0300
0200
3310
,
0002
0100
0010
1003
,
2110
0010
0001
0100
,
3010
0000
1102
0M00
1000
1000
0003
0100
,
0010
0000
0111
0000
,
0001
1000
0010
0100
0010
0100
0001
0010
0001
0010
0100
1000
0100
1000
0001
1000
,
0001
0000
0000
0000
0000
0000
0000
0000
0100
0000
0000
0000
0000
0000
0000
0000
0001
0000
0000
0000
0000
0000
0000
0000
0010
0000
0000
0000
0001
0010
0004
0040
,
0000
0033
0000
0000
0000
0000
0000
0000
2100
0000
0000
0000
0100
0000
0000
0000
0M00
0000
0000
0000
0001
0000
0000
0000
3020
0000
0000
0000
0000
0000
0000
0000
,
0032
0000
0000
0203
0000
0000
0310
1000
,
0002
0000
0010
0000
1000
0000
0100
0003
,
1101
0001
0100
0010
,
1000
0000
2011
00M0
0001
0001
0000
3010
,
0200
0000
0302
0000
,
1003
0100
1000
0100
0010
0001
0010
0001
0100
0010
0100
0010
1000
0100
1000
0100
,
0020
0000
0000
0000
0000
0000
0000
0000
0100
0000
0000
0000
0000
0000
0000
0000
0001
0000
0000
0000
0000
0000
0000
0000
0130
0000
0000
0000
1000
0100
4000
0400
,
0000
3300
0000
0000
0000
0000
0000
0000
0012
0000
0000
0000
0010
0000
0000
0000
00M0
0000
0000
0000
0103
0000
0000
0000
0020
0000
0000
0000
0000
0000
0000
0000
,
2000
0030
0000
0002
3000
0000
0103
0010
,
0020
1030
0001
0010
,
0111
0100
1000
0010
,
1000
0000
2101
000M
0010
3010
0000
0001
,
1M11
0000
1111
0000
,
0001
0010
0001
1000
0001
0100
0001
1000
0010
0100
0010
1000
0010
0100
0001
1000
,
0100
0010
0001
1000
0010
0100
0001
0010
0001
0100
0010
1000
0001
0100
0010
1000
,
0001
0010
0001
1000
0001
0100
0001
0010
0001
1000
0010
1000
0100
1000
0010
1000
,
0001
0100
0001
0010
0001
0100
0010
1000
0100
1000
0010
0100
0001
1000
0010
0100
,
0001
0010
0100
1000
0010
0100
0001
1000
0100
0010
0001
1000
0001
0100
0010
1000
,
0001
0010
0100
1000
0001
0010
0100
1000
0001
0010
0001
0100
0001
1000
0010
1000
,
0100
0010
0001
0010
0001
0100
0010
1000
0100
0010
0001
0100
0010
1000
0100
1000
,
0001
0010
0001
1000
0001
0010
0001
1000
0010
0100
0001
0010
0001
0100
0010
1000
,
0001
0010
0100
1000
0010
0100
0001
0010
0100
1000
0010
0100
0001
1000
0001
1000
,
0001
0010
0001
0100
0010
1000
0100
1000
0001
1000
0010
1000
0001
1000
0010
0100
,
0001
0010
0001
0100
0010
1000
0100
1000
0010
0100
0001
0010
0001
0100
0010
1000
,
0100
1000
0010
1000
0001
0100
0001
0010
0001
1000
0010
1000
0100
1000
0010
1000
,
0010
0100
0001
1000
0010
0100
0001
0010
0001
0010
0100
1000
0100
1000
0001
0010
,
0100
1000
0100
1000
0010
0100
0001
0100
0001
0010
0001
1000
0010
1000
0100
0010
,
0001
1000
0100
0010
0001
1000
0100
1000
0010
0100
0001
1000
0010
0100
0001
0010
,
0001
1000
0010
1000
0001
1000
0010
1000
0001
0100
0001
0010
0001
1000
0001
1000
,
0100
0010
0001
1000
0100
0010
0001
1000
0100
1000
0010
1000
0100
0010
0001
0100
,
0010
0000
1000
0001
0100
0000
0010
0000
1000
0010
0000
0100
0001
0000
0010
0001
,
0100
0000
0010
1000
0100
0000
1000
0000
0010
1000
0000
0100
1000
0000
0100
0010
,
0001
0000
1000
0010
1000
0000
0100
0000
1000
0010
0000
0100
0001
0000
0010
0001
,
1000
0000
0010
1000
0100
0000
1000
0000
0010
1000
0000
0001
0100
0001
0010
0001
,
1000
0000
0100
0010
0001
0000
0010
0100
1000
0100
0000
0010
0001
0000
0010
0001
,
0010
0000
0001
0010
0100
0000
1000
0010
0100
0001
0000
0010
0100
0000
1000
0001
,
0100
0000
0001
0010
0001
0000
1000
0000
0010
1000
0000
0001
0100
0000
0001
1000
,
0001
0000
1000
0000
1001
0000
0001
0000
1000
0100
0000
M010
0001
0100
0001
0100
,
0002
0000
0000
0000
,
0000
0000
0000
0000
,
0003
0000
0000
0000
;
