#TITLE:By Ur Side;
#SUBTITLE:;
#ARTIST:DJ Sharpnel;
#TITLETRANSLIT:;
#SUBTITLETRANSLIT:;
#ARTISTTRANSLIT:;
#CREDIT:;
#BANNER:by ur side bn.png;
#BACKGROUND:by ur side bg.png;
#LYRICSPATH:;
#CDTITLE:;
#MUSIC:by ur side.ogg;
#OFFSET:-19.809;
#SAMPLESTART:205.720;
#SAMPLELENGTH:18.590;
#SELECTABLE:YES;
#DISPLAYBPM:207.000;
#BPMS:0.000=206.560;
#STOPS:;
#BGCHANGES:;
// cache tags:
#FIRSTBEAT:0.000;
#LASTBEAT:770.000;
#SONGFILENAME:Songs/SHARPNELSTREAMZ v2/By Ur Side/By Ur Side.sm;
#HASMUSIC:1;
#HASBANNER:1;
#MUSICLENGTH:244.009;
// end cache tags

//---------------dance-single - 16+ (TYLR)----------------
#NOTES:
     dance-single:
     16+ (TYLR):
     Challenge:
     16:
     1.000,1.000,0.250,0.102,1.000,2110.000,61.000,25.000,17.000,0.000:
2001
0000
3001
0000
0100
0000
0010
1000
,
0001
0000
0000
0000
0010
0000
0000
0000
0100
0000
0000
1000
0010
0000
0000
1000
,
0001
0010
0001
0100
,
0010
0000
0000
0000
1000
0000
0000
0000
0001
0010
0001
1000
0001
0100
0010
1000
,
0001
0000
0010
0000
0100
0000
1000
0001
,
0100
0000
0000
0000
0010
0000
0000
0000
1000
0000
0000
0001
0010
0000
0000
0001
,
1000
0010
0100
0001
,
0010
0000
0000
0000
0100
0000
0000
0000
1000
0001
0100
0001
0010
0100
1000
0001
,
0200
0000
0310
0000
1000
0000
0100
0010
,
0001
0000
0000
0000
1000
0000
0000
0000
0010
0000
0000
0100
0001
0000
0000
1000
,
0100
0010
0001
0100
,
0010
0000
0000
0000
1000
0000
0000
0000
0001
0010
0001
1000
0001
0100
0010
1000
,
0001
0000
0010
0000
0100
0000
1000
0001
,
0100
0000
0000
0000
0010
0000
0000
0000
1000
0000
0000
0001
0010
0000
0000
0001
,
0100
0001
0000
1000
0000
0100
0000
1000
,
0000
0000
0000
0000
,
1000
0001
1000
0100
1000
0001
0100
0001
0010
0100
1000
0100
0010
0001
0100
0001
,
1000
0100
1000
0001
0100
0001
1000
0100
0010
0100
1000
0001
0010
0100
1000
0001
,
0100
0001
1000
0100
1000
0001
0100
0001
0010
0100
1000
0100
0010
0001
0100
0001
,
1000
0100
1000
0001
0100
0001
0010
0100
1000
0001
1000
0001
1000
0001
1000
0001
,
1000
0010
0100
0001
1000
0001
0100
0010
1000
0001
0010
0001
1000
0010
0100
0010
,
1000
0001
0010
0100
1000
0100
0010
0001
1000
0010
0100
0010
1000
0100
0010
0001
,
1000
0010
0100
0001
1000
0001
0100
0010
1000
0001
0100
0001
1000
0010
0100
0001
,
1000
0001
0010
0100
0010
0001
1000
0100
1000
0001
1000
0001
1000
0001
1000
0001
,
0100
0001
1000
0100
1000
0001
0100
0001
0010
0100
1000
0100
0010
0001
0100
0001
,
1000
0100
1000
0001
0100
0001
1000
0100
0010
0100
1000
0001
0010
0100
1000
0001
,
0100
0001
1000
0100
1000
0001
0100
0001
0010
0100
1000
0100
0010
0001
0100
0001
,
1000
0100
1000
0001
0100
0001
0010
0100
1000
0001
1000
0001
1000
0001
1000
0001
,
1000
0010
0100
0001
1000
0001
0100
0010
1000
0001
0010
0001
1000
0010
0100
0010
,
1000
0001
0010
0100
1000
0100
0010
0001
1000
0010
0100
0010
1000
0100
0010
0001
,
1000
0010
0100
0001
1000
0001
0100
0010
1000
0001
0100
0001
1000
0010
0100
0001
,
1000
0001
1000
0001
1000
0001
1000
0001
1000
0001
1000
0001
1000
0001
1000
0001
,
0200
0000
0301
0000
1000
0100
0010
0001
1000
0000
0001
0000
1000
0010
1000
0000
,
0001
0000
0010
0000
0100
0000
0010
0000
0001
0100
0010
1000
0001
0000
1000
0010
,
0100
0000
0001
0000
0010
0001
0010
0001
1000
0000
0001
0000
0100
0000
0010
0000
,
1000
0000
1000
0000
0001
0100
0001
0000
1000
0000
0001
0010
0100
1000
0100
1000
,
0001
0000
1000
0000
0001
0010
0100
1000
0010
0000
1000
0000
0001
0010
0001
0000
,
0100
0000
0010
0000
1000
0000
0001
0000
1000
0100
0010
0001
1000
0000
0001
1000
,
0010
0000
0100
0000
0001
0010
0001
0010
0100
0000
1000
0000
0001
0000
0001
0000
,
0001
0000
0100
0000
0010
1000
0010
0000
0100
0000
0001
1000
0001
0000
1000
0100
,
0010
0000
0001
0000
1000
0010
0100
0001
1000
0000
0100
0000
0010
0001
1000
0000
,
1000
0000
0001
0000
0100
0000
0010
0000
0100
0001
0010
0100
1000
0000
0001
1000
,
0001
0000
0100
0000
0010
1000
0010
1000
0001
0000
1000
0000
0100
0000
0100
0000
,
0100
0000
0010
0000
0001
0010
0001
0000
1000
0000
0001
0100
0010
0000
1000
0001
,
1000
0000
0100
0000
0010
0001
0100
0010
1000
0000
0001
0000
0010
0100
1000
0000
,
1000
0000
0001
0000
0100
0000
0001
0000
1000
0100
0010
0001
0100
0000
0001
1000
,
0010
0000
0100
0000
0001
0010
0001
0010
0100
0000
1000
0000
0001
0000
0001
0000
,
2002
0000
0000
3003
2002
0000
0000
3003
0110
0000
0000
0000
MMMM
0000
0000
0000
,
1001
0000
0001
0000
0400
0000
0000
0000
0310
1000
0010
1000
0001
0000
0001
0000
,
0010
0001
0010
0000
0400
0000
0000
0000
1300
0001
1000
0100
0010
0001
0000
0001
,
1000
0001
1000
0000
0040
0000
0000
0000
0130
0001
0100
0010
1000
0001
0000
0001
,
1000
0001
1000
0000
0400
0000
0000
0000
0310
0001
0010
0100
1000
0001
1000
0010
,
0100
0000
0001
0000
4000
0000
0000
0000
3001
0010
0001
1000
0010
0000
0010
0000
,
0100
0001
0100
0000
0040
0000
0000
0000
1030
0001
1000
0010
0100
0001
0000
0001
,
1000
0001
1000
0000
0400
0000
0000
0000
0310
0001
0010
0100
1000
0001
0000
0001
,
1000
0001
1000
0000
0040
0000
0000
0000
0130
0001
0100
0010
1000
0001
1000
0100
,
001M
0000
0001
0000
0400
0000
0000
0000
0301
1000
0001
0000
0010
0000
0100
0000
,
1000
0000
0000
0001
0000
0000
0001
0000
0100
0010
1000
0000
0001
0000
0010
0000
,
0100
0000
0000
0100
0000
0000
1000
0000
0010
0100
0001
0000
1000
0000
0100
0000
,
0010
0000
0000
0010
0000
0000
0001
0000
0100
0010
1000
0000
0001
0000
0010
0000
,
0100
1000
0100
0000
0010
0001
0010
0000
0001
0100
0001
0000
1000
0010
1000
0000
,
0001
0010
0001
0000
0100
0001
0100
0000
0010
1000
0010
0000
1000
0001
1000
0000
,
0001
0010
0100
1000
0001
1000
0100
0010
0001
0100
0010
1000
0001
0010
0100
1000
,
00M1
0000
0100
0000
0010
0000
1000
0000
0001
1000
0001
1000
0001
1000
0001
1000
,
0001
0100
0001
0010
0100
1000
0001
1000
0100
0010
0100
1000
0001
0010
0001
1000
,
0010
0100
0001
0010
0001
0100
0010
1000
0001
0010
0100
1000
0100
0010
0001
1000
,
0001
0100
0001
0010
0100
1000
0001
1000
0001
0100
0010
1000
0001
1000
0100
0010
,
0001
1000
0010
1000
0100
0010
0001
0100
,
0001
0010
0001
0100
0010
1000
0001
1000
0100
0010
0100
1000
0001
0010
0001
1000
,
0010
0100
0001
0010
0001
1000
0010
1000
0001
0100
0010
1000
0010
0100
0001
1000
,
0001
0010
0001
0100
0010
1000
0001
1000
0001
0100
0010
1000
0001
1000
0100
0010
,
0001
1000
0010
1000
0001
0010
0100
1000
,
0001
0010
0001
0100
0010
1000
0001
1000
0100
0010
0100
1000
0001
0010
0001
1000
,
0010
0100
0001
0010
0001
0100
0010
1000
0001
0010
0100
1000
0100
0010
0001
1000
,
0001
0100
0001
0010
0100
1000
0001
1000
0001
0100
0010
1000
0001
1000
0100
0010
,
0001
0100
0010
0100
0001
0010
0100
1000
,
0001
0010
0001
0100
0010
1000
0001
1000
0100
0010
0100
1000
0001
0010
0001
1000
,
0010
0100
0001
0010
0001
1000
0010
1000
0001
0100
0010
1000
0010
0100
0001
1000
,
0001
0010
0001
0100
0010
1000
0001
1000
0001
0100
0010
1000
0001
1000
0100
0010
,
0002
0000
0103
0000
0002
0000
0013
0000
0110
0000
0100
1000
0001
0000
1000
0000
,
0001
0100
0001
0010
0100
1000
0001
1000
0100
0010
0100
1000
0001
0010
0001
1000
,
0010
0100
0001
0010
0001
0100
0010
1000
0001
0010
0100
1000
0100
0010
0001
1000
,
0001
0100
0001
0010
0100
1000
0001
1000
0001
0100
0010
1000
0001
1000
0100
0010
,
0001
1000
0010
1000
0100
0010
0001
0100
,
0001
0010
0001
0100
0010
1000
0001
1000
0100
0010
0100
1000
0001
0010
0001
1000
,
0010
0100
0001
0010
0001
1000
0010
1000
0001
0100
0010
1000
0010
0100
0001
1000
,
0001
0010
0001
0100
0010
1000
0001
1000
0001
0100
0010
1000
0001
1000
0100
0010
,
0001
1000
0010
1000
0001
0010
0100
1000
,
0001
0010
0001
0100
0010
1000
0001
1000
0100
0010
0100
1000
0001
0010
0001
1000
,
0010
0100
0001
0010
0001
0100
0010
1000
0001
0010
0100
1000
0100
0010
0001
1000
,
0001
0100
0001
0010
0100
1000
0001
1000
0001
0100
0010
1000
0001
1000
0100
0010
,
0001
0100
0010
0100
0001
0010
0100
1000
,
0001
0010
0001
0100
0010
1000
0001
1000
0100
0010
0100
1000
0001
0010
0001
1000
,
0010
0100
0001
0010
0001
1000
0010
1000
0001
0100
0010
1000
0010
0100
0001
1000
,
0001
0010
0001
0100
0010
1000
0001
1000
0001
0100
0010
1000
0001
1000
0100
0010
,
0002
0103
0002
0013
0110
0000
1000
0001
,
2002
0000
0000
0000
,
3003
0000
0000
0000
,
0000
0000
0000
0000
,
0000
0000
0000
0000
,
0000
0000
0000
0000
,
0000
0000
0000
0000
,
0000
0000
0000
0000
,
0000
0000
0000
0000
,
0000
0000
0000
0000
,
0000
0000
0000
0000
,
0000
0000
0000
0000
,
0000
0000
0000
0000
,
0000
0000
0000
0000
,
0000
0000
0000
0000
,
0000
0000
0000
0000
,
1MM1
0000
0000
0000
,
1001
1000
1000
1000
0010
0010
0010
0010
,
0100
0100
0100
0100
0001
0001
4000
0000
,
3001
0000
0001
0010
0100
1000
0100
1000
0001
0100
0001
0100
0010
1000
0010
1000
,
0002
0000
0000
0000
1003
0000
0002
0000
0000
0000
1003
0000
0001
1000
0001
1000
,
0100
0100
0010
0001
1000
1000
0001
0001
,
0100
0000
0100
0000
0100
0000
0100
0000
0010
0000
0010
1000
0004
4000
0000
0003
,
3100
0000
0100
0010
0004
4000
0000
0003
3010
0100
0010
0100
0001
0100
0010
1000
,
0002
0000
0010
0000
0013
0000
0200
0000
1000
0000
1300
0000
0001
0100
0010
1000
,
0001
0001
0001
0001
0010
0010
0010
0010
,
0100
0100
0100
0100
1000
1000
0004
0000
,
0103
0000
0100
0010
1000
0001
1000
0001
1000
0100
1000
0100
0010
0001
0010
0001
,
2000
0000
0000
0000
3001
0000
2000
0000
0000
0000
3001
0000
1000
0001
1000
0001
,
0100
0100
0010
1000
0001
0001
1000
1000
,
0100
0000
0100
0000
0100
0000
0100
0000
0010
0000
0010
0001
4000
0004
0000
3000
,
0103
0000
0100
0010
4000
0004
0000
3000
0013
0100
0010
0100
1000
0100
0010
0001
,
M100
0000
101M
0000
11M0
0100
M011
0000
,
1MM1
0000
0001
0000
0100
0000
0010
0000
1000
0001
1000
0000
0100
0000
0100
0000
,
0010
0000
0001
0000
0010
0000
0100
0000
1000
0100
1000
0001
0100
0000
0001
1000
,
0100
0000
0010
0000
0100
0000
1000
0000
0001
1000
0001
0000
0100
0000
0001
0000
,
0100
0000
0010
0000
0010
0000
0100
0000
0001
1000
0001
0100
0010
1000
0001
1000
,
0100
0000
0010
0000
0100
0000
1000
0000
0001
1000
0001
0000
0100
0000
0100
0000
,
0010
0000
1000
0000
0010
0000
0100
0000
0001
0100
0001
1000
0100
0000
1000
0001
,
0100
0000
0010
0000
0100
0000
0001
0000
1000
0001
1000
0000
0100
0000
1000
0000
,
0100
0000
0010
0000
0010
0000
0100
0000
1000
0001
1000
0010
0100
0001
1000
0001
,
0M10
0001
0011
0000
1100
0000
1001
0000
,
0101
0100
0101
0000
0011
0000
0110
0000
,
1001
1000
1001
0000
0101
0000
1010
0000
,
1100
0000
0000
0000
0011
0000
0001
0000
1000
0001
1000
0010
0100
0001
0010
0100
,
1000
0100
1100
0000
1001
0000
0101
0000
,
1010
1000
1010
0000
1100
0000
0011
0000
,
1001
0001
1001
0000
1010
0000
0110
0000
,
1MM1
0000
0001
0000
0001
0000
0010
0000
0001
0000
0001
0000
1000
0010
0100
0001
,
0010
0100
0010
0100
1000
0001
0010
0100
0010
0100
1000
0001
0010
0100
0010
0001
,
1000
0001
1000
0001
0100
0010
1000
0001
1000
0001
0100
0010
1000
0001
1000
0100
,
0010
0001
0010
0001
1000
0100
0010
0001
0010
0001
1000
0100
0010
0001
0010
0100
,
1000
0001
1000
0010
1000
0010
0100
0001
0010
0100
0010
0001
0100
0010
1000
0100
,
0010
0001
0010
0001
1000
0100
0010
0001
0010
0001
1000
0100
0010
0001
0010
0100
,
1000
0001
1000
0001
0100
0010
1000
0001
1000
0001
0100
0010
1000
0001
1000
0100
,
0010
0001
0010
0001
1000
0100
0010
0001
0010
0001
1000
0100
0010
0001
0010
0100
,
1000
0001
1000
0010
1000
0010
0100
0001
0010
0100
1000
0001
0100
0010
1000
0100
,
0010
0001
1000
0001
0010
0001
1000
0001
0100
0010
1000
0001
0010
0001
1000
0010
,
0100
0001
1000
0001
0100
0001
1000
0001
1000
0100
0010
0001
1000
0001
0010
0100
,
1000
0001
0010
0001
1000
0001
0010
0001
1000
0010
0100
0001
1000
0001
0100
0010
,
1000
0001
0010
0100
0010
0001
0010
0100
1000
0001
1000
0010
0100
0001
0010
0100
,
1000
0001
0010
0001
1000
0001
0010
0001
1000
0010
0100
0001
1000
0001
1000
0100
,
0010
0001
1000
0001
0010
0001
1000
0001
0100
0010
1000
0001
1000
0100
0010
0001
,
1000
0001
0100
0001
1000
0001
0100
0001
1000
0100
0010
0001
1000
0001
0010
0100
,
1000
0001
0101
0100
0110
1010
1001
0001
,
0010
0001
1000
0010
1000
0001
0010
0001
0100
0010
1000
0010
0100
0001
0010
0001
,
1000
0010
1000
0001
0010
0001
1000
0010
0100
0010
1000
0001
0100
0010
1000
0001
,
0010
0001
1000
0010
1000
0001
0010
0001
0100
0010
1000
0010
0100
0001
0010
0001
,
1000
0010
1000
0001
0010
0001
1000
0010
0100
0010
1000
0001
0100
0010
1000
0001
,
1000
0100
0010
0001
1000
0001
0010
0100
1000
0001
0100
0001
1000
0100
0010
0100
,
1000
0001
0100
0010
1000
0010
0100
0001
1000
0100
0010
0100
1000
0010
0100
0001
,
1000
0100
0010
0001
1000
0001
0010
0100
1000
0001
0010
0001
1000
0100
0010
0001
,
1000
0010
0100
0010
1000
0100
0010
0001
,
0100
0001
1000
0100
1000
0001
0100
0001
0010
0100
1000
0100
0010
0001
0100
0001
,
1000
0100
1000
0001
0100
0001
1000
0100
0010
0100
1000
0001
0010
0100
1000
0001
,
0100
0001
1000
0100
1000
0001
0100
0001
0010
0100
1000
0100
0010
0001
0100
0001
,
1000
0100
1000
0001
0100
0001
1000
0100
0010
0100
1000
0001
0010
0100
1000
0001
,
1000
0010
0100
0001
1000
0001
0100
0010
1000
0001
0010
0001
1000
0010
0100
0010
,
1000
0001
0010
0100
1000
0100
0010
0001
1000
0010
0100
0010
1000
0100
0010
0001
,
1000
0010
0100
0001
1000
0001
0100
0010
1000
0001
0100
0001
1000
0010
0100
0001
,
2000
0000
3001
0000
2000
0000
3001
0000
1001
0000
1000
0100
0010
0000
0001
0000
,
1000
0010
1000
0100
0010
0001
1000
0001
0010
0100
0010
0001
1000
0100
1000
0001
,
0100
0010
1000
0100
1000
0010
0100
0001
1000
0100
0010
0001
0010
0100
1000
0001
,
1000
0010
1000
0100
0010
0001
1000
0001
1000
0010
0100
0001
1000
0001
0010
0100
,
1000
0001
0100
0001
0010
0100
1000
0010
,
1000
0100
1000
0010
0100
0001
1000
0001
0010
0100
0010
0001
1000
0100
1000
0001
,
0100
0010
1000
0100
1000
0001
0100
0001
1000
0010
0100
0001
0100
0010
1000
0001
,
1000
0100
1000
0010
0100
0001
1000
0001
1000
0010
0100
0001
1000
0001
0010
0100
,
1000
0001
0100
0001
1000
0100
0010
0001
,
1000
0100
1000
0010
0100
0001
1000
0001
0010
0100
0010
0001
1000
0100
1000
0001
,
0100
0010
1000
0100
1000
0010
0100
0001
1000
0100
0010
0001
0010
0100
1000
0001
,
1000
0010
1000
0100
0010
0001
1000
0001
1000
0010
0100
0001
1000
0001
0010
0100
,
1000
0010
0100
0010
1000
0100
0010
0001
,
1000
0100
1000
0010
0100
0001
1000
0001
0010
0100
0010
0001
1000
0100
1000
0001
,
0100
0010
1000
0100
1000
0001
0100
0001
1000
0010
0100
0001
0100
0010
1000
0001
,
1000
0100
1000
0010
0100
0001
1000
0001
1000
0010
0100
0001
1000
0001
0010
0100
,
2000
3010
2000
3100
0110
0000
0001
1000
,
2002
0000
3003
0000
;
