#TITLE:Samurai Hardbeat;
#SUBTITLE:;
#ARTIST:DJ Sharpnel;
#TITLETRANSLIT:;
#SUBTITLETRANSLIT:;
#ARTISTTRANSLIT:;
#CREDIT:;
#BANNER:Samurai Hardbeat-bn.jpg;
#BACKGROUND:Samurai Hardbeat-bg.JPG;
#LYRICSPATH:;
#CDTITLE:;
#MUSIC:Samurai Hardbeat.mp3;
#OFFSET:-0.500;
#SAMPLESTART:100.000;
#SAMPLELENGTH:12.000;
#SELECTABLE:YES;
#BPMS:0.000=160.000;
#STOPS:379.938=1.480
,475.667=1.500
,860.000=6.370
;
#BGCHANGES:;
// cache tags:
#FIRSTBEAT:0.000;
#LASTBEAT:864.167;
#SONGFILENAME:Songs/keyboard/Samurai Hardbeat/Samurai Hardbeat.sm;
#HASMUSIC:1;
#HASBANNER:1;
#MUSICLENGTH:336.473;
// end cache tags

//---------------dance-single - ----------------
#NOTES:
     dance-single:
     :
     Hard:
     12:
     1.000,1.000,1.000,0.550,0.920,1368.000,917.000,185.000,0.000,37.000:
0011
0000
0000
0011
0000
0000
0011
0000
0000
0011
0000
1000
,
0011
0000
0000
0011
0000
0000
0011
0000
0000
0011
0000
0100
,
0011
0000
0000
0011
0000
0000
0011
0000
0000
0011
0000
1000
,
0011
0000
0000
0011
0000
0000
0011
0000
1000
0011
0000
0010
,
1100
0000
0000
1100
0000
0000
1100
0000
0000
1100
0000
0001
,
1100
0000
0000
1100
0000
0000
1100
0000
0000
1100
0000
0010
,
1100
0000
0000
1100
0000
0000
1100
0000
0000
1100
0000
0001
,
1100
0000
0000
0000
0000
0000
0000
0000
0010
1100
0000
0010
,
1100
0000
0000
0101
0000
0000
0011
0000
0000
1001
0000
0010
,
1100
0000
0000
0110
0000
0000
1010
0000
0000
0110
0000
1000
,
0011
0000
0000
0101
0000
0000
1010
0000
0000
0110
0000
0100
,
0011
0000
0000
1001
0000
0000
1100
0000
0100
1001
0000
0010
,
1001
0000
0000
1010
0000
0000
1100
0000
0000
1001
0000
0100
,
0011
0000
0000
0110
0000
0000
0101
0000
0000
0110
0000
0001
,
1100
0000
0000
1010
0000
0000
0101
0000
0000
0110
0000
0010
,
1100
0000
0000
1001
0000
0000
0011
0000
0010
1001
0000
0100
,
1001
0000
0000
0011
0000
0000
0101
0000
1000
0110
0000
0010
,
0101
0000
0000
0101
0000
0000
0011
0000
1000
0101
0000
1000
,
0011
0000
0000
0110
0000
0000
1010
0000
0100
0011
0000
1000
,
0110
0000
0000
0011
0000
0000
0110
0000
1000
0110
0000
0010
,
0101
0000
0000
1001
0000
0000
0101
0000
0010
1100
0000
1000
,
0101
0000
0000
0011
0000
0000
0101
0000
0100
1010
0000
1000
,
0011
0000
0000
0110
0000
0000
1010
0000
0100
0011
0000
1000
,
0011
0000
0000
0000
0000
0000
0000
0000
0110
0110
0000
1001
,
1001
0000
0000
1001
0000
0000
1001
0000
0000
1001
0000
0100
,
0110
0000
0000
0110
0000
0000
0110
0000
0000
0110
0000
0010
,
0011
0000
0000
0011
0000
0000
0011
0000
0000
0011
0000
1000
,
1100
0000
0000
1100
0000
0000
1100
0000
0000
1100
0000
0001
,
1000
0100
1000
0010
0100
0010
0001
0100
0010
1000
0100
0010
,
0001
0100
1000
0010
0100
0010
0001
0010
0100
1000
0100
1000
,
0100
0010
1000
0100
0010
0001
0010
0001
0100
0010
1000
0100
1000
0010
0100
0010
0001
0010
0100
0010
0001
0100
0010
1000
,
0100
0010
0100
1000
0100
0010
0001
0010
0001
0100
1000
0010
0100
0000
0000
0000
0010
0000
0001
0000
0000
0000
0100
0000
,
1000
0000
0000
0000
,
1100
0110
0011
0101
1001
1100
1010
0110
1001
0101
1100
0110
,
1001
0000
0100
1010
0000
0000
0011
0000
1000
0101
0000
0110
,
1001
0000
1010
0110
0000
1010
0011
0000
0000
1100
0000
0000
,
1001
0000
0010
1100
0000
0000
1001
0000
0010
1100
0000
0011
,
1100
0000
0110
1010
0000
0011
1100
0000
0000
0011
1000
0001
,
0110
0000
0100
1010
0000
0000
0011
0000
0100
1010
0000
0101
,
1010
0000
0011
0110
0000
0101
1100
0000
0000
1010
0000
0000
,
1001
0000
0100
1010
0000
0000
1100
0011
0110
1100
0000
0011
,
1100
0000
0011
0101
0000
0011
1100
0000
0010
1000
0001
1000
,
0110
0000
0010
0101
0000
0000
1100
0000
0001
1010
0000
0110
,
1001
0000
0101
0110
0000
0101
1100
0000
0000
0011
0000
0000
,
1001
0000
0100
0011
0000
0000
1001
0000
0100
0011
0000
1100
,
0011
0000
0110
0101
0000
1100
0011
0000
0000
1100
0001
1000
,
0110
0000
0010
0101
0000
0000
1100
0000
0010
0101
0000
1010
,
0101
0000
1100
0110
0000
1010
0011
0000
0000
0101
0000
0000
,
1001
0000
0010
0101
0000
0000
0011
1100
0110
0011
0000
1100
,
0011
0000
1100
1010
0000
1100
0011
0000
0100
0001
1000
0001
,
0110
0000
0010
1001
0000
0000
1100
0000
0001
0110
0000
1010
,
0101
0000
1001
1010
0000
1001
1100
0000
0000
0011
0000
0000
,
0101
0000
1000
0011
0000
0000
0101
0000
1000
0011
0000
1100
,
0011
0000
1010
1001
0000
1100
0011
0000
0000
1100
0001
0100
,
1010
0000
0010
1001
0000
0000
1100
0000
0010
1001
0000
0110
,
1001
0000
1100
1010
0000
0110
0011
0000
0000
1001
0000
0000
,
0101
0000
0010
1001
0000
0000
0011
1100
1010
0011
0000
1100
,
0011
0000
1100
0110
0000
1100
0011
0000
1000
0001
0100
0001
,
1010
0000
1000
0110
0000
0000
0011
0000
0100
1001
0000
1010
,
0101
0000
0110
1010
0000
0110
0011
0000
0000
1100
0000
0000
,
0101
0000
0010
1100
0000
0000
0101
0000
0010
1100
0000
0011
,
1100
0000
1010
0110
0000
0011
1100
0000
0000
0011
0100
0001
,
1010
0000
1000
0110
0000
0000
0011
0000
1000
0110
0000
1001
,
0110
0000
0011
1010
0000
1001
1100
0000
0000
0110
0000
0000
,
0101
0000
1000
0110
0000
0000
1100
0011
1010
1100
0000
0011
,
1100
0000
0011
1001
0000
0011
1100
0000
0110
1100
0011
0110
,
1001
0000
0000
0000
,
2202
0000
0000
0000
,
3303
0000
0000
0000
,
0000
0000
0000
0000
,
0000
0000
0000
0000
,
0000
0000
0000
0000
,
0000
0000
0000
0000
,
0000
0000
0000
0000
,
0000
0000
0000
0000
,
0000
0000
0000
0000
,
0000
0000
0000
0000
,
0000
0000
0000
0000
,
0000
0000
0000
0000
,
0000
0000
0000
0000
,
0000
0000
0000
0000
,
0000
0000
0000
0000
,
0000
0000
0000
0000
0000
0000
0000
0000
0000
0000
0000
0000
0000
0000
0000
0000
2202
0000
0000
0000
0000
0000
0000
0000
0000
0000
0000
0000
0000
0000
0000
0000
0000
0000
0000
0000
0000
0000
0000
0000
0000
0000
0000
0000
0000
0000
0000
3303
0222
0000
0000
0000
0000
0000
0000
0000
0000
0000
0000
0000
0000
0000
0000
0000
,
0000
0000
0000
0000
0000
0000
0000
0000
0000
0000
0000
0000
0000
0000
0000
0333
2022
0000
0000
0000
0000
0000
0000
0000
0000
0000
0000
0000
0000
0000
0000
0000
0000
0000
0000
0000
0000
0000
0000
0000
0000
0000
0000
0000
0000
0000
0000
0000
3033
0000
0000
0000
0000
0000
0000
0000
0000
0000
0000
0000
0000
0000
0000
0000
,
0000
0000
0000
0000
,
0000
0000
0000
0000
,
0000
0000
0000
0000
,
2002
0000
0000
0000
,
3003
0000
0000
0000
,
0000
0000
0000
0000
,
0000
0000
0000
0000
,
0000
0000
0000
0000
,
0000
0000
0000
0000
,
0000
0000
0000
0000
,
0000
0000
0000
0000
,
1001
0000
0000
0000
0000
0001
1100
0000
0000
0000
0000
1000
,
0110
0000
0010
0101
0000
0010
1100
0000
0010
0101
0000
1000
,
0110
0000
0000
0000
0000
1000
0011
0000
0000
0000
0000
0100
,
0011
0000
1000
0011
0000
1000
0110
0000
1000
0011
1000
0001
,
1100
0000
0000
0000
0000
0010
1100
0000
0000
0000
0000
0100
,
1001
0000
0100
1010
0000
0001
0110
0000
0100
0011
0000
0001
,
1100
0000
0000
0000
0000
0100
1010
0000
0000
0000
0000
0010
,
1001
0000
0001
1100
0000
0010
1100
0000
0001
1010
0100
1000
,
0011
0000
0000
1100
0000
0000
0110
0000
0000
0110
0000
0001
,
1010
0000
0100
1010
0000
0001
1100
0000
0100
1001
0010
1000
,
0101
0000
0000
0110
0000
0000
0011
0000
0000
1100
0000
0001
,
1010
0000
0100
1001
0000
0010
1100
0000
0001
1100
0010
0100
,
1001
0000
0000
1100
0000
0000
0110
0000
0000
1010
0000
0100
,
0011
0000
0001
0110
0000
0100
1010
0000
0001
1010
0100
1000
,
0011
0000
0000
1100
0000
0000
0011
0000
0000
0110
0000
0001
,
1100
0000
0010
1001
0000
0100
1001
0000
0100
1001
0100
0010
,
0101
0000
1100
0110
0011
0101
1010
0000
0100
1010
0000
0001
,
0110
0000
0110
1001
0110
1100
0011
0000
0100
1010
0000
1000
,
0011
0000
1001
0101
0110
1001
0110
0000
0100
0011
0000
0001
,
1100
0000
1100
0110
1010
0101
1010
0000
0010
1100
0000
0001
,
1010
0000
0011
1010
0110
1001
0011
0000
0010
1100
0000
0010
,
0101
0000
1010
1100
0011
1010
0101
0000
1000
0110
0000
1000
,
0001
0010
0100
1000
0100
0010
0001
0010
0001
0100
0010
1000
0100
1000
0010
0100
0010
0001
0100
1000
0010
0100
0010
0001
,
1000
0100
1000
0010
0100
0010
0001
0010
0100
0010
1000
0100
0010
0000
0000
0000
0001
0000
0010
0000
0000
0000
0100
0000
,
1001
0000
0000
1100
0000
0001
1100
0000
0000
0101
0000
1000
,
0110
0000
0010
0101
0000
0010
1100
0000
0010
0101
0000
1000
,
0110
0000
0000
1100
0000
1000
0011
0000
0000
1100
0000
0100
,
0011
0000
1000
0011
0000
1000
0110
0000
1000
0011
1000
0001
,
1100
0000
0000
0011
0000
0010
1100
0000
0000
0011
0000
0100
,
1001
0000
0100
1010
0000
0001
0110
0000
0100
0011
0000
0001
,
1100
0000
0000
0101
0000
0100
1010
0000
0000
1100
0000
0010
,
1001
0000
0001
1100
0000
0010
1100
0000
0001
1010
0100
1000
,
0011
0000
0000
1100
0000
0000
0110
0000
0000
0110
0000
0001
,
1010
0000
0100
1010
0000
0001
1100
0000
0100
1001
0010
1000
,
0101
0000
0000
0110
0000
0000
0011
0000
0000
1100
0000
0001
,
1010
0000
0100
1001
0000
0010
1100
0000
0001
1100
0010
0100
,
1001
0000
0000
1100
0000
0000
0110
0000
0000
1010
0000
0100
,
0011
0000
0001
0110
0000
0100
1010
0000
0001
1010
0100
1000
,
0011
0000
0000
1100
0000
0000
0011
0000
0000
0110
0000
0001
,
1100
0000
0010
1001
0000
0100
1001
0000
0100
1001
0100
0010
,
1100
0000
0000
0101
0000
1000
0101
0000
0000
1001
0000
0100
,
0011
0000
0010
1001
0000
0010
0101
0000
0010
1001
0000
0100
,
0011
0000
0000
0101
0000
0100
1010
0000
0000
0101
0000
0001
,
1010
0000
0100
1010
0000
0100
0011
0000
0100
1010
0100
1000
,
0101
0000
0000
1010
0000
0010
0101
0000
0000
1010
0000
0001
,
1100
0000
0001
0110
0000
1000
0011
0000
0001
1010
0000
1000
,
0101
0000
0000
1001
0000
0001
0110
0000
0000
0101
0000
0010
,
1100
0000
1000
0101
0000
0010
0101
0000
1000
0110
0001
0100
,
2020
3030
0000
0000
0000
0000
0202
0303
0000
0000
0000
0000
0022
0033
0000
0000
0000
0000
0022
0033
0000
0000
1000
0000
,
0220
0330
0000
0000
0001
0000
0220
0330
0000
0000
1000
0000
0202
0303
0000
0000
0001
0000
2200
3300
0010
0000
0100
0000
,
2002
3003
0000
0000
0000
0000
0022
0033
0000
0000
0000
0000
2020
3030
0000
0000
0000
0000
0202
0303
0000
0000
1000
0000
,
0220
0330
0000
0000
0001
0000
2200
3300
0000
0000
0010
0000
0202
0303
0000
0000
1000
0000
0202
0303
0010
0000
0001
0000
,
2200
3300
0000
0000
0000
0000
0202
0303
0000
0000
0000
0000
0022
0033
0000
0000
0000
0000
0220
0330
0000
0000
0001
0000
,
2020
3030
0000
0000
1000
0000
0022
0033
0000
0000
0001
0000
0220
0330
0000
0000
1000
0000
0220
0330
0001
0000
0100
0000
,
2020
3030
0000
0000
0000
0000
0202
0303
0000
0000
0000
0000
2020
3030
0000
0000
0000
0000
0022
0033
0000
0000
1000
0000
,
0202
0303
0000
0000
0010
0000
2200
3300
0000
0000
0001
0000
2200
3300
0000
0000
0001
0000
2200
3300
0001
0000
0010
0000
,
2202
3303
0000
2202
3303
0000
2202
3303
0000
2202
3303
0000
,
0222
0333
0000
0222
0333
0000
2220
3330
0000
2220
3330
0000
,
2202
3303
0000
2202
3303
0000
2202
3303
0000
2202
3303
0000
,
2220
3330
0000
2220
3330
0000
2022
3033
0000
2022
3033
0000
,
2202
3303
0000
2202
3303
0000
2202
3303
0000
2202
3303
0000
,
0222
0333
0000
0222
0333
0000
2220
3330
0000
2220
3330
0000
,
2202
3303
0000
2202
3303
0000
2202
3303
0000
2202
3303
0000
,
2220
3330
0000
2220
3330
0000
2022
3033
0000
2022
3033
0000
,
0101
0000
1100
0110
0011
0101
1010
0000
0100
1010
0000
0001
,
0110
0000
0110
1001
0110
1100
0011
0000
0100
1010
0000
1000
,
0011
0000
1001
0101
0110
1001
0110
0000
0100
0011
0000
0001
,
1100
0000
1100
0110
1010
0101
1010
0000
0010
1100
0000
0001
,
0101
0000
0011
0110
1100
1010
0101
0000
0010
0101
0000
1000
,
0110
0000
0110
1001
0110
0011
1100
0000
0010
0101
0000
0001
,
1100
0000
1001
1010
0110
1001
0110
0000
0010
1100
0000
1000
,
0011
0000
0011
0110
0101
1010
0101
0000
0100
0011
0000
1000
,
0101
0000
1100
0110
0011
0101
1010
0000
0100
1010
0000
0001
,
0110
0000
0110
1001
0110
1100
0011
0000
0100
1010
0000
1000
,
0011
0000
1001
0101
0110
1001
0110
0000
0100
0011
0000
0001
,
1100
0000
1100
0110
1010
0101
1010
0000
0010
1100
0000
0001
,
0101
0000
0011
0110
1100
1010
0101
0000
0010
0101
0000
1000
,
0110
0000
0110
1001
0110
0011
1100
0000
0010
0101
0000
0001
,
1100
0000
1001
1010
0110
1001
0110
0000
0010
1100
0000
1000
,
0011
0000
0011
0110
0101
1010
0101
0000
0100
0011
0000
1000
,
0011
0000
0101
1001
1010
0011
1100
0000
0001
1100
0000
0010
,
1001
0000
1001
0110
1001
0101
1010
0000
0001
1100
0000
0100
,
1010
0000
0110
0011
1001
0110
1001
0000
0001
1010
0000
0010
,
0101
0000
0101
1001
1100
0011
1100
0000
1000
0101
0000
0010
,
0011
0000
1010
1001
0101
1100
0011
0000
1000
0011
0000
0100
,
1001
0000
1001
0110
1001
1010
0101
0000
1000
0011
0000
0010
,
0101
0000
0110
1100
1001
0110
1001
0000
1000
0101
0000
0100
,
2200
3300
0000
0220
0330
0000
0022
0033
0000
0202
0303
0000
,
1001
0000
0100
1010
0000
0000
0011
0000
1000
0101
0000
0110
,
1001
0000
1010
0110
0000
1010
0011
0000
0000
1100
0000
0000
,
1001
0000
0010
1100
0000
0000
1001
0000
0010
1100
0000
0011
,
1100
0000
0110
1010
0000
0011
1100
0000
0000
0011
1000
0001
,
0110
0000
0100
1010
0000
0000
0011
0000
0100
1010
0000
0101
,
1010
0000
0011
0110
0000
0101
1100
0000
0000
1010
0000
0000
,
1001
0000
0100
1010
0000
0000
1100
0011
0110
1100
0000
0011
,
1100
0000
0011
0101
0000
0011
1100
0000
0010
1000
0001
1000
,
0110
0000
0010
0101
0000
0000
1100
0000
0001
1010
0000
0110
,
1001
0000
0101
0110
0000
0101
1100
0000
0000
0011
0000
0000
,
1001
0000
0100
0011
0000
0000
1001
0000
0100
0011
0000
1100
,
0011
0000
0110
0101
0000
1100
0011
0000
0000
1100
0001
1000
,
0110
0000
0010
0101
0000
0000
1100
0000
0010
0101
0000
1010
,
0101
0000
1100
0110
0000
1010
0011
0000
0000
0101
0000
0000
,
1001
0000
0010
0101
0000
0000
0011
1100
0110
0011
0000
1100
,
0011
0000
1100
1010
0000
1100
0011
0000
0100
0001
1000
0001
,
1100
0000
0001
0110
0000
0000
1010
0000
0100
1001
0000
0011
,
1100
0000
0110
0011
0000
0110
1010
0000
0000
0101
0000
0000
,
1100
0000
0010
0101
0000
0000
1100
0000
0010
0101
0000
1010
,
0101
0000
0011
0110
0000
1010
0101
0000
0000
1010
0100
1000
,
0011
0000
0001
0110
0000
0000
1010
0000
0001
0110
0000
1001
,
0110
0000
1010
0011
0000
1001
0101
0000
0000
0110
0000
0000
,
1100
0000
0001
0110
0000
0000
0101
1010
0011
0101
0000
1010
,
0101
0000
1010
1001
0000
1010
0101
0000
0010
0100
1000
0100
,
0011
0000
0010
1001
0000
0000
0101
0000
1000
0110
0000
0011
,
1100
0000
1001
0011
0000
1001
0101
0000
0000
1010
0000
0000
,
1100
0000
0001
1010
0000
0000
1100
0000
0001
1010
0000
0101
,
1010
0000
0011
1001
0000
0101
1010
0000
0000
0101
1000
0100
,
0011
0000
0010
1001
0000
0000
0101
0000
0010
1001
0000
0110
,
1001
0000
0101
0011
0000
0110
1010
0000
0000
1001
0000
0000
,
1100
0000
0010
1001
0000
0000
1010
0101
0011
1010
0000
0101
,
1010
0000
0101
0110
0000
0101
1010
0000
0001
1000
0100
1000
,
0011
0000
0000
0000
,
2202
3303
0000
0000
0000
0000
0000
0000
0000
0000
0000
0000
0000
0000
0000
0000
0000
0000
0000
0000
0000
0000
0000
0000
;
