#TITLE:Victoria`s Secret;
#SUBTITLE:;
#ARTIST:Sonata Arctica;
#TITLETRANSLIT:;
#SUBTITLETRANSLIT:;
#ARTISTTRANSLIT:;
#CREDIT:Magna Trick;
#BANNER:Victoria Secret-bn.png;
#BACKGROUND:Victoria Secret-bg.png;
#LYRICSPATH:;
#CDTITLE:Magnakcd.png;
#MUSIC:Sonata Arctica - Winterheart's Guild - Victoria's Secret.mp3;
#OFFSET:-0.231;
#SAMPLESTART:61.748;
#SAMPLELENGTH:12.000;
#SELECTABLE:YES;
#BPMS:0.000=150.010,672.500=300.009,675.500=75.010;
#STOPS:416.000=0.400
,416.500=0.400
,482.000=0.600
;
#BGCHANGES:;
// cache tags:
#FIRSTBEAT:0.000;
#LASTBEAT:690.500;
#SONGFILENAME:Songs/toune 4/(Mango)Victoris secret/Victoria Secret.sm;
#HASMUSIC:1;
#HASBANNER:1;
#MUSICLENGTH:283.493;
// end cache tags

//---------------dance-single - ----------------
#NOTES:
     dance-single:
     :
     Challenge:
     11:
     1.000,1.000,0.811,0.046,0.854,1781.000,230.000,13.000,0.000,0.000:
1001
1000
0101
1000
0101
0100
0101
0001
,
0110
0000
0100
0000
0110
0000
1000
0000
0110
0000
0010
0000
0110
0000
0100
0010
,
0001
0001
0110
0100
0110
0100
0110
1000
,
0110
0010
1000
0001
1001
0001
0011
0010
,
0110
0100
0101
1000
0110
0010
0110
0100
,
1001
0000
0001
0000
0011
0000
1000
0000
0110
0000
0100
0000
0011
0000
0010
0100
,
0001
0001
0110
0001
0101
1000
0110
0100
,
0010
0001
1000
0010
1000
0001
0010
0100
0010
0001
1000
0010
0100
0001
1000
0100
,
0001
0001
0001
0100
0110
0010
0011
1000
,
0101
0000
0100
0000
1010
0000
0010
0000
1001
0000
0001
0000
0011
0000
0001
0100
,
0011
0100
1001
0010
1010
0010
1001
0001
,
1001
0001
0011
0100
0011
0100
0110
1000
,
1010
0010
0011
1000
1001
0001
0011
0010
,
1001
0000
0001
0000
0101
0000
0100
0000
0011
0000
0010
0000
0011
0000
1000
0100
,
0001
0001
0011
0100
0110
0100
0011
0010
,
0101
0000
0010
0000
0010
0000
0100
0000
0001
1000
0100
1000
0001
0010
0100
0010
,
0001
0100
1000
0001
1001
0001
0010
0100
,
0011
0100
1000
0010
1010
0010
1000
0001
,
1001
0010
0101
1000
1001
0001
0100
0010
,
0011
1000
0001
0010
0110
0100
0101
1000
,
0010
0010
0101
0001
1001
0001
1000
0100
,
0101
0100
0110
0001
0001
0001
1010
0100
,
0101
1000
0011
0100
0100
1000
0101
0001
,
1001
0001
1000
0100
0110
0001
0011
0100
,
0101
0001
0100
0001
1001
1000
0101
0100
,
0110
0100
1010
0001
0001
0100
1001
0001
,
0100
0010
1001
0010
0110
1000
0101
0100
,
0010
0100
0110
0001
1001
0100
0001
0001
,
0101
0010
1000
0010
0011
1000
0010
0010
,
1001
0100
1100
0100
0110
1000
0101
0100
,
1010
0100
0011
0010
0110
0010
1010
0010
,
0001
0100
1001
0001
0110
0001
1001
1000
,
0010
1000
0001
0010
0100
0010
0001
1000
0010
0100
0001
0100
0001
0010
0001
1000
,
0001
1000
0100
0010
0001
0100
0001
0010
0001
1000
0010
1000
0001
0010
0001
0100
,
0001
1000
0010
1000
0001
0100
0001
1000
0100
1000
0001
0010
0100
0010
0001
1000
,
0001
0100
0001
0100
0010
1000
0001
0010
0001
0010
0001
1000
0010
0100
0001
1000
,
0001
1000
0001
0010
0001
0010
0100
1000
0010
1000
0001
0100
0001
0100
0001
1000
,
0010
1000
0001
0010
0100
0010
0001
1000
0001
0100
0001
1000
0100
1000
0001
0010
,
0100
0010
0001
1000
0010
0100
0001
1000
0010
1000
0001
1000
0100
0001
0100
1000
,
0001
0010
0001
0010
0100
0010
0001
0010
0001
1000
0010
0100
0001
0010
0100
1000
,
0010
1000
0110
0100
0011
0010
0101
0001
,
0001
0000
0100
0000
0011
0000
0010
0000
1010
0000
1000
0000
1001
0000
0001
0100
,
0001
0100
0110
0100
1100
1000
0011
0010
,
1010
1000
0011
0010
0010
0100
0110
1000
,
0010
0010
0011
0010
0001
0001
0011
0010
,
0110
0000
0100
0000
1100
0000
1000
0000
1010
0000
0010
0000
0010
0000
0100
0010
,
1000
0001
1000
0100
1001
0001
1001
0100
,
0110
0000
0100
0000
1001
0000
1000
0000
0100
0010
0001
0010
0100
1000
0010
0100
,
0001
0001
1001
0100
0110
0010
0110
1000
,
0100
0000
0100
0000
0011
0000
0010
0000
0011
0000
0001
0000
0011
0000
1000
0100
,
1001
0001
0101
0010
0011
0001
1001
1000
,
0110
0010
1001
0100
0101
0100
0011
0010
,
1001
0001
1001
0100
0011
0010
1010
0100
,
0011
0000
0010
0000
1010
0000
1000
0000
0110
0000
0010
0000
1010
0000
1000
0001
,
0100
0100
0011
0100
0011
0010
1001
0001
,
1001
0000
0100
0000
0011
0000
0010
0000
0100
1000
0100
0010
0001
1000
0010
0100
,
0001
1000
0100
0100
0101
0010
0110
0100
,
1010
0001
1010
0001
1001
0010
1001
0001
,
0101
0010
0101
0010
0011
0100
0011
0010
,
1001
0010
1001
0010
1001
0010
0011
1000
,
1001
1000
1001
0001
1001
1000
1001
0001
,
1010
0100
1010
0010
1100
0010
1010
0010
,
1001
0100
1001
0001
1100
0001
1001
0001
,
1001
0100
1001
0100
0101
1000
0101
0001
,
1001
0001
1000
0010
0100
0001
1000
0100
0010
0001
0010
0100
1000
0010
1000
0001
,
0100
0001
1000
0100
1000
0001
0010
0100
0010
0001
1000
0010
0100
0001
1000
0100
,
1000
0001
0010
0100
0010
0001
1000
0010
0100
0001
1000
0100
1000
0001
0010
1000
,
0010
0001
1000
0010
0100
0001
1000
0010
1000
0001
0010
0100
0010
0001
1000
0010
,
0100
0001
1000
0100
1000
0001
0010
0001
0100
0010
1000
0010
1000
0100
0010
0001
,
0100
0010
0001
1000
0100
0010
0001
0010
0100
1000
0010
0100
0001
1000
0100
0010
,
0001
0010
0100
1000
0010
1000
0100
0010
0001
0100
0010
0100
0001
0100
0010
1000
,
0001
1000
0100
0010
0001
0010
0100
1000
0010
0100
0001
0000
0001
0000
0001
1000
,
0010
1000
0001
0010
0100
0010
0001
1000
0010
0100
0001
0100
0001
0010
0001
1000
,
0001
1000
0100
0010
0001
0100
0001
0010
0001
1000
0010
1000
0001
0010
0001
0100
,
0001
1000
0010
1000
0001
0100
0001
1000
0100
1000
0001
0010
0100
0010
0001
1000
,
0001
0100
0001
0100
0010
1000
0001
0010
0001
0010
0001
1000
0010
0100
0001
1000
,
0001
1000
0001
0010
0001
0010
0100
1000
0010
1000
0001
0100
0001
0100
0001
1000
,
0010
1000
0001
0010
0100
0010
0001
1000
0001
0100
0001
1000
0100
1000
0001
0010
,
0100
0010
0001
1000
0010
0100
0001
1000
0010
1000
0001
1000
0001
1000
0001
1000
,
0001
0010
0001
0010
0100
0010
0001
0010
0001
1000
0010
0100
0001
0010
0100
1000
,
0010
1000
0101
0100
0011
0010
0101
0001
,
0101
0000
0100
0000
1010
0000
0010
0000
1010
0000
1000
0000
1001
0000
0001
0100
,
0001
1000
0110
0100
0011
0010
0101
0001
,
1001
0100
0011
1000
1010
0010
0011
1000
,
1100
0100
0011
0010
1001
0001
1001
1000
,
1001
0000
0001
0000
1001
0000
0100
0000
1001
0000
0001
0000
0101
0000
0100
0010
,
0100
0100
1010
0001
0011
0100
0101
1000
,
1010
0000
0010
0000
0100
0000
1000
0000
0100
0010
0001
0100
0010
1000
0001
0100
,
0001
0010
0011
1000
0011
0010
1010
0100
,
0110
0000
1000
0000
1010
0000
0010
0000
1010
0000
0100
0000
1001
0000
1000
0010
,
0100
0100
1001
0001
1001
0010
0011
0100
,
0110
1000
1001
0100
1001
0001
0011
0010
,
0110
0100
0101
1000
1001
0001
1001
0100
,
0110
0000
1000
0000
0101
0000
0100
0000
1100
0000
1000
0000
0011
0000
0010
0100
,
0010
0001
1000
0100
1001
0001
0011
0001
,
0101
0100
0011
0010
1010
1000
0011
0000
,
0001
0000
0000
0100
0000
0000
0010
0000
0001
0000
1000
0000
0200
0000
0000
0000
0000
0000
0000
0000
0000
0000
0000
0000
0000
0000
0000
0000
0000
0000
0000
0000
0000
0000
0000
0000
0300
0000
0000
0000
0000
0000
0000
0000
0000
0000
0000
0000
,
0010
0000
0000
0001
0000
0000
0010
0000
0100
0000
1000
0000
0001
0000
0000
0000
0000
0000
0000
0000
0000
0000
0000
0000
0010
0000
0000
1000
0000
0000
0010
0000
0100
0000
0001
0000
1000
0000
0000
0000
0000
0000
0000
0000
0000
0000
0000
0000
,
0001
0000
0000
1000
0000
0000
0100
0000
0010
0000
0001
0000
2000
0000
0000
0000
0000
0000
0000
0000
0000
0000
0000
0000
3000
0000
0000
0000
0000
0000
0000
0000
0000
0000
0000
0000
1000
0000
0000
0000
0000
0000
0000
0000
0000
0000
0000
0000
,
0010
0000
0000
1000
0000
0000
0001
0000
0010
0000
0100
0000
1000
0000
0000
0000
0000
0000
0000
0000
0000
0000
0000
0000
1100
0000
0000
0000
0000
0000
0100
0000
0000
0000
0000
0000
0010
0000
0000
0000
0000
0000
1001
0000
0000
0000
0000
0000
,
0001
0000
0000
0010
0000
0000
0100
0000
1000
0000
0100
0000
0020
0000
0000
0000
0000
0000
0000
0000
0000
0000
0000
0000
0000
0000
0000
0000
0000
0000
0000
0000
0000
0000
0000
0000
0030
0000
0000
0000
0000
0000
0000
0000
0000
0000
0000
0000
,
0010
0000
0000
1000
0000
0000
0001
0000
0100
0000
0010
0000
1000
0000
0000
0000
0000
0000
0000
0000
0000
0000
0000
0000
0001
0000
0000
0010
0000
0000
0100
0000
1000
0000
0100
0000
0010
0000
0000
0000
0000
0000
0000
0000
0000
0000
0000
0000
,
0001
0000
0000
0010
0000
0000
1000
0000
0001
0000
0100
0000
0020
0000
0000
0000
0000
0000
0000
0000
0000
0000
0000
0000
0000
0000
0000
0000
0000
0000
0000
0000
0000
0000
0000
0000
0030
0000
0000
0000
0000
0000
0000
0000
0000
0000
0000
0000
,
0001
0000
0000
1000
0000
0000
0100
0000
0010
0000
0001
0000
2000
0000
0000
0000
0000
0000
0000
0000
0000
0000
0000
0000
3000
0000
0000
0000
0000
0000
0100
0000
0000
0000
0000
0000
0001
0000
0000
0000
0000
0000
0001
0000
0000
0000
0000
0000
,
0001
0000
0010
0000
0100
0000
0000
0000
0001
0010
0001
1000
0001
0010
0001
1000
,
0001
0100
0001
0010
0001
1000
0001
1000
0000
0010
1000
0001
1000
0100
1000
0001
,
0010
0100
0010
0001
1000
0010
0100
0001
1000
0010
1000
0001
1000
0100
1000
0001
,
1000
0010
1000
0001
1000
0100
1000
0001
0000
0001
0010
0001
1000
0010
0100
0001
,
1000
0100
1000
0001
0010
0100
0010
0001
1000
0010
1000
0001
1000
0100
1000
0001
,
1000
0010
1000
0001
1000
0100
1000
0001
0000
0001
0010
0100
0010
0000
0001
0000
,
1000
0000
0010
0000
0100
0001
1000
0100
0000
0100
0010
0001
0010
0000
0100
0000
,
1000
0000
0010
0000
0100
1000
0100
0001
0000
0001
0010
0100
1000
0000
0010
0000
,
1000
0000
0001
0000
1000
0100
0010
0001
0010
0100
1000
0010
0100
0001
0100
0010
,
0100
0001
0100
0010
1000
0001
1000
0100
0000
0100
0010
0001
0010
0100
1000
0010
,
0100
0001
1000
0010
1000
0100
1000
0010
1000
0010
0100
0010
1000
0010
0100
0010
,
1000
0010
0100
0010
1000
0010
0100
0010
0000
0010
1000
0100
1000
0001
0010
0100
,
0010
0001
1000
0010
0100
0001
1000
0100
0010
0001
0010
0100
0010
0001
0010
0100
,
0010
0001
0010
0100
0010
0001
1000
0010
0000
0010
1000
0001
1000
0000
0100
0000
,
0010
0000
0001
0000
0010
0100
1000
0010
0000
0010
0100
1000
0100
0000
0001
0000
,
0010
0000
0100
0000
1000
0010
0100
0001
0000
0001
1000
0100
1000
0000
0001
0000
,
0010
0000
0100
0000
0010
0001
1000
0010
0001
0000
1000
0001
1000
0100
0010
0001
,
0010
0100
2000
0000
0000
0000
0000
0000
0000
0000
0000
0000
3000
0100
0001
0000
,
0010
0000
0100
0000
0010
0001
0010
0000
0100
0000
1000
0000
0010
1000
0001
0100
,
0001
1000
0100
0010
0001
0100
0010
1000
0001
0010
0100
0010
0100
1000
0100
0010
0001
0010
0100
1000
0001
0010
0100
0010
,
0100
0000
0010
0000
0001
0000
2000
0000
0000
0000
0000
0000
3000
0000
0000
2000
0000
0000
0000
0000
0000
3000
0000
0000
0000
0000
0000
2000
0000
0000
3000
0000
0000
0000
0000
0000
2000
0000
0000
3000
0000
0000
0000
0000
0000
0020
0000
0000
,
0030
0002
0003
0000
0000
0000
0001
0010
0100
0010
0001
1000
0010
0100
0001
1000
,
0010
1000
0100
0010
0001
0010
0100
1000
0010
0100
0001
0010
0100
1000
0010
0100
,
0001
1000
0010
1000
0001
1000
0100
0010
0001
0010
0100
1000
0001
0100
0001
1000
,
0100
0010
0001
0000
1000
0000
0100
0000
1000
0000
0001
0000
0000
0001
0000
0000
,
0010
0000
0100
0000
0010
0000
1000
0000
0001
0100
0001
1000
0100
0010
0001
0000
,
1000
0000
0100
1000
0001
0100
0010
1000
0001
0010
0100
0010
0001
1000
0010
0100
,
0001
1000
0100
0000
0010
0000
0001
0000
1000
0000
0010
0000
0100
0000
1000
0000
,
0010
0000
0001
0000
0000
0010
0000
0000
0010
0000
0001
0000
0000
0001
0000
0000
,
0010
0000
0100
0000
0000
0010
0000
0000
0001
0000
0001
0000
1000
0000
0100
0000
,
1000
0000
0001
0100
0001
0010
0100
1000
0010
0100
0001
1000
0010
1000
0100
0010
,
0001
0100
0001
0010
0001
1000
0010
0100
0001
1000
0100
1000
0001
0010
0100
0010
,
0001
1000
0010
0000
0100
0000
0001
0000
0001
0000
0001
0000
0010
0000
0010
0000
,
0100
0100
1000
0001
0001
0001
0100
0010
,
0010
1000
0010
0000
0010
0000
0010
0000
1000
0000
0100
0000
0100
0000
0010
0000
,
0010
0001
0001
0100
0001
0001
0100
0010
,
0010
0010
1000
0001
0001
0001
1000
0001
,
0001
0001
0010
0010
0100
0100
1000
0001
,
0001
1000
0010
0000
0010
0000
0010
0000
1000
0000
0100
0000
0100
0000
0010
0000
,
0010
0000
0001
0000
0001
0000
0100
0000
0010
0000
1000
0001
1000
0100
0010
0001
,
0010
0100
0001
0000
1000
0000
0100
0000
0100
0000
0010
0000
0010
0000
0001
0000
,
0001
0001
0010
0010
0100
0010
0010
0010
,
0100
0001
0010
0000
0010
0000
0001
0000
0001
0000
0001
0000
0100
0000
0010
0000
,
1000
0001
0100
0000
0001
0000
0010
0000
0100
0000
0001
0000
0100
0000
1000
0000
,
0010
0001
0001
0001
1000
0100
0100
0010
,
0001
0001
1000
0100
0100
0010
0010
0001
,
0001
0001
0100
0010
1000
0001
0001
0001
,
0010
0000
0010
0000
0100
0000
0100
0000
1000
0000
0100
0010
0001
1000
0010
0100
,
0001
1000
0010
0000
0010
0000
0001
0000
0001
0000
0001
0000
0100
0000
0010
0000
,
0010
0010
1000
0001
0001
0001
0010
0010
,
0100
0100
0100
0001
0001
0001
0001
0100
,
0010
0001
0100
0010
0001
0010
0100
0001
,
0001
0001
0100
0010
0010
0010
1000
0001
,
0001
0001
0010
0010
0100
0001
0001
0001
,
1000
0010
0001
0010
0001
0001
0010
0010
,
0100
0000
0100
0000
1000
0000
0010
0000
0100
0000
0001
1000
0100
0010
0001
1000
,
0010
0100
0001
0000
1000
0000
0100
0000
0100
0000
0010
0000
0010
0000
0010
0000
,
0100
0100
1000
0010
0010
0010
0100
0001
,
0001
0001
0100
0010
0010
0010
1000
0001
,
0001
0001
0010
0100
1000
0001
0001
0001
,
0100
0010
0010
0010
1000
0001
0001
0010
,
0010
0100
0010
0001
0001
0001
0010
0010
,
0100
0001
0001
0100
0010
0010
1000
0001
,
0001
0000
0001
1000
0100
1000
0001
0100
0001
0010
0100
0010
0001
1000
0010
0100
,
0001
1000
0200
0000
0000
0000
0000
0000
0000
0000
0000
0000
0000
0000
0300
0001
,
0000
0000
1000
0100
0000
1000
0000
0001
0000
0000
0000
0001
0000
0000
0000
0001
,
0000
0000
0001
0010
0000
0100
0000
0100
0000
0000
0000
0001
0000
0000
0000
0001
,
0000
0000
0001
0100
0000
0010
0000
0010
0000
0000
0000
0001
0000
0000
1000
0100
,
0100
0000
0100
0100
0001
0000
0001
0000
0010
0000
0010
0000
0000
0000
0000
0000
;

//---------------dance-single - ----------------
#NOTES:
     dance-single:
     :
     Hard:
     11:
     0.935,1.000,0.462,0.063,1.000,1706.000,131.000,18.000,0.000,0.000:
0000
1100
0100
0110
0100
0110
0110
0001
,
0000
0101
0001
1001
0001
0101
0001
0011
,
0101
0001
1100
0100
0010
0001
0001
0101
,
0001
1001
0001
0110
0100
1100
0100
0110
,
0100
0000
0110
0100
0011
0001
0101
0001
,
1001
0001
0011
0100
1100
0100
0110
0100
,
0110
0100
0110
0001
0011
0001
0101
0001
,
1001
0001
0011
0100
1100
0100
0110
0000
,
1001
0110
0011
0110
,
0011
0011
0110
1100
,
1100
1100
1100
1100
,
2200
0000
3000
0300
0100
0000
0000
0000
,
1001
0001
0101
0001
0011
0001
0011
0011
,
0011
0110
0100
0100
1100
0100
0110
0100
,
0101
0001
0101
0001
1100
0100
0110
0100
,
0110
0100
0101
0001
1001
0001
0101
0001
,
0110
0100
1100
0000
0100
0000
1100
0100
,
0110
0100
0011
0001
0001
0000
0000
0000
,
0011
0100
0100
1100
0100
0000
0000
0000
,
1100
1100
0100
0100
0110
0000
0000
0000
,
0011
0001
0100
0100
1100
0000
0000
0000
,
1100
0100
0100
0100
0010
0000
0000
0000
,
0101
0001
0001
0001
1001
0000
0000
0000
,
1001
0001
0001
0001
0110
0000
0000
0000
,
1100
0100
0100
0100
0100
0011
0000
0000
,
1001
0001
0001
0001
0101
0000
0000
0000
,
1001
0001
0100
0100
0110
0000
0000
0000
,
1100
0100
0100
0010
0001
0000
0101
0000
,
0100
0100
1000
0000
0110
0000
0100
0100
,
1000
1100
0100
0010
,
0101
0000
0001
0000
1100
0000
0001
0010
,
0100
1000
0100
0010
0001
0100
0010
1000
,
0001
0000
0010
0000
0001
0000
1000
0100
,
0010
0000
0001
0000
0200
0000
0000
0301
,
0000
0000
0000
0000
0000
1000
0000
0100
,
0010
0000
0001
0100
0010
0000
0000
2000
,
0000
0000
0000
0000
0000
3001
0010
0000
,
0100
1000
0000
0000
0002
0000
0003
0000
,
0100
0000
0000
0000
0000
0010
0000
1000
,
0001
0000
0010
0100
0001
0000
0000
0000
,
0100
0100
0000
0100
0010
0100
0000
1000
0000
0001
0010
0100
1000
0000
0001
0010
,
0100
1000
0000
0001
0010
0100
0010
0000
0001
0100
0010
1000
0001
0000
0010
0100
,
1000
0000
0001
0010
0100
0010
0001
1000
0000
0100
0010
0001
0100
0010
0000
1000
,
0001
0010
0100
0000
1000
0001
0010
0000
0100
1000
0001
0010
0000
0100
1000
0001
,
0000
0010
0100
1000
0000
0001
0010
0010
0000
0100
0001
1000
0010
0000
1000
0001
,
0000
0010
0100
1000
0001
0000
0010
0100
1000
0000
0001
0010
0000
0100
1000
0001
,
0010
0000
0100
1000
0001
0000
0100
0010
1000
0001
0000
0010
0100
1000
0000
0001
,
0010
0100
1000
0000
0001
0010
0100
1000
0000
0001
0010
0100
0000
0010
0001
0010
,
0100
1000
0001
0000
0010
0100
0000
0010
0001
0010
0100
0000
1000
0001
0100
0010
,
0000
1000
0001
0010
0000
0100
1000
0001
0000
0010
0100
0010
0001
1000
0000
0100
,
0010
0001
0100
0010
0000
1000
0001
0010
0100
0000
1000
0001
0100
0010
0000
1000
,
0001
0010
0000
0100
1000
0001
0010
0000
0100
0010
0001
1000
0000
0100
0010
0001
,
0000
0100
0010
1000
0001
0000
0010
0100
0000
1000
0001
0100
0010
0000
1000
0001
,
0000
0010
0100
1000
0000
0001
0010
0100
0000
1000
0001
0010
0100
0000
0010
0001
,
0010
0100
1000
0000
0001
0010
0000
0100
1000
0001
0000
0100
0001
1000
0100
0000
,
0010
0001
1000
0001
1000
0000
0100
0001
0000
0010
0100
0000
0001
0000
0000
0000
,
1001
0000
0000
0000
0000
0000
0000
0000
0000
0000
0000
0000
0000
0000
0000
0001
0000
0000
0000
0000
0000
0000
1000
0000
0000
0000
0000
0000
0000
0000
0100
0000
0000
0000
0010
0000
0000
0000
0000
0000
0001
0000
0000
0000
0000
0000
0000
0000
,
0100
0000
0000
0000
0010
0000
0000
1000
0000
0000
0001
0000
0000
0010
0000
0000
0100
0000
0000
1000
0000
0000
0001
0000
,
0000
0100
0000
0000
0010
0000
0000
0010
0000
0000
0001
0000
0100
0000
0000
0010
0000
1000
0000
0000
0000
0001
0000
0010
,
0000
0000
0000
0100
0000
0000
1000
0000
0000
0001
0000
0000
0010
0000
0000
0100
0000
0000
1000
0000
0000
0001
0000
0100
,
0000
0000
0010
0000
0000
1000
0000
0000
0001
0000
0000
0010
0000
0000
0000
0100
0000
0010
0000
0000
0000
0001
0000
0100
,
0000
0000
0010
0000
0000
1000
0000
0000
0000
0001
0000
0010
0000
0000
0000
0100
0000
0000
1000
0000
0000
0001
0000
0000
,
0100
0010
1000
0001
0010
0100
1000
0001
,
0010
0000
0001
0010
0100
0100
0001
1000
,
0100
0000
0000
0010
0000
0000
0001
0000
0100
0000
0000
0010
0000
0000
1000
0000
0000
0000
0001
0000
0010
0000
0000
0000
,
0100
0000
0000
0000
1000
0000
0000
0000
0000
0001
0000
0000
0100
0000
0000
0010
0000
0000
1000
1000
0000
0001
0000
0000
,
0010
0100
1000
0001
0010
0100
1000
0001
,
0100
0000
0000
0010
0000
0000
1000
0000
0000
0001
0000
0010
0000
0000
0000
0100
0000
1000
0000
0000
0000
0001
0000
0100
,
0000
0000
0010
0000
0000
1000
0000
0000
0001
0000
0000
0010
0000
0000
0100
0000
0000
1000
0000
0000
0000
0001
0000
0000
,
0100
0010
1000
0001
0010
0100
1000
0001
,
0010
0000
0000
0100
0000
0000
1000
0000
0000
0001
0000
0000
0100
0000
0000
0010
0000
0000
1000
0000
0000
0001
0000
0010
,
0000
0000
0100
0000
0000
0010
0000
0000
0000
0100
0000
0010
0000
0000
0100
0000
0000
1000
0000
0000
0100
0000
0000
0000
,
1000
0000
0000
0100
0000
0000
1000
0000
0000
0000
0010
0000
0000
0100
0000
0000
0000
0000
0001
0000
0000
0000
0000
0000
,
0000
0000
0000
0000
0000
0000
0000
0000
0000
0000
0000
0000
1000
0000
0000
0000
0000
0000
0000
0000
0000
0000
0200
0000
0000
0000
0000
0000
0000
0000
0000
0000
0000
0000
0300
0000
0000
0000
0000
0000
0000
0000
1000
0000
0000
0100
0000
0000
,
0000
0000
0000
0000
0000
0000
0000
0000
0000
0001
0000
0000
0000
0000
0100
0000
,
0010
0000
1000
0000
0001
0000
0010
0000
0000
0100
0000
0000
0000
0000
0000
0000
,
1000
0000
0000
0100
0000
0000
0000
0000
0000
0020
0000
0000
0000
0000
0032
0000
,
0200
0003
0000
0000
0020
0000
0300
0000
0000
0000
0000
0000
0000
0000
0030
2000
,
0000
0000
0000
0000
0000
0000
0000
0000
0000
0000
0002
0000
0000
3000
0000
0203
,
0000
0000
0000
0320
0000
0000
2000
0030
0000
3001
0000
0000
0000
0000
0000
0000
,
1000
0100
0000
0010
0000
0001
0000
0100
0000
0000
0000
0000
0000
1010
0000
0000
0000
0000
0000
0001
0000
0000
0000
1000
,
0000
0100
0010
0000
0001
0000
1000
0100
0000
0010
0001
0000
0010
0100
0000
1000
0001
0000
0100
0010
0000
1000
0000
0001
,
0000
0010
0000
0100
1000
0000
0001
0000
0010
0000
0100
0010
0000
0001
1000
0000
0100
0000
0010
0001
0000
0100
0000
0010
,
0000
1000
0000
0001
0010
0000
0100
0000
1000
0000
0001
0010
0000
0100
0000
1000
0001
0000
0000
0100
0000
0010
1000
0000
,
0001
0000
0010
0000
0100
0000
1000
0000
0001
0000
0010
0000
0100
0010
0000
0001
0010
0000
0100
0000
1000
0000
0001
0000
,
0010
0000
0100
0000
1000
0001
0000
0100
0000
0010
0000
1000
0000
0001
0000
0010
0000
0100
0000
1000
0000
0001
0010
0000
,
0100
0000
1000
0000
0001
0000
0010
0100
0000
0010
0000
0001
0000
0100
0000
0010
0000
1000
0001
0000
0010
0000
0100
0000
,
1000
0000
0001
0000
0010
0000
0100
0000
0010
0001
0000
1000
0000
0100
0000
0010
0000
0100
0000
0010
0100
0000
0000
0010
,
0100
0000
0000
0010
1000
0000
0010
0000
1000
0000
0010
0000
0000
0000
0000
1010
0000
0010
0000
1000
0000
0010
1000
0000
,
0010
0100
0000
0010
1000
0000
0010
0000
0000
0100
0000
0000
0010
1000
0000
0010
0100
0000
0010
0000
1000
0000
0010
0100
,
0000
0010
1000
0000
1000
0000
0001
0000
1000
0100
0000
0010
0000
0001
0000
0010
0100
0000
0010
0001
0000
0000
0010
0100
,
0000
0010
0001
0000
0010
0000
0100
0000
0010
0100
0000
1000
0000
0100
0010
0000
0000
0100
1000
0000
0000
0010
0000
1000
,
0100
0000
0000
1000
0010
0000
1000
0000
0100
0000
0000
0000
0000
0000
0000
0000
1000
0000
0100
1000
0000
0010
0000
1000
,
0100
0000
1000
0000
0010
0000
1000
0100
0000
1000
0000
0001
0000
0010
0000
0100
0000
1000
0000
0100
0000
1000
0000
0100
,
0000
1000
0000
0001
0000
0010
0000
0100
0000
1000
0000
0001
0000
0010
0000
0100
1000
0000
0001
0000
0000
0010
0000
0100
,
0000
1000
0000
0001
0000
0010
0000
0100
0000
1000
0000
0001
0010
0000
0100
0000
0010
0000
0001
0000
0000
0000
0000
0000
,
1000
0100
0000
0100
0000
0000
0000
0000
0000
0000
0000
0000
,
1000
0100
0100
0001
0000
0000
0000
0000
0000
0000
0000
0000
0100
0001
0100
0000
0200
0000
0000
0000
0000
0300
0000
0010
,
0100
0010
0000
0100
0000
0000
0000
0000
0000
0000
0000
0000
0000
0000
0000
0000
0000
0000
0000
0000
0000
0000
0000
1000
,
0000
0100
0010
0001
0000
0000
0000
0000
0000
0000
0000
0000
0000
0100
0010
0000
0000
0000
0000
0000
0000
0000
0000
0000
,
0000
1000
0000
0000
0000
0000
0000
0000
0000
0000
0000
0000
0000
0000
0000
0000
0000
0000
0000
0000
0000
0000
0010
0000
,
0001
0010
0100
0000
0000
0000
0000
0000
0000
0000
0000
0000
1000
0001
0100
0000
0010
0000
0000
0000
0000
0000
0000
0000
,
1000
0001
0000
0010
0100
0000
0000
0000
0000
0000
0000
0000
0000
0000
0000
0000
0000
0000
0000
0000
0000
0000
0000
0000
,
1000
0000
0100
0010
0001
0000
0000
0000
0000
0000
0000
0000
0000
0000
0000
0000
0000
0000
0100
0010
0000
1000
0001
0000
,
0000
0000
0000
0000
0000
0000
1001
0000
0000
0000
0000
0000
1001
0000
0000
0000
0000
0000
0000
0000
0000
0000
0000
0000
0000
0000
0000
0000
0110
0000
0000
0000
0000
0000
0000
0000
0000
1000
0000
0000
0100
0000
0010
0000
0001
0000
0000
1000
,
0000
0100
0000
0000
0010
0000
0000
0001
0000
0010
0000
0000
0100
0000
1000
0000
0000
0001
0000
0000
0010
0000
0000
0100
0000
0000
0010
0000
0000
0001
0000
1000
0000
0000
0100
0000
0000
0010
0000
0000
0001
0000
0000
0010
0000
0100
0000
0000
,
1000
0000
0001
0000
0000
0000
0100
0000
0010
0000
0000
0100
0000
0000
0001
0000
0000
0000
1000
0000
0000
0100
0000
0000
0010
0000
0000
0001
0000
0010
0000
0000
0100
0000
0000
0010
0000
0000
0001
0000
0000
1000
0000
0000
0100
0000
0000
0010
,
0000
0001
0000
0000
0010
0000
0000
0100
0000
0000
0010
0000
0000
0001
0000
0000
0000
0000
0100
1000
0000
0000
0000
0000
0010
0000
0001
0000
0000
0010
0000
0000
0100
0000
0000
1000
0000
0001
0000
0000
0000
0010
0000
0100
0000
0000
0010
0000
,
0000
0001
0000
0000
0100
0000
0000
0010
0000
0000
1000
0000
0000
0001
0000
0000
1010
0000
0000
0100
0000
0010
0000
0000
0000
0001
0000
0000
0010
0000
0000
0100
0000
0000
1000
0000
0000
0001
0000
0000
0010
0000
0000
0100
0000
0000
0010
0000
,
0000
0001
0000
0000
1000
0000
0000
0100
0000
0000
0000
0010
0000
0000
0001
0000
0000
0010
0000
0000
0100
0000
1000
0000
0000
0000
0001
0000
0000
0010
0000
0100
0000
0000
0010
0000
0000
0001
0000
0100
0000
0000
0000
0010
0000
0100
0000
0000
,
0000
0001
0000
0000
1000
0000
0000
0100
0000
0010
0000
0000
0000
0001
0000
1000
0000
0000
0100
0000
0000
0010
0000
0000
0001
0000
0010
0000
0000
0100
0000
0000
1000
0000
0000
0001
0000
0000
0010
0000
0000
0100
0000
0010
0000
0000
0001
0000
,
0000
1000
0000
0000
0100
0000
0010
0000
0000
0000
0001
0000
0010
0000
0000
0000
0010
0000
0000
0100
0000
0000
0000
0001
0000
0000
1000
0000
0000
0100
0000
0000
0000
0010
0000
0001
0000
0000
1000
0000
0000
0100
0000
0000
0000
0010
0000
0000
,
0001
0000
0010
0000
0000
0100
0000
0000
0010
0000
0001
0000
0000
1000
0000
0000
0100
0000
0010
0000
0000
0001
0000
0000
0010
0000
0000
0100
0000
0000
0010
0000
0001
0000
0000
1000
0000
0000
0100
0000
0000
0000
0010
0000
0001
0000
0000
0000
,
0100
0000
0000
0010
0000
0000
0000
0000
0000
0000
0001
0000
0000
0010
0000
0000
0001
0000
0000
0010
0000
0001
0000
0000
0010
0000
0000
0100
0000
0000
1000
0000
0001
0000
0000
0010
0000
0000
0000
0101
0000
1000
0000
0000
0001
0000
0000
0000
,
0010
0000
0100
0000
0000
0010
0000
0000
0001
0000
0000
1000
0000
0000
0100
0000
0000
0010
0000
0000
0001
0000
0010
0000
0000
0100
0000
0000
0010
0000
0000
0001
0000
0000
1000
0000
0000
0100
0000
0000
0010
0000
0000
0001
0000
0000
0000
0100
,
0000
0010
0000
0000
0000
1000
0000
0000
0000
0001
0000
0000
0010
0000
0100
0000
0000
0010
0000
0000
0100
0000
0000
1000
0000
0000
0100
0000
0000
0000
0010
0000
0000
0100
0000
0000
0010
0000
0000
0001
0000
0000
0010
0000
0000
0100
0000
0000
,
1000
0000
0000
0100
0000
0000
0000
0010
0000
0000
0001
0000
0010
0000
0000
0100
0000
0000
0010
0000
0000
0000
0001
0000
1000
0000
0000
0100
0000
0000
0000
0010
0000
0000
0001
0000
0000
0010
0000
0000
0100
0000
0000
1000
0000
0000
0001
0000
,
0000
0010
0000
0000
0100
0000
0000
1000
0000
0000
0001
0000
0000
0000
0010
0000
0100
0000
0000
0000
1000
0000
0001
0000
0000
0000
0010
0000
0000
0100
0000
0000
0010
0000
0000
0001
0000
0000
0010
0000
0000
0100
0000
0000
0010
0000
0000
0001
,
0000
0000
0010
0000
0000
0100
0000
0010
0000
0000
0000
0001
0000
0000
1000
0000
0000
0100
0000
0000
0000
0010
0000
0001
0000
0000
0000
0010
0000
0100
0000
0000
0000
0010
0000
0000
0001
0000
0000
1000
0000
0000
0100
0000
0000
0010
0000
0000
,
0000
0001
0010
0000
0000
0000
0000
0100
0010
0000
0000
0000
0000
1000
0000
0000
0001
0000
0000
0000
0010
0000
0100
0000
0000
0010
0000
0000
0001
0000
0000
0000
1000
0100
0000
0000
0000
0000
0010
0000
0000
0001
0000
0000
0100
1000
0000
0000
,
0000
0000
1000
0000
0000
0001
0000
0000
0010
0000
0000
0100
0000
0000
0000
1100
0000
0001
0000
0000
0000
0010
0000
0200
0000
0000
0000
0000
0000
0000
0000
0000
0000
0000
0000
0000
0300
0000
1000
0000
0100
0000
0010
0000
0000
0001
0000
1000
,
0000
0100
0000
0000
0010
0000
0001
0000
0000
0000
0000
1000
0100
0000
0000
0000
0010
0001
0000
0000
0000
0000
0010
0000
0100
0000
0000
0010
0000
0000
0000
0001
0000
0000
0000
0000
0000
0000
0000
0000
0000
0000
0100
0000
0000
0000
0000
0000
,
0000
0000
0000
0000
1000
0000
0100
0000
0010
0000
0001
0000
0010
0000
0100
0000
0000
0000
0000
0000
0000
0000
0000
0000
0000
0000
0000
1000
0000
0000
0100
0000
0010
0000
0001
0000
0000
0000
0000
0000
0100
0000
0000
0000
1000
0000
0000
0001
,
0000
0000
0010
0000
0000
0000
0100
0000
1000
0000
0000
0000
0000
0001
0000
0010
0000
0000
0000
0000
0100
1000
0000
0000
0000
0000
0000
0001
0010
0000
0000
0000
0000
1000
0100
0000
0000
0000
0000
0010
0000
0001
0000
0000
0000
0000
1000
0000
,
0100
0000
0000
0000
0010
0000
0001
0000
0000
0000
0110
0000
0000
0000
1000
0000
0000
0001
0000
0000
0000
0010
0000
0100
0000
0010
0000
0000
0000
0001
0000
0000
0000
0000
0000
0000
0000
0000
0000
0000
0000
0000
0000
0000
0000
0000
0000
0000
,
1000
0000
0000
0100
0000
0000
0010
0000
0001
0000
0000
0000
0010
0000
0000
0100
0000
0000
0010
0000
0000
0001
0000
0000
0010
0000
0100
0000
0000
0000
1000
0000
0001
0000
0000
0000
0010
0000
0000
0000
0100
0000
0000
0010
0000
0000
0000
0001
,
0000
0000
1000
0000
0000
0100
0000
0000
0010
0000
0000
0001
0000
0000
0000
1000
0000
0000
0100
0000
0000
0010
0000
0000
0001
0000
0000
0000
1000
0000
0100
0000
0000
0000
0000
0010
0001
0000
0000
0000
0000
0000
1000
0000
0100
0000
0000
0010
,
0000
0000
0001
0000
0000
0010
0000
0000
0100
0000
0000
0000
1000
0000
0001
0000
0000
0000
0000
0010
0000
0100
0000
0000
0000
1000
0000
0000
0001
0000
0000
0010
0000
0000
0100
0000
0000
0000
1000
0000
0000
0001
0000
0000
0000
0010
0000
0000
,
0100
0000
0000
0000
1000
0000
0000
0001
0000
0010
0000
0000
0000
0100
0000
0000
1000
0000
0000
0001
0000
0000
0000
0010
0000
0000
0000
0100
0000
0000
1000
0000
0000
0001
0000
0000
0010
0000
0000
0100
0000
0000
0010
0000
0000
0000
0001
0000
,
0000
0010
0000
0100
0000
0000
0000
0010
0000
0001
0000
1000
0000
0000
0100
0000
0000
0010
0000
0000
0001
0000
0000
0000
0010
0000
0000
0100
0000
0000
1000
0000
0000
0000
0100
0000
0000
0010
0000
0000
0100
0000
0010
0000
0000
0000
0000
0100
,
1000
0000
0000
0000
0000
0100
0010
0000
0000
0000
0000
0100
0000
1000
0000
0000
0000
0000
0100
0000
0000
0010
0000
0000
0100
0000
0000
1000
0000
0000
0000
0100
0000
0000
0000
0010
0000
0000
0100
0000
0000
1000
0000
0000
0100
0000
0000
0000
,
0010
0000
0100
0000
0000
0000
1000
0000
0000
0100
0000
0000
0000
0010
0000
0000
0001
0000
0000
1100
0000
0000
0100
0000
0000
0000
0010
0000
0000
0000
0001
0000
0000
0010
0000
0000
0100
0000
0000
1000
0000
0000
0000
0001
0000
0000
0000
0010
,
0000
0100
0000
0000
0000
1000
0000
0000
0001
0000
0000
0000
0010
0100
0000
0000
0000
0000
1000
0001
0000
0000
0000
0000
0000
0110
0000
0000
0000
0000
1000
0000
0001
0000
0000
0000
0000
0010
0000
0100
0000
0000
0000
0000
1000
0000
0001
0000
,
0000
0000
0000
0000
0110
0000
0000
0000
0000
0000
0000
0010
0000
0000
0000
0000
0000
0000
0000
0100
0000
0010
0000
0000
0000
0000
0000
0000
0100
0010
0000
0000
0000
0000
0000
0000
0000
0010
0100
0000
0001
0000
0010
0000
0000
0000
0000
0001
,
0000
1000
0000
0000
0000
0001
0000
0000
0010
0000
0000
0100
0000
0000
1000
0000
0000
0001
0000
0000
0000
0010
0000
0000
0100
0000
0000
1000
0000
0001
0000
0000
0000
0010
0000
0100
0000
0000
0000
1000
0000
0001
0000
0000
0000
0010
0000
0100
,
0000
0000
0000
1000
0000
0000
0100
0000
0000
0000
0000
0010
0100
0000
0000
0000
0010
0000
0001
0000
0000
0000
0010
0100
0000
0000
0000
1000
0000
0000
0001
0000
0000
0000
0010
0000
0000
0000
0100
0000
0000
0000
0000
0000
0000
0000
0000
0000
,
0000
0000
0000
0100
0000
0000
0000
0000
0010
0000
0000
0100
0000
0000
0000
0010
0001
0000
0000
0010
0000
0100
0000
0000
0010
0000
0001
0100
0000
0000
0000
0000
0000
0000
0000
0000
0000
0000
0000
0000
1001
0000
0000
0000
0000
0000
0000
0000
,
1000
0000
0100
0010
0000
0001
0001
0000
0001
0100
0001
0000
0001
1000
0000
0110
,
0000
1001
0000
0110
0000
1001
0000
0110
1000
0001
0110
0000
1001
0000
0110
0001
,
1000
0100
0000
0011
0000
0100
0000
0001
0000
0000
0100
0011
0000
1000
0100
0010
,
0001
1000
0100
0010
0001
0000
1100
0000
0011
0000
0010
0100
0010
0001
0010
0100
,
0011
0000
0010
0100
0010
0001
1000
0000
0100
0010
0001
0010
0100
0010
0001
1000
,
0100
0010
0001
0010
0100
0010
0001
0010
0100
0010
0000
0001
0010
0100
1000
0001
,
0010
0100
1000
0001
0010
0100
1000
0001
0010
0000
0100
1000
0001
0010
0100
0010
,
0001
0000
0010
0100
1000
0001
0010
0100
0000
1000
0001
0010
0100
1000
0001
0010
,
0000
0100
1000
0001
0010
0100
0010
0001
0010
0100
1000
0001
0000
0010
0100
1000
,
0001
0010
0100
1000
0000
0001
0010
0100
1000
0001
0000
0010
0100
0010
0001
0010
,
0100
0010
0001
1000
0100
0010
0001
0000
0100
0010
1000
0001
0010
0000
1100
0000
,
0001
0010
0000
1000
0100
0000
0110
0000
1000
0100
0000
0000
0000
0000
1000
0000
,
0000
0000
1000
0100
0010
0000
1000
0100
1000
0010
1000
0100
0000
1000
0010
1000
,
0100
1000
0000
0010
1000
0000
0000
0000
0000
0000
0000
0000
1000
0100
0010
0100
,
1000
0000
0100
0010
0100
0000
1000
0100
0010
0000
0100
1000
0100
0000
0010
0100
,
1000
0100
0000
0010
0110
0000
0100
1000
0100
0010
0000
0100
1000
0100
0010
0000
,
0100
0010
0001
0000
0010
0100
0010
0001
0000
0010
0100
1000
0100
0010
0000
0100
,
0010
1100
0000
0100
0000
0000
0000
0000
0000
0010
0000
0100
1000
0100
0000
0010
,
0100
0010
0001
0000
0010
0100
0010
0001
1000
0000
0100
0010
0100
0010
0000
0100
,
1000
0100
0010
0000
0100
1000
0100
0000
0010
0001
0010
0100
0000
1000
0100
0010
,
0100
0000
1000
0001
0010
0100
1000
0000
0001
0010
0100
1000
0000
0001
0010
0100
,
1000
0001
0000
0010
0100
0000
0010
0001
0010
0100
0010
0001
0000
0010
0100
1000
,
0001
0000
0010
0100
0000
1001
0000
0000
0110
0000
1000
0001
0000
0100
0010
1000
,
0000
0001
0010
0100
0000
1000
0001
0010
0000
0100
1000
0001
0000
0010
0100
0010
,
0000
0001
0010
0100
1000
0001
0010
0000
0100
0010
0001
0010
0000
0100
1000
0001
,
0100
0010
0000
1000
0001
0000
0010
0100
1000
0001
0000
0000
0100
1000
0000
0001
,
0010
0100
1000
0001
0000
0000
0100
0000
0011
0000
0010
0100
0000
0001
0000
1000
,
0010
0000
0100
0001
1000
0001
0000
0010
0001
1000
0100
0000
0010
0001
1000
0100
,
0010
0000
0001
1000
0000
0010
0000
0001
0000
0010
0100
0000
1000
0001
0010
0100
,
0000
0010
0001
0010
0000
0100
0010
0001
0000
1000
0100
0010
0001
0000
0010
0100
,
0000
0010
0001
1000
0000
0100
0010
0001
0010
0100
0000
0010
0001
0010
0000
0100
,
1000
0002
0010
0000
0000
0000
0000
0000
0000
0000
0000
0000
0000
0000
0003
0000
,
0000
0000
0000
0000
0000
0000
0000
0000
0000
0000
1001
0000
0000
0000
0000
0000
0000
0100
0000
0000
0000
0000
0000
0000
0000
0000
0011
0000
0000
0000
0000
0000
0000
0000
0000
0000
0000
0000
0000
0000
1000
0100
0000
0010
0001
0000
0000
0000
0000
0000
0000
0000
0000
0000
0000
0000
0000
0000
0000
0000
1001
0000
0000
0000
,
0000
0000
0000
0000
0000
0000
0000
0000
0000
0000
0000
0000
0000
0000
0000
0000
0000
0000
0000
0000
0000
0000
0000
0000
0000
0000
0000
0100
0000
0000
0000
0000
0000
0000
0000
0000
0010
0000
0000
0000
0000
0000
0000
0000
0000
0000
0000
0000
0000
0000
0000
0000
0000
0000
0000
0000
0000
0001
0000
0000
0000
0000
0000
0000
0000
0000
0000
0000
0000
0000
0000
0000
0000
0000
0000
0000
0000
0000
0101
0000
0000
0000
0000
0000
0000
0000
0000
0000
0000
0000
0000
0000
0000
0000
0000
0000
0000
0000
0000
0000
0000
0000
0000
0000
0000
0000
0000
0000
0000
0000
0000
0000
0000
0000
0000
0000
0000
0000
0000
0000
0000
0000
0000
0000
1000
0000
0000
0000
0000
0000
0000
0000
0100
0000
0000
0000
0010
0000
0000
0000
0001
0000
0000
0000
0000
0000
0000
0000
0000
0000
0000
0000
0000
0000
0000
0000
0000
0000
0000
0000
0000
0000
0000
0000
0000
0000
0000
0000
0000
0000
0000
0000
0000
0000
0000
0000
0000
0000
0000
0000
0000
0000
0000
0000
0101
0000
0000
0000
0000
0000
0000
0000
,
0000
0000
0000
0000
0000
0000
1000
0000
0100
0010
0001
0000
0000
0000
0000
0100
0000
0000
0000
0000
1010
0000
0000
0000
0000
0000
0000
0000
0000
0000
0000
0010
0100
0010
0000
0001
0000
0000
0000
0000
0000
0000
0000
0000
0000
0110
0000
0000
,
0000
0000
0000
0000
1000
0000
0100
0010
0001
0000
0000
0000
1000
0100
0010
0000
0001
0000
1100
0000
0010
0000
0001
0000
0000
0000
0000
0000
0000
0000
0000
0000
0000
0000
0000
0000
0000
0000
0000
0000
0000
0000
0000
0000
0000
0000
0000
0000
;

//---------------dance-single - ----------------
#NOTES:
     dance-single:
     :
     Easy:
     1:
     0.000,0.000,0.000,0.000,0.000,0.000,0.000,0.000,0.000,0.000:
0000
0000
0000
0000
;

//---------------dance-single - ----------------
#NOTES:
     dance-single:
     :
     Edit:
     1:
     0.000,0.000,0.000,0.000,0.000,0.000,0.000,0.000,0.000,0.000:
0000
0000
0000
0000
;
